#VERSION:0.83;
#TITLE:Come Back;
#SUBTITLE:(Love has got a Hold of Me);
#ARTIST:Haddaway;
#TITLETRANSLIT:;
#SUBTITLETRANSLIT:;
#ARTISTTRANSLIT:;
#GENRE:;
#ORIGIN:;
#CREDIT:;
#BANNER:comebackbn.png;
#BACKGROUND:comebackbg.png;
#PREVIEWVID:;
#JACKET:;
#CDIMAGE:;
#DISCIMAGE:;
#LYRICSPATH:;
#CDTITLE:;
#MUSIC:Come Back (Love Has Got a Hold of Me).ogg;
#OFFSET:0.000920;
#SAMPLESTART:87.957962;
#SAMPLELENGTH:14.280005;
#SELECTABLE:YES;
#BPMS:0.000=130.870;
#STOPS:;
#DELAYS:;
#WARPS:;
#TIMESIGNATURES:0.000=4=4;
#TICKCOUNTS:0.000=4;
#COMBOS:0.000=1;
#SPEEDS:0.000=1.000=0.000=0;
#SCROLLS:0.000=1.000;
#FAKES:;
#LABELS:0.000=Song Start;
#BGCHANGES:16.000=rainbowgradient.mp4=1.000=1=0=1=SongBgWithMovieViz==CrossFade==,
32.000=rainbowgradient.mp4=1.000=1=0=1===CrossFade==,
48.000=rainbowstrips.mp4=1.000=0=1=1=StretchRewind==SlideLeft==,
96.000=flash=2.000=0=0=1=====,
96.250=classicstrips.mp4=1.000=0=1=1=StretchRewind====,
128.000=rainbowgradient.mp4=1.000=0=0=1===SlideUp==,
160.000=flash=2.000=0=0=1=====,
160.250=rainbowstrips.mp4=1.000=0=0=1=====,
192.000=classicstrips.mp4=1.000=0=0=1===SlideRight==,
194.000=flash=2.000=0=0=1=====,
194.250=classicstrips.mp4=1.000=0=0=1=====,
210.000=flash=2.000=0=0=1=====,
210.250=classicstrips.mp4=1.000=0=0=1=====,
224.000=flash=2.000=0=0=1=====,
224.250=rainbowgradient.mp4=1.000=0=1=1=StretchRewind====,
256.000=flash=2.000=0=0=1=====,
256.250=rainbowstrips.mp4=1.000=0=0=1=====,
268.000=rainbowstrips.mp4=1.000=1=0=1=SongBgWithMovieViz==CrossFade==,
272.000=comebackbg.png=1.000=1=0=1===CrossFade==,
99999=-nosongbg-=1.000=0=0=0 // don't automatically add -songbackground-
;
#KEYSOUNDS:;
#ATTACKS:
;

//---------------dance-single - C. Picardy----------------
#NOTEDATA:;
#CHARTNAME:;
#STEPSTYPE:dance-single;
#DESCRIPTION:C. Picardy;
#CHARTSTYLE:;
#DIFFICULTY:Beginner;
#METER:1;
#RADARVALUES:0.088719,0.133639,0.055028,0.007861,0.000000,79.000000,72.000000,7.000000,1.000000,0.000000,0.000000,0.000000,0.000000,0.000000,0.088719,0.133639,0.055028,0.007861,0.000000,79.000000,72.000000,7.000000,1.000000,0.000000,0.000000,0.000000,0.000000,0.000000;
#CREDIT:C. Picardy;
#NOTES:
0000
0000
0000
0000
,
0000
0000
0000
0000
,
0000
0000
0000
0000
,
0000
0000
0000
0000
,
1000
0000
0000
0000
,
0001
0000
0000
0000
,
1000
0000
0000
0000
,
0001
0000
0000
0000
,
1000
0000
1000
0000
,
1000
0000
0000
0000
,
0001
0000
0001
0000
,
0001
0000
0000
0000
,
0100
0000
0010
0000
,
0100
0000
0000
0000
,
0010
0000
0100
0000
,
0010
0000
0000
0000
,
1001
0000
0000
0000
,
1000
0000
0000
0000
,
0001
0000
0000
0000
,
0100
0000
0100
0000
,
0100
0000
0000
0000
,
0010
0000
0000
0000
,
0001
0000
0001
0000
,
0002
0000
0000
0000
,
0003
0000
0000
0000
,
1000
0000
0000
0000
,
0010
0000
0000
0000
,
0100
0000
0000
0000
,
0001
0000
0000
0000
,
0010
0000
0000
0000
,
0100
0000
0000
0000
,
1000
0000
0000
0000
,
1001
0000
0000
0000
,
0100
0000
0000
0000
,
0010
0000
0000
0000
,
0100
0000
0000
0000
,
1001
0000
0000
0000
,
0001
0000
0000
0000
,
1000
0000
0000
0000
,
0001
0000
0000
0000
,
0001
0000
0001
0000
,
0001
0000
0000
0000
,
1000
0000
1000
0000
,
1000
0000
0000
0000
,
0100
0000
0100
0000
,
0100
0000
0000
0000
,
0010
0000
0010
0000
,
0010
0000
0000
0000
,
1001
0000
0000
0000
,
0100
0000
0000
0000
,
0100
0000
0000
0000
,
0010
0000
0000
0000
,
1001
0000
0000
0000
,
0001
0000
0000
0000
,
1000
0000
0000
0000
,
0001
0000
0000
0000
,
1001
0000
0000
0000
,
1000
0000
0000
0000
,
0001
0000
0000
0000
,
1000
0000
0000
0000
,
0010
0000
0000
0000
,
0100
0000
0000
0000
,
0010
0000
0000
0000
,
0100
0000
0000
0000
,
1001
0000
0000
0000
,
0000
0000
0000
0000
,
0010
0000
0000
0000
,
0000
0000
0000
0000
,
0100
0000
0000
0000
;

//---------------dance-single - C. Picardy----------------
#NOTEDATA:;
#CHARTNAME:;
#STEPSTYPE:dance-single;
#DESCRIPTION:C. Picardy;
#CHARTSTYLE:;
#DIFFICULTY:Easy;
#METER:3;
#RADARVALUES:0.233588,0.267279,0.094334,0.102195,0.000000,208.000000,196.000000,12.000000,13.000000,0.000000,0.000000,0.000000,0.000000,0.000000,0.233588,0.267279,0.094334,0.102195,0.000000,208.000000,196.000000,12.000000,13.000000,0.000000,0.000000,0.000000,0.000000,0.000000;
#CREDIT:C. Picardy;
#NOTES:
0000
0000
0000
0000
,
0000
0000
0000
0000
,
0000
0000
0000
0000
,
0000
0000
0000
0000
,
1000
0000
0001
0000
,
0100
0000
0010
0000
,
1000
0000
0100
0000
,
0010
0000
0001
0000
,
1000
1000
1000
0000
,
0001
0001
0001
0000
,
0100
0010
0100
0000
,
0010
0100
0010
0100
,
1001
1000
0001
1000
,
0100
0010
0100
0010
,
0001
0010
0100
1000
,
0001
0100
0010
1000
,
0001
0100
0100
0000
,
0010
0000
1000
0000
,
0001
1000
1000
0000
,
0100
0000
0010
0000
,
0001
0100
0100
0000
,
0100
0000
0010
0000
,
1000
0001
1000
0100
,
0010
0010
0100
0100
,
1001
0000
0100
0000
,
0010
1000
0001
0001
,
2000
0000
3001
0000
,
0010
0010
0100
0100
,
1001
0000
1000
0000
,
0010
0010
1000
0001
,
0200
0000
0310
0000
,
2000
0000
0001
3001
,
0120
0000
2030
0000
,
3002
0000
0013
0100
,
1000
0000
0001
0100
,
0100
0010
0010
1000
,
2001
0000
3200
0000
,
0320
0000
0031
0010
,
0100
0000
1000
0001
,
0001
0100
0100
0010
,
1001
1000
0001
1000
,
0100
0010
0100
0010
,
0001
0100
0010
1000
,
0001
0010
0100
1000
,
0010
0010
0100
0100
,
0001
0001
1000
1000
,
0100
0010
0001
1000
,
0010
0100
0001
1000
,
0110
0000
1001
0000
,
0100
0100
0010
1000
,
0002
0000
1003
0000
,
0100
0010
0001
1000
,
1100
0000
0101
0000
,
1000
0010
0100
0001
,
0020
0000
0130
0000
,
2000
0000
3001
0010
,
1001
0000
0100
0000
,
0010
1000
1000
0001
,
0001
0000
1000
0000
,
0010
0010
0100
0100
,
0001
1000
0001
0000
,
0010
0100
0010
0100
,
2000
0000
3001
0000
,
1000
0100
0010
0001
,
1001
0000
0100
0000
,
0010
0000
1000
0000
,
0001
0000
0010
0000
,
0100
0000
1000
0000
,
0010
0000
0000
0000
;

//---------------dance-single - C. Picardy----------------
#NOTEDATA:;
#CHARTNAME:;
#STEPSTYPE:dance-single;
#DESCRIPTION:C. Picardy;
#CHARTSTYLE:;
#DIFFICULTY:Medium;
#METER:5;
#RADARVALUES:0.345890,0.374190,0.220112,0.314446,0.000000,308.000000,280.000000,28.000000,40.000000,0.000000,0.000000,0.000000,0.000000,0.000000,0.345890,0.374190,0.220112,0.314446,0.000000,308.000000,280.000000,28.000000,40.000000,0.000000,0.000000,0.000000,0.000000,0.000000;
#CREDIT:C. Picardy;
#NOTES:
0000
0000
0000
0000
,
0000
0000
0000
0000
,
0000
0000
0000
0000
,
0000
0000
0000
0000
,
1000
0000
0000
0001
0001
0000
0000
0100
,
0100
0000
0000
0010
0010
0000
0000
1000
,
1000
0000
0000
0001
1000
0000
0000
0100
,
0010
0000
0000
0001
1000
0000
0000
0100
,
0010
0110
0001
0011
,
0100
0101
0001
0101
,
1000
1010
0001
1001
,
1000
0000
0100
0000
0010
0100
0010
0100
,
0010
0000
0001
0000
1000
0100
1000
0000
,
0001
0000
0100
0000
0010
1000
0010
0000
,
1000
0100
1000
0000
0001
0100
0001
0000
,
1000
0100
1000
0000
0001
0010
0001
0000
,
1001
0100
0010
1000
,
0001
1000
0000
1000
0000
0001
0100
0000
,
0010
0000
1000
0000
0100
0100
0000
1000
,
0010
0000
0100
0000
0001
0000
1000
1000
,
0001
0010
0010
0100
,
0010
0010
0000
0010
0000
0000
0100
0000
,
0010
0000
0001
0000
0100
0010
0000
2002
,
0000
0000
0000
3003
,
0110
1000
0001
0100
,
0010
2000
0000
0010
0000
3010
0000
0000
,
0200
0000
0001
0301
0000
0000
1000
0000
,
0001
0000
0100
0000
0010
0100
0010
0000
,
1001
0010
0100
1000
,
0001
0200
0000
0010
0000
0310
0000
0000
,
2000
0000
0100
3100
0000
0000
0010
0000
,
0001
0000
0100
0000
0010
1000
0100
0000
,
0110
0000
0002
0000
0000
0203
0000
0000
,
0320
0000
0000
2030
0000
3200
0000
1300
,
0001
0000
1000
0000
0001
0100
0010
0000
,
1000
0100
0010
0000
0100
0000
0011
0000
,
1100
0000
0020
0000
0000
0230
0000
0000
,
0302
0000
0000
0023
0000
0230
0000
1300
,
0001
0000
1000
0000
0010
0100
0001
0000
,
0010
0100
1000
0000
0101
0000
1100
0000
,
0201
0010
0001
0310
,
1020
0100
1000
0130
,
2010
0100
0001
3100
,
0120
0001
0100
0031
,
1000
0100
1000
0000
0001
0100
0001
0000
,
1000
0010
1000
0000
0001
0010
0001
0000
,
1000
0100
0010
0000
0010
0100
1000
0000
,
0001
0100
0010
0000
0010
0100
0001
0000
,
1001
0100
2002
3003
,
1000
0000
0100
0000
0010
0001
0010
0000
,
0200
0000
1000
1300
0000
0000
0001
0000
,
0100
0000
0010
0000
1000
1000
0001
0000
,
0011
0100
2020
3030
,
0001
0000
0100
0000
0010
1000
0010
0000
,
0200
0000
0001
0301
0000
0000
1000
0000
,
0100
0000
1000
0000
0001
0100
0010
0000
,
2002
0000
3003
0000
0100
0000
0010
0010
,
1000
0100
1100
0001
,
1010
0000
0100
0000
0001
0100
1000
0000
,
0100
0000
0001
0000
1000
0100
0001
0000
,
0100
1000
0101
0010
,
1000
1000
0001
0000
0010
0000
0100
0000
,
1001
0000
0100
0010
0100
0000
0001
0000
,
1000
0000
0001
0000
1000
0001
1000
0001
,
2000
3200
0302
0203
,
2300
3020
0032
0023
,
2030
0000
3002
0000
,
0203
0000
0320
0000
,
0030
0000
0000
0000
;

//---------------dance-single - C. Picardy----------------
#NOTEDATA:;
#CHARTNAME:;
#STEPSTYPE:dance-single;
#DESCRIPTION:C. Picardy;
#CHARTSTYLE:;
#DIFFICULTY:Hard;
#METER:7;
#RADARVALUES:0.467176,0.484639,0.220112,0.251557,0.074681,416.000000,388.000000,28.000000,32.000000,0.000000,0.000000,0.000000,0.000000,0.000000,0.467176,0.484639,0.220112,0.251557,0.074681,416.000000,388.000000,28.000000,32.000000,0.000000,0.000000,0.000000,0.000000,0.000000;
#CREDIT:C. Picardy;
#NOTES:
// measure 0
0000
0000
0000
0000
,  // measure 1
0000
0000
0000
0000
,  // measure 2
0000
0000
0000
0000
,  // measure 3
0000
0000
0000
0000
,  // measure 4
1000
0000
0000
0001
0000
0000
0100
0000
0100
0000
0000
0010
0000
0000
1000
0000
,  // measure 5
1000
0000
0000
0001
0000
0000
0010
0000
0010
0000
0000
0100
0000
0000
1000
0000
,  // measure 6
0001
0000
0000
0100
0000
0000
0001
0000
1000
0000
0000
0010
0000
0000
1000
0000
,  // measure 7
0100
0000
0000
0010
0000
0000
0001
0000
0100
0000
0000
0010
0000
0000
1000
0000
,  // measure 8
0100
0010
0011
0000
1000
0010
1010
0000
,  // measure 9
1000
0100
1100
0000
0001
0100
0101
0000
,  // measure 10
0010
0100
0110
0000
0100
0010
0110
0000
,  // measure 11
1000
0001
1000
0001
0010
0100
0010
0100
,  // measure 12
1000
0100
0010
0100
1000
0100
0010
0100
,  // measure 13
1000
0001
0100
0001
1000
0001
0100
0001
,  // measure 14
0010
0001
0100
0001
0010
0001
0100
0001
,  // measure 15
1000
0010
0100
0010
1000
0010
0100
0001
,  // measure 16
2000
3100
0110
0001
,  // measure 17
1000
0010
0010
1000
0001
0000
0100
0100
,  // measure 18
0010
1000
0001
0010
0100
0100
0000
1000
,  // measure 19
0001
0100
0001
0001
1000
0000
0100
0100
,  // measure 20
0010
0000
1100
0000
0101
0000
1000
0001
,  // measure 21
0100
0010
0000
1000
0001
0000
1000
0100
,  // measure 22
0010
0000
0010
0100
1000
1000
0000
0001
,  // measure 23
0100
0010
0100
0010
1000
0001
1000
0001
,  // measure 24
0100
0000
0000
0000
1001
0000
0000
0000
1000
0000
0100
0000
0010
0000
0000
0010
,  // measure 25
0100
1000
0001
0000
1000
0010
0100
0000
,  // measure 26
0120
0000
1000
1030
0100
0000
0011
0000
,  // measure 27
1000
0100
0010
0100
1000
1000
0010
0000
,  // measure 28
0101
0000
0000
0000
1000
0000
0000
0000
0001
0000
0100
0000
0010
0000
0000
0010
,  // measure 29
1000
0100
0010
0000
0001
0010
0100
0000
,  // measure 30
0120
0000
0001
0031
0100
0000
0010
0000
,  // measure 31
1000
0000
0001
0000
0100
0010
0100
0001
,  // measure 32
1001
0200
0001
0010
,  // measure 33
0302
1000
0010
1003
,  // measure 34
0100
0000
0010
0000
0001
0100
0010
0000
,  // measure 35
0010
0100
0001
0000
1000
0010
0100
0000
,  // measure 36
1010
0200
0010
1000
,  // measure 37
0320
0001
0100
0031
,  // measure 38
1000
0000
0100
0000
1000
0100
0001
0000
,  // measure 39
0001
0100
1000
0000
0001
0010
0100
1000
,  // measure 40
0001
0100
0001
0100
0010
0100
0010
0100
,  // measure 41
0010
1000
0010
1000
0100
1000
0100
1000
,  // measure 42
0100
0001
0100
0001
0100
1000
0100
1000
,  // measure 43
0010
0001
0010
0001
0010
1000
0010
1000
,  // measure 44
0001
0100
1000
0100
0001
0100
1000
0100
,  // measure 45
0001
0010
1000
0010
0001
0010
1000
0010
,  // measure 46
0001
0100
0010
0100
0001
0100
0010
1000
,  // measure 47
0100
1000
0010
1000
0100
1000
0010
0000
,  // measure 48
2100
3001
0202
0303
,  // measure 49
0001
0100
0010
0010
1000
0000
0001
0000
,  // measure 50
2001
0000
0100
3100
0010
0000
0110
0000
,  // measure 51
0001
0010
0001
0010
0010
0100
1000
0000
,  // measure 52
0201
0310
2020
3030
,  // measure 53
1000
0010
0100
0100
0010
0000
1000
0000
,  // measure 54
0102
0000
0010
0013
0100
0000
1000
0000
,  // measure 55
0001
0000
1000
0000
0010
0100
0010
1000
,  // measure 56
2002
0000
0000
0000
3003
0000
0000
0000
1000
0000
0000
0000
0100
0000
0000
0100
,  // measure 57
1000
0000
0000
0000
0001
0000
0000
0001
0100
0000
0000
0000
0010
0000
0000
0010
,  // measure 58
1000
0000
0000
0000
0001
0000
0000
0001
1000
0000
0000
0000
0010
0000
0000
0010
,  // measure 59
0100
0000
0000
0000
0001
0000
0000
0001
0010
0000
0000
0000
0100
0000
0000
0100
,  // measure 60
0010
0000
0000
0000
0011
0000
0000
0000
2100
0000
0000
0000
3001
0000
0000
0001
,  // measure 61
0100
0010
1000
0000
0010
1000
0100
0000
,  // measure 62
0012
0000
0000
0000
0100
0000
0103
0000
0010
0000
0000
0000
0010
0000
0000
0010
,  // measure 63
1000
0000
0010
0000
1000
0001
1000
0100
,  // measure 64
1002
0000
0203
0000
0310
1000
0002
0000
,  // measure 65
2003
0000
3200
0000
1300
0010
0200
0000
,  // measure 66
0320
0000
2030
0000
3001
1000
0200
0000
,  // measure 67
0320
0000
0032
0000
0013
0100
2000
0000
,  // measure 68
0020
0000
3030
0000
;

//---------------dance-single - C. Picardy----------------
#NOTEDATA:;
#CHARTNAME:;
#STEPSTYPE:dance-single;
#DESCRIPTION:C. Picardy;
#CHARTSTYLE:;
#DIFFICULTY:Challenge;
#METER:9;
#RADARVALUES:0.685042,0.780808,0.204390,0.393057,0.558141,610.000000,584.000000,26.000000,50.000000,0.000000,0.000000,0.000000,0.000000,0.000000,0.685042,0.780808,0.204390,0.393057,0.558141,610.000000,584.000000,26.000000,50.000000,0.000000,0.000000,0.000000,0.000000,0.000000;
#CREDIT:C. Picardy;
#NOTES:
0000
0000
0000
0000
,
0000
0000
0000
0000
,
0000
0000
0000
0000
,
0000
0000
0000
0000
,
0010
0000
0000
0100
0000
0000
0001
0000
1000
0000
0000
0010
0000
0000
0100
0000
,
0001
0000
0000
1000
0000
0000
0001
0000
0010
0000
0000
0001
0000
0000
1000
0000
,
0010
0000
0100
0010
0000
0000
1000
0000
0001
0000
0100
0001
0000
0000
1000
0000
,
0100
0000
0010
0100
0000
0000
1000
0000
0001
0000
1000
0001
0000
0000
0100
0000
,
0010
0000
1000
0000
0100
0010
0000
0010
0100
0000
1000
0000
0010
0100
0000
0100
,
0001
0000
0010
0000
0001
0010
0000
0010
0100
0000
1000
0000
0001
0100
0000
0100
,
1000
0000
0100
0000
0001
0010
0000
0010
0001
0000
1000
0000
0001
1000
0000
1000
,
0001
0010
0001
0010
0001
0010
0001
0010
0100
1000
0100
1000
0100
1000
0100
1000
,
0001
0000
0100
0000
0101
0000
0100
0010
1000
0000
0001
0000
1001
0000
1000
0100
,
0010
0000
0001
0000
0011
0000
1000
0010
0100
0000
0010
0000
1010
0000
0001
0100
,
0010
0000
1000
0000
1100
0000
0010
0100
1000
0000
0001
0000
0101
0000
0100
0010
,
1000
0000
0001
0000
1001
0000
0010
0001
0100
0000
0010
0000
0110
0000
0010
1000
,
0002
0000
0000
0000
1003
0000
0000
0100
1000
0000
0001
0000
0100
0000
0010
0100
,
0010
0000
1000
0000
0100
0000
1000
0100
1000
0000
0001
0000
0010
0000
0001
0010
,
0001
0100
0010
2000
0001
3001
1000
0100
,
1000
0000
1000
0000
0010
0000
0200
0000
0000
0000
0000
0000
0001
0000
0301
0100
,
0010
0000
1000
0000
0001
0000
0010
0100
1000
0000
0100
0000
0010
0000
0100
0010
,
0001
0000
0100
0000
0010
0000
1000
0010
0100
0000
0001
0000
1000
0000
0100
1000
,
0010
0100
0001
0020
0100
0100
0000
0031
,
1000
0100
1000
0100
1000
0100
1000
0100
0010
0001
0010
0001
0010
0001
0010
0001
,
1000
0000
0010
0000
1010
0000
0000
0001
0010
0000
0001
0000
0011
0000
0000
1000
,
0100
0000
0010
0000
0110
0000
0000
0001
1000
0000
0100
0000
1100
0000
0000
0010
,
0001
0000
0100
0000
0101
0000
0000
0010
1000
0000
0001
0000
1001
0000
0000
0100
,
0001
0001
0200
0010
0310
2000
0100
3100
,
0010
0000
0001
0000
1100
0000
0000
0001
0100
0000
0010
0000
1010
0000
0000
0100
,
0001
0000
1000
0000
0101
0000
0000
0010
1000
0000
0100
0000
0011
0000
0000
1000
,
0001
0000
0100
0000
0110
0000
0000
1000
0001
0000
0010
0000
0110
0000
0000
1000
,
0001
0000
0100
0000
0011
0000
0000
1000
0100
0010
0100
0010
0100
1000
0100
1000
,
0001
0000
0010
0000
0100
0000
0000
0010
0001
0000
0100
0000
0010
0000
0000
1000
,
0010
0000
1000
0000
0100
0000
0000
0010
0100
0000
1000
0000
0010
0000
0000
0100
,
0001
0000
0010
0000
0100
0000
0000
1000
0100
0000
0020
0000
0001
0000
0031
0000
,
1000
0020
1000
1030
0100
0010
0001
0100
,
1001
0000
0000
0000
1100
0000
0000
0001
0100
0000
0001
0000
0010
0000
0000
0100
,
1000
0000
0100
0000
0010
0000
0000
0001
1000
0000
0010
0000
0100
0000
0000
0001
,
0010
0000
0001
0000
0100
0000
0000
0010
1000
0000
0200
0000
1000
0000
1300
0000
,
0010
0000
0200
0000
0001
0000
0301
0000
1000
0000
0100
0010
0100
0010
0100
0010
,
0100
0000
1000
0000
0001
0000
1000
0100
1000
0000
0001
0000
0100
0000
0010
0100
,
0010
0000
1000
0000
0001
0000
0010
0001
0010
0000
0100
0000
1000
0000
0001
0100
,
0001
0000
1000
0000
0100
0000
0010
0100
1000
0000
0001
0000
0100
0000
0010
1000
,
0001
0000
0010
0000
0100
0000
0010
0001
1000
0000
0100
0000
0010
0000
0001
0100
,
0010
0000
1000
0000
0100
0000
0001
0100
1000
0000
0010
0000
0001
0000
1000
0100
,
0010
0000
1000
0000
0001
0000
1000
0010
0001
0000
0010
0000
1000
0000
0001
0100
,
1000
0000
0100
0000
0001
0000
0010
0100
1000
0000
0001
0000
0100
0000
0010
1000
,
0100
0000
0010
0000
0100
0000
0010
0000
0001
1000
0001
1000
0001
0100
0001
0100
,
0002
0000
0000
0000
0013
0000
0000
0100
1000
0000
0100
0000
0010
0000
0000
0100
,
1000
0000
0100
0000
0010
0000
0001
0010
0001
0000
0100
0000
0010
0000
1000
0000
,
0002
0000
0000
0000
0010
0000
0013
0000
0100
0000
0010
0000
0001
0000
0100
0010
,
2000
0001
3001
0200
0010
0310
1000
0100
,
1100
0000
0000
0001
1000
0000
0100
0000
0020
0000
0000
0000
0130
0000
0000
1000
,
0010
0000
0100
0000
0001
0000
1000
0010
1000
0000
0100
0000
0010
0000
0100
0000
,
2000
0000
0010
3010
0100
0001
1000
0001
,
0100
0000
0010
0000
0100
0000
0010
0000
1000
0000
0001
0010
0100
1000
0100
0010
,
0001
0000
0100
0000
0010
1000
0000
1000
0100
0000
0010
0000
0100
1000
0000
1000
,
0010
0000
0100
0000
0001
0010
0000
0010
0001
0000
1000
0000
0010
0100
0000
0100
,
0001
0000
0010
0000
0100
1000
0000
1000
0010
0000
0100
0000
0001
1000
0000
1000
,
0001
0000
0010
0000
0100
0010
0000
0010
0001
0000
1000
0000
1000
0100
1000
0100
,
1000
0000
0000
0000
0101
0000
0000
0000
2100
0000
0000
0000
3010
0000
0000
0100
,
0010
0000
0001
0000
1000
0010
0000
0100
0001
0000
1000
0000
0100
0010
0000
0100
,
1000
0000
0001
0000
0100
0010
0000
1000
0010
0000
0100
0000
0001
1000
0000
0100
,
0010
0000
0001
0000
0100
0010
0000
1000
0001
0010
0001
0010
0100
1000
0100
1000
,
0002
0000
0200
0003
0002
0300
0200
0003
2000
0300
0200
3000
2000
0300
0200
3000
,
0020
0300
2000
0030
0020
3000
2000
0030
0200
3000
0002
0300
0200
0003
0002
0300
,
0200
0003
2000
0300
0200
3000
2000
0300
0020
3000
0002
0030
0020
0003
0002
0030
,
0020
0003
2000
0030
0020
3000
2000
0030
0200
3000
0020
0300
0200
0030
0020
0300
,
0002
0000
0033
0000
;
