#TITLE:Citadel;
#SUBTITLE:;
#ARTIST:Helix Eternal;
#TITLETRANSLIT:;
#SUBTITLETRANSLIT:;
#ARTISTTRANSLIT:;
#GENRE:;
#CREDIT:;
#BANNER:citadelbn.png;
#BACKGROUND:citadelbg.png;
#LYRICSPATH:;
#CDTITLE:;
#MUSIC:citadel.ogg;
#OFFSET:-0.001013;
#SAMPLESTART:92.658936;
#SAMPLELENGTH:12.000000;
#SELECTABLE:YES;
#BPMS:0.000000=145.000000
;
#STOPS:
;
#BGCHANGES:16.000=darkfirerings.mp4=1.000=1=0=1=SongBgWithMovieViz==CrossFade==,
32.000=darkfirerings.mp4=1.000=0=0=1===CrossFade_Fastest==,
160.000=softspaceplasma.mp4=1.000=0=1=1=StretchRewind==CrossFade_Fastest==,
224.000=greenkaleidoscope.mp4=1.000=0=1=1=StretchRewind==CrossFade_Fastest==,
287.500=citadelbg.png=1.000=0=0=1===CrossFade_Fastest==,
99999=-nosongbg-=1.000=0=0=0 // don't automatically add -songbackground-
;
#KEYSOUNDS:;
#ATTACKS:;

//---------------dance-single - C. Picardy----------------
#NOTES:
     dance-single:
     :
     Beginner:
     1:
     0.092325,0.119184,0.025180,0.000000,0.000000,77.000000,74.000000,3.000000,0.000000,0.000000,0.000000,0.092325,0.119184,0.025180,0.000000,0.000000,77.000000,74.000000,3.000000,0.000000,0.000000,0.000000:
0000
0000
0000
0000
,
0000
0000
0000
0000
,
0000
0000
0000
0000
,
0000
0000
0000
0000
,
1000
0000
0000
0000
,
0000
0000
0000
0000
,
0001
0000
0000
0000
,
0000
0000
0000
0000
,
0100
0000
0000
0000
,
0010
0000
0000
0000
,
0100
0000
0000
0000
,
0010
0000
0000
0000
,
1000
0000
0000
0000
,
0001
0000
0000
0000
,
1000
0000
0000
0000
,
0001
0000
0000
0000
,
1000
0000
1000
0000
,
0000
0000
0000
0000
,
0001
0000
0001
0000
,
0000
0000
0000
0000
,
0100
0000
0100
0000
,
0000
0000
0000
0000
,
0010
0000
0010
0000
,
0000
0000
0000
0000
,
1000
0000
0000
0000
,
0001
0000
0000
0000
,
1000
0000
0000
0000
,
0001
0000
0000
0000
,
0100
0000
0000
0000
,
0010
0000
0000
0000
,
0100
0000
0000
0000
,
0010
0000
0000
0000
,
1001
0000
0000
0000
,
0100
0000
0000
0000
,
0010
0000
0000
0000
,
1000
0000
0000
0000
,
0001
0000
0000
0000
,
0100
0000
0000
0000
,
0010
0000
0000
0000
,
1000
0000
0000
0000
,
0110
0000
0000
0000
,
1000
0000
0000
0000
,
0001
0000
0000
0000
,
0100
0000
0000
0000
,
0010
0000
0000
0000
,
1000
0000
0000
0000
,
0001
0000
0000
0000
,
0100
0000
0000
0000
,
1001
0000
0000
0000
,
0100
0000
0000
0000
,
0010
0000
0000
0000
,
1000
0000
0000
0000
,
0001
0000
0000
0000
,
0010
0000
0000
0000
,
0100
0000
0000
0000
,
1000
0000
0000
0000
,
0001
0000
0001
0000
,
0001
0000
0000
0000
,
1000
0000
1000
0000
,
1000
0000
0000
0000
,
0001
0000
0001
0000
,
0001
0000
0000
0000
,
1000
0000
1000
0000
,
1000
0000
0000
0000
,
0100
0000
0100
0000
,
0100
0000
0000
0000
,
0010
0000
0010
0000
,
0010
0000
0000
0000
,
0100
0000
0100
0000
,
0100
0000
0000
0000
,
0010
0000
0010
0000
,
0010
0000
0000
0000
;

//---------------dance-single - C. Picardy----------------
#NOTES:
     dance-single:
     :
     Easy:
     4:
     0.300956,0.391438,0.251796,0.184651,0.000000,251.000000,221.000000,30.000000,22.000000,0.000000,0.000000,0.300956,0.391438,0.251796,0.184651,0.000000,251.000000,221.000000,30.000000,22.000000,0.000000,0.000000:
0000
0000
0000
0000
,
0000
0000
0000
0000
,
0000
0000
0000
0000
,
0000
0000
0000
0000
,
0010
0000
0100
0000
,
0001
0000
0010
0000
,
0100
0000
1000
0000
,
0020
0000
0000
0030
,
1001
0000
0100
0100
,
0010
0000
1000
0000
,
0001
0010
0100
0100
,
1000
0000
0010
0000
,
0100
0001
1000
1000
,
0010
0000
0100
0000
,
0001
1000
0010
0010
,
1000
0000
0100
0000
,
1001
0100
0010
0010
,
1000
0000
0001
0000
,
1100
0010
0100
0100
,
0001
0000
1000
0000
,
0110
1000
0001
0001
,
0010
0000
0100
0000
,
0011
0100
0010
0010
,
1000
0000
0001
0000
,
1001
1000
0000
0100
,
0010
0100
0100
0000
,
0110
0010
0000
0001
,
0100
0010
0010
0000
,
1010
1000
0000
0001
,
1000
0100
0100
0000
,
0011
0001
0000
1000
,
0100
1000
1000
0000
,
0101
0001
0000
1000
,
0010
0100
0100
0001
,
1001
1000
0000
0100
,
0010
0100
1000
1000
,
0110
0100
0000
1000
,
0001
0100
0010
0010
,
1001
0100
0000
0010
,
1000
0001
0010
0010
,
2002
3003
0220
0330
,
1000
0001
0100
0001
,
0220
0330
2002
3003
,
1000
0100
1000
0010
,
0202
0303
2200
3300
,
0001
0010
0100
1000
,
2020
3030
0022
0033
,
1000
0001
0100
0010
,
2000
0000
0001
3001
,
0010
0100
1000
0010
,
0200
0000
0001
0301
,
1000
0001
0100
0001
,
0020
0000
0100
0130
,
0010
0100
1000
1000
,
0002
0000
1000
1003
,
0001
0100
0010
0100
,
1001
0100
1000
0100
,
0010
0100
1000
0100
,
0010
0001
0100
0001
,
0010
0001
0100
0010
,
1000
0010
0100
0010
,
1000
0001
0010
0001
,
1000
0100
0010
0001
,
0100
0010
1000
0001
,
0110
1000
0001
0100
,
1001
0010
0100
0010
,
1100
0001
0100
0010
,
0101
1000
0100
0010
,
0001
0011
1000
1010
,
0100
0101
1000
1100
,
0010
0100
0001
1000
,
0002
0000
0100
0103
;

//---------------dance-single - C. Picardy----------------
#NOTES:
     dance-single:
     :
     Medium:
     6:
     0.441243,0.482609,0.235010,0.151078,0.000000,368.000000,340.000000,28.000000,18.000000,0.000000,0.000000,0.441243,0.482609,0.235010,0.151078,0.000000,368.000000,340.000000,28.000000,18.000000,0.000000,0.000000:
0000
0000
0000
0000
,
0000
0000
0000
0000
,
0000
0000
0000
0000
,
0000
0000
0000
0000
,
2000
0010
3010
0100
,
0001
0010
0100
0010
,
0001
0100
0010
1000
,
0200
0000
1000
0310
,
1001
0000
0010
0000
0100
0010
0100
0000
,
1000
0001
0100
0010
,
1000
0000
0001
0000
1000
0100
1000
0000
,
0010
0100
0001
0010
,
0001
0000
0100
0000
0010
1000
0010
0000
,
2000
0001
0010
3100
,
1000
0000
0100
0000
0010
0001
0010
0000
,
0200
1000
0010
1300
,
1010
0000
0001
0000
1000
0100
0010
0000
,
0002
1000
0010
0103
,
0001
0000
0010
0000
0001
0100
0010
0000
,
2000
0100
0010
3100
,
1000
0000
0010
0000
1000
0100
0001
0000
,
0100
1000
0010
0100
,
0001
0000
0010
0000
0001
0100
1000
0000
,
0100
0010
0101
1100
,
0010
0010
0010
0000
0100
0000
0101
0000
,
1000
0000
0100
0100
0100
0000
1000
0000
,
0001
0001
0001
0000
1000
0000
1010
0000
,
0100
0000
0010
0010
0010
0000
1000
0000
,
0100
0010
0100
0000
1000
0000
1100
0000
,
0010
0000
0100
0001
0010
0000
0010
0000
,
0001
0100
0010
0000
1000
0000
0110
0000
,
1000
0000
0100
1000
0010
0000
0100
0000
,
0001
0010
0200
0000
1000
0000
0010
0000
,
1300
0000
0010
0100
0001
0000
1001
0000
,
0001
0100
0020
0000
1000
0000
0100
0000
,
1030
0000
0001
0010
0100
0000
0011
0000
,
1000
0010
0200
0000
0001
0000
1000
0000
,
0301
0000
1000
0100
0010
0000
1100
0000
,
0001
0010
0200
0000
0010
0000
0001
0000
,
1300
0000
0010
0001
0100
0000
1001
0000
,
1000
0001
0000
0001
1000
0000
0110
0000
,
0100
0000
0010
0000
1000
0100
0010
0000
,
0001
0100
0000
0100
0001
0000
1010
0000
,
0100
0000
0010
0000
0001
0010
0100
0000
,
1000
0100
0000
0100
1000
0000
0101
0000
,
0010
0000
0100
0000
1000
0100
0010
0000
,
0100
0010
0000
0010
0100
0000
0011
0000
,
1000
0000
0001
0000
1000
0001
1000
0000
,
0010
0020
0000
0130
0200
0000
0301
0000
,
1000
0100
0001
0000
0001
0100
1000
0000
,
1000
2000
0000
3001
0002
0000
0103
0000
,
0001
0100
1000
0000
1000
0100
0001
0000
,
0010
0020
0000
0130
0200
0000
1300
0000
,
0001
0100
0010
0000
0010
0100
0001
0000
,
1000
2000
0000
3010
0020
0000
1030
0000
,
0001
0010
0100
0000
0100
0010
0001
0000
,
1000
0000
0101
0000
1000
0100
0001
0000
,
0001
0000
1100
0000
0001
0100
1000
0000
,
0100
0000
1010
0000
0001
0010
0100
0000
,
0010
0000
0101
0000
0010
1000
0100
0000
,
0011
0000
1100
0000
0001
0100
1000
0000
,
0101
0000
1010
0000
1000
0100
0001
0000
,
1100
0000
0101
0000
1000
0010
0100
0000
,
0011
0000
1010
0000
0001
0010
0100
0000
,
1000
0100
0001
0000
0001
0100
1000
0000
,
1000
0100
0010
0000
0010
0100
1000
0000
,
1000
0010
0001
0000
0001
0010
1000
0000
,
1000
0010
0100
0000
0100
0001
0010
0000
,
0001
0100
0001
0000
1000
0100
1000
0000
,
0010
0100
0010
0000
0100
0001
0100
0000
,
0001
0010
0001
0000
1000
0010
1000
0000
,
0100
0010
0100
0000
0010
0100
1000
0001
;

//---------------dance-single - C. Picardy----------------
#NOTES:
     dance-single:
     :
     Challenge:
     11:
     0.980806,0.996247,0.318942,0.075539,1.342913,818.000000,780.000000,38.000000,9.000000,76.000000,0.000000,0.980806,0.996247,0.318942,0.075539,1.342913,818.000000,780.000000,38.000000,9.000000,76.000000,0.000000:
0000
0000
0000
0000
,
0000
0000
0000
0000
,
0000
0000
0000
0000
,
0000
0000
0000
0000
,
1000
0000
0100
1000
0100
0000
1000
0000
0001
0000
0000
0100
0001
0000
0100
0010
,
0100
0000
0000
0001
1000
0000
0100
0000
1000
0000
0000
0010
0100
0000
0001
0000
,
0010
0000
0000
0100
0010
0000
0100
0000
1000
0000
0001
0100
0001
0000
1000
0010
,
1000
0000
0000
0001
0100
0000
0010
0000
0100
0000
0000
0000
1MM1
0000
0000
0000
,
1000
0000
0001
0100
0010
0000
1000
0100
0010
0001
0010
0001
0010
0000
0100
1000
,
0001
0000
0010
0100
1000
0000
0001
0100
0010
0000
1000
0001
0100
0000
0010
0100
,
0001
0000
1000
0100
0010
0000
0001
0100
0010
1000
0010
1000
0010
0000
1000
0100
,
0000
0100
0010
0000
0001
0000
0100
0010
1000
0000
0001
0010
0100
0000
1000
0001
,
0100
0000
0010
1000
0001
0000
1000
0100
0010
0100
0010
0100
0010
0000
0001
1000
,
0000
1000
0001
0000
0100
0000
0010
0100
0001
0000
0100
0010
1000
0000
0001
1000
,
0100
0000
0010
0100
1000
0000
0001
0100
0001
0010
0001
0010
0001
0000
0100
0001
,
0000
0001
0010
0000
0100
0000
1000
0001
0100
0000
0010
1000
0100
0000
0010
0100
,
1000
0000
0001
0100
0010
0000
1000
0100
0010
0001
0010
0001
0010
0000
0100
1000
,
0000
1000
0010
0000
M11M
0000
0100
0001
0010
0000
0100
1000
0001
0000
0100
0010
,
1000
0000
0001
0010
0100
0000
1000
0001
0100
0001
0100
0001
0100
0000
0010
1000
,
0000
1000
0100
0000
MM11
0000
0010
0100
1000
0000
0001
0100
0010
0000
1000
0010
,
0100
0000
0001
0010
0100
0000
0010
0001
1000
0100
1000
0100
1000
0000
0010
0100
,
0000
0100
0001
0000
1MM1
0000
1000
0001
0100
0000
0010
1000
0001
0000
0010
0100
,
1000
0000
0001
0100
0010
0000
1000
0001
0100
0010
0100
0010
0100
0000
0001
0100
,
0000
0100
0010
0000
1M1M
0000
0001
0010
0100
0000
1000
0001
0100
0000
0010
0000
,
1000
0100
0010
0100
1000
0000
0001
0000
0100
0001
0100
0001
0100
0010
0100
0010
,
1000
0000
0001
0000
1000
0100
0010
0001
0000
1000
0000
0010
0100
0000
M1M1
0000
,
1000
0001
0100
0010
1000
0000
0001
0000
0010
0100
0010
0100
1000
0100
1000
0100
,
0010
0000
0001
0000
1000
0010
0100
0001
0000
1000
0000
0010
0100
0000
1M1M
0000
,
0001
0010
0100
0010
0001
0000
0100
0000
0001
0100
0001
0100
0010
1000
0010
1000
,
0001
0000
0100
0000
0010
1000
0100
0010
0000
0100
0000
0010
0001
0000
M1M1
0000
,
0010
1000
0100
1000
0010
0000
0100
0000
0010
1000
0010
1000
0001
0010
0001
0010
,
0100
0000
1000
0000
0100
0010
0001
0100
0000
0010
0000
1000
0100
0000
M11M
0000
,
0001
0010
0100
0010
0001
0000
0100
0000
0001
0100
0001
0100
1000
0100
1000
0100
,
0010
0000
1000
0000
0100
0010
0100
1000
0000
0010
0000
0100
0010
0000
1M1M
0000
,
1000
0010
0100
0010
1000
0000
0001
0000
1000
0100
1000
0100
0001
0100
0001
0100
,
1000
0000
0001
0000
1000
0001
0100
0010
0000
1000
0000
0001
0010
0000
11MM
0000
,
0001
0010
0100
1000
0001
0000
0100
0000
0010
1000
0001
0100
0010
1000
0100
0010
,
0001
0000
0100
0000
0001
0100
0010
1000
0000
0001
0000
1000
0100
0000
1MM1
0000
,
0100
0010
1000
0001
0100
0000
0010
0000
1000
0100
0010
0100
1000
0001
0100
0010
,
0100
0001
1000
0010
0100
0010
1000
0001
0010
0100
1000
0100
0010
0001
0100
0010
,
1000
0000
0001
0000
0100
0000
0001
1000
0000
0100
1000
0010
2000
0000
0000
0000
,
3001
0000
0010
0100
0010
0001
0000
1000
0000
0010
0000
0100
0010
0000
1000
0000
,
0001
0000
M1M1
0000
0100
0000
0001
0010
0000
0100
1000
0100
0020
0000
0000
0000
,
0130
0000
0010
0001
0000
0100
0000
0010
0000
0010
0000
1000
0001
0100
0010
0000
,
1000
0000
11MM
0000
0010
0000
0100
0001
0000
1000
0100
0010
0002
0000
0000
0000
,
0013
0000
0100
0010
0000
0100
0000
1000
0000
1MM1
0000
0100
0010
1000
0001
0000
,
0010
0000
M11M
0000
0100
0000
1000
0010
0000
0100
0001
0100
0020
0000
0000
0000
,
1030
0000
0100
1000
0010
0000
1000
0001
0000
1000
0000
0100
0010
0100
0010
0000
,
1MM1
0000
0001
0000
M1M1
0000
1000
0100
0000
1000
0010
0100
0002
0000
0000
0000
,
1003
0000
0010
0100
0000
0001
0000
1000
0000
0010
0000
1000
0100
0010
0001
0000
,
1MM1
0000
1000
0000
11MM
0000
0001
0100
0000
0010
1000
0001
0200
0000
0000
0000
,
0301
0000
0100
0010
2000
0000
0000
0001
0000
3001
0000
1000
0100
0000
0010
0000
,
MM11
0000
1000
0000
1M1M
0000
0001
0100
0000
0010
1000
0100
0020
0000
0000
0000
,
0031
0000
0010
0100
0000
0010
0000
MM11
0000
1MM1
0000
0100
0010
0000
1000
0000
,
11MM
0000
0001
0000
M1M1
0000
1000
0100
0000
0010
0100
1000
0002
0000
0000
0000
,
0103
0000
0010
0100
0000
0001
0000
M11M
0000
1M1M
0000
0100
0010
1000
0100
0010
,
0001
0010
0001
0000
1000
0000
1000
0010
0000
0010
0100
0000
0001
0000
1000
0010
,
0100
0010
1000
0000
0001
0000
0010
0100
0000
0100
1000
0000
0010
0000
0100
0001
,
0100
0010
1000
0000
0001
0000
0010
0001
0000
0001
0100
0000
0010
0000
1000
0100
,
0010
0100
1000
0000
0010
0000
0100
0001
0000
0001
1000
0000
0100
0000
0010
0100
,
1000
0100
0010
0000
MM11
0000
0010
0100
0000
0100
1000
0000
0001
0010
0100
1000
,
0100
0010
0001
0000
11MM
0000
1000
0010
0000
0010
0100
0000
0001
0100
0010
1000
,
0010
0100
0001
0000
M11M
0000
1000
0001
0000
0001
0100
0000
0010
1000
0001
0100
,
0010
1000
0100
0000
1MM1
0000
0100
0010
0000
0010
1000
0000
0001
0010
0100
1000
,
0100
0010
0100
1000
0001
0100
0010
0100
0000
0001
0010
0000
11MM
0000
0001
0100
,
0010
0100
0001
0010
0100
0010
0100
1000
0000
0001
0100
0000
1M1M
0000
0100
0010
,
1000
0001
0010
0100
1000
0010
0100
0001
0000
1000
0100
0000
M11M
0000
0001
0010
,
0001
0100
0010
1000
0001
0100
0010
1000
0000
0100
0010
0000
1MM1
0000
0010
0100
,
1000
0001
0100
0010
0100
0001
1000
0100
0010
0100
1000
0000
1MM1
0000
0100
0010
,
0100
0001
1000
0100
0010
0100
1000
0010
0100
0010
1000
0000
M1M1
0000
0001
1000
,
0001
0010
0100
0010
0001
1000
0010
0100
0010
1000
0100
0010
0100
1000
0010
0100
,
0010
1000
0001
0010
0100
0010
0001
1000
0010
0100
0010
1000
0100
0010
0001
1000
;

//---------------dance-single - C. Picardy----------------
#NOTES:
     dance-single:
     :
     Hard:
     9:
     0.654670,0.573099,0.201437,0.033573,0.478413,546.000000,522.000000,24.000000,4.000000,8.000000,0.000000,0.654670,0.573099,0.201437,0.033573,0.478413,546.000000,522.000000,24.000000,4.000000,8.000000,0.000000:
// measure 0
0000
0000
0000
0000
,  // measure 1
0000
0000
0000
0000
,  // measure 2
0000
0000
0000
0000
,  // measure 3
0000
0000
0000
0000
,  // measure 4
0010
0000
0000
0010
0100
0000
1000
0000
0100
0000
0000
0000
0110
0000
0000
0000
,  // measure 5
0001
0000
0000
0001
0010
0000
0001
0000
0100
0000
0000
0000
0011
0000
0000
0000
,  // measure 6
1000
0000
0000
0010
0100
0000
0010
0000
1000
0000
0000
0000
0101
0000
0000
0000
,  // measure 7
1000
0000
0000
0001
0100
0000
0010
0000
0100
0000
0000
0000
1001
0000
0000
0000
,  // measure 8
0100
0000
0000
0100
0010
0000
0000
0000
0001
0010
0001
0010
0001
0000
0000
0000
,  // measure 9
0100
0000
0011
0000
1000
0010
1010
0000
,  // measure 10
0001
0000
0000
0001
0100
0000
0000
0000
0010
1000
0010
1000
0010
0000
0000
0000
,  // measure 11
1000
0000
1100
0000
0001
0100
0101
0000
,  // measure 12
1000
0000
0000
0100
0010
0000
0000
0000
0100
1000
0100
1000
0100
0000
0000
0000
,  // measure 13
0010
0000
0101
0000
0001
0010
0011
0000
,  // measure 14
0001
0000
0000
0100
0010
0000
0000
0000
1000
0010
1000
0010
1000
0000
0000
0000
,  // measure 15
0001
0000
0110
0000
1000
0100
1100
0000
,  // measure 16
0001
0000
0010
0000
0100
0000
0010
0000
0001
0010
0001
0010
0001
0000
0000
0000
,  // measure 17
0100
0010
1000
0000
0100
0010
0011
0000
,  // measure 18
1000
0000
0100
0000
0010
0000
0100
0000
1000
0100
1000
0100
1000
0000
0000
0000
,  // measure 19
0010
0100
0001
0000
1000
0010
0110
0000
,  // measure 20
0001
0000
0100
0000
1000
0000
0100
0000
0001
0100
0001
0100
0001
0000
0000
0000
,  // measure 21
1000
0000
0000
0100
0010
0000
0100
0000
1000
0000
0001
0000
0101
0000
0000
0000
,  // measure 22
1000
0000
0100
0000
0001
0000
0100
0000
1000
0010
1000
0010
1000
0000
0000
0000
,  // measure 23
0001
0000
0000
0001
0100
0000
0010
0000
1000
0000
0100
0000
1001
0000
0000
0000
,  // measure 24
1000
0000
0100
0000
0010
0000
0000
0000
0100
0010
0100
0010
0100
0000
0000
0000
,  // measure 25
1000
0000
0001
0000
0001
0000
0100
0001
0000
0001
0000
0000
1000
0000
1000
0000
,  // measure 26
0010
0000
0100
0000
0001
0000
0000
0000
0010
0001
0010
0001
0010
0000
0000
0000
,  // measure 27
0001
0000
0010
0000
0100
0000
1000
0100
0000
0100
0000
0000
0100
0000
0010
0000
,  // measure 28
0010
0000
0100
0000
1000
0000
0000
0000
0010
0100
0010
0100
0010
0000
0000
0000
,  // measure 29
0100
0000
0001
0000
0010
0000
0001
1000
0000
0100
0000
0000
0010
0000
0010
0000
,  // measure 30
0001
0000
0100
0000
0010
0000
0000
0000
1000
0001
1000
0001
1000
0000
0000
0000
,  // measure 31
0001
0000
0100
0000
0010
0000
1000
0001
0000
1000
0000
0000
0100
0000
0100
0000
,  // measure 32
0010
0000
0001
0000
0011
0000
0000
0000
1000
0010
1000
0010
1000
0000
0000
0000
,  // measure 33
0010
0000
0100
0000
0010
0000
1000
0010
0000
1000
0000
0000
0001
0000
0100
0000
,  // measure 34
1000
0000
0100
0000
0101
0000
0000
0000
0010
1000
0010
1000
0010
0000
0000
0000
,  // measure 35
1000
0000
0100
0000
0010
0000
0100
0010
0000
0100
0000
0000
1000
0000
1000
0000
,  // measure 36
0001
0000
0100
0000
0110
0000
0000
0000
0001
1000
0001
1000
0001
0000
0000
0000
,  // measure 37
0010
0000
0001
0000
0100
0000
0001
1000
0000
0001
0000
0000
1000
0000
0100
0000
,  // measure 38
0010
0000
0010
0000
0011
0000
0000
0000
0100
0010
0100
0010
0100
0000
0000
0000
,  // measure 39
1000
0000
0100
0000
0010
0000
0100
1000
0000
0001
0000
0000
0100
0000
0100
0000
,  // measure 40
0010
0000
2000
0000
0000
0000
0000
3001
0000
1000
0100
0000
1000
0000
0000
0000
,  // measure 41
0001
0000
0000
0100
0010
0000
0100
0000
0001
0000
0100
0000
0010
0000
1000
0000
,  // measure 42
0100
0000
0200
0000
0000
0000
0000
0310
0000
0100
1000
0000
0100
0000
0000
0000
,  // measure 43
0010
0000
0000
0001
0100
0000
0001
0000
0010
0000
0001
0000
1000
0000
0000
0000
,  // measure 44
0001
0000
0002
0000
0000
0000
0000
0103
0000
0010
1000
0000
0010
0000
0000
0000
,  // measure 45
0100
0000
0000
0100
0001
0000
0010
0000
0100
0000
0010
0000
0001
0000
1000
0000
,  // measure 46
0010
0000
0020
0000
0000
0000
0000
1030
0000
0100
0010
0000
0001
0000
0000
0000
,  // measure 47
0100
0000
0000
0010
1000
0000
0001
0000
0010
0000
0100
0000
0010
0000
0000
0000
,  // measure 48
0100
0000
1000
0000
0100
0000
1000
0100
0000
0100
1000
0000
0010
0000
0000
0000
,  // measure 49
0100
0000
0100
0001
0000
0000
0010
0000
0100
0000
0100
0000
1100
0000
0000
0000
,  // measure 50
MM01
0000
0100
0000
0010
0000
0100
0001
0000
0001
0100
0000
0010
0000
0000
0000
,  // measure 51
1000
0000
1000
0100
0000
0000
0010
0000
0001
0000
0001
0000
0101
0000
0000
0000
,  // measure 52
1M0M
0000
0010
0000
0100
0000
0010
1000
0000
1000
0100
0000
0010
0000
0000
0000
,  // measure 53
0001
0000
0001
0010
0000
0000
0001
0000
0100
0000
0010
0000
1010
0000
0000
0000
,  // measure 54
M0M1
0000
0100
0000
1000
0000
0100
0001
0000
0001
1000
0000
0100
0000
0000
0000
,  // measure 55
0010
0000
0100
1000
0000
0000
0001
0000
0100
0000
0100
0000
1001
0000
0000
0000
,  // measure 56
M01M
0000
0100
0000
1000
0000
0100
0010
0000
0100
0010
0000
0001
0000
0100
0000
,  // measure 57
0010
0000
0100
0000
0001
0000
0100
0010
0000
0100
0010
0000
1000
0000
0010
0000
,  // measure 58
0100
0000
0010
0000
1000
0000
0100
1000
0000
0100
1000
0000
0001
0000
0010
0000
,  // measure 59
0100
0000
0010
0000
0001
0000
0100
0001
0000
0100
0001
0000
1000
0000
0000
0000
,  // measure 60
0001
0000
0100
0000
0010
0000
1000
0001
0000
1000
0100
0000
1000
0000
0010
0000
,  // measure 61
0100
0000
0010
0000
1000
0000
0001
0100
0000
0001
1000
0000
0001
0000
0010
0000
,  // measure 62
0100
0000
0010
0000
0001
0000
1000
0100
0000
1000
0010
0000
0100
0000
0001
0000
,  // measure 63
0010
0000
0001
0000
0100
0000
0010
1000
0000
0001
0100
0000
0010
0000
0000
0000
,  // measure 64
1000
0000
0100
0000
0010
0000
0100
1000
0000
1000
0100
0000
0010
0000
0001
0000
,  // measure 65
0100
0000
0001
0000
0010
0000
0001
0100
0000
0100
0010
0000
1000
0000
0010
0000
,  // measure 66
0100
0000
0010
0000
1000
0000
0001
0010
0000
0010
0100
0000
0010
0000
0001
0000
,  // measure 67
0010
0000
0100
0000
1000
0000
0100
0010
0000
0010
0001
0000
0100
0000
0010
0000
,  // measure 68
1000
0000
0100
0000
0001
0000
0100
0001
0000
0001
0100
0000
1000
0000
0010
0000
,  // measure 69
0001
0000
0010
0000
1000
0000
1000
0010
0000
0010
0001
0000
0010
0000
1000
0000
,  // measure 70
0001
0000
0100
0000
1000
0000
0100
0001
0000
0001
0010
0000
1000
0000
0010
0000
,  // measure 71
0001
0000
0010
0000
0100
0000
1000
0010
0000
0010
0100
0000
0001
0000
1000
0000
;
