#TITLE:Cheeseburger;
#SUBTITLE:;
#ARTIST:Sanxion7;
#TITLETRANSLIT:;
#SUBTITLETRANSLIT:;
#ARTISTTRANSLIT:;
#GENRE:;
#CREDIT:;
#BANNER:cheeseburgerbn.png;
#BACKGROUND:cheeseburgerbg.png;
#LYRICSPATH:;
#CDTITLE:;
#MUSIC:cheeseburger.ogg;
#OFFSET:-0.422007;
#SAMPLESTART:13.749969;
#SAMPLELENGTH:12.000000;
#SELECTABLE:YES;
#BPMS:0.000000=137.000000
;
#STOPS:29.000000=0.438000
;
#BGCHANGES:;
#KEYSOUNDS:;
#ATTACKS:;

//---------------dance-single - ----------------
#NOTES:
     dance-single:
     :
     Beginner:
     1:
     0.089422,0.163991,0.051448,0.034299,0.000000,63.000000,6.000000,4.000000,0.000000,0.000000,0.000000,0.089422,0.163991,0.051448,0.034299,0.000000,63.000000,6.000000,4.000000,0.000000,0.000000,0.000000:
0000
0000
0000
0000
,
0000
0000
0000
0000
,
0000
0000
0000
0000
,
0000
0000
0000
0000
,
1000
0000
0000
0000
,
0000
0000
0000
0000
,
0001
0000
0000
0000
,
2002
3003
0000
0010
,
0000
0000
0000
0100
,
0000
0000
0000
0010
,
0000
0000
0000
0100
,
0000
0000
0000
0001
,
0000
0000
0000
1000
,
0000
0000
0000
0001
,
0000
0000
0000
1000
,
0000
0000
0000
0010
,
0000
0010
0000
0000
,
0000
0000
0000
0100
,
0000
0100
0000
0000
,
0000
0000
0000
0001
,
0000
0001
0000
0000
,
0000
0000
0000
1000
,
0000
1000
0000
0000
,
0000
0000
0000
1001
,
0000
0000
0000
0000
,
0000
0000
0000
0010
,
0000
0000
0000
0100
,
0000
0000
0000
0010
,
0000
0000
0000
0000
,
0000
0000
0000
1000
,
0000
0000
0000
0001
,
0000
0000
0000
1001
,
0000
0000
0000
1000
,
0000
0000
0000
0100
,
0000
0000
0000
0010
,
0000
0000
0000
0001
,
0000
0000
0000
0100
,
0000
0000
0000
0010
,
0000
0000
0000
1000
,
0000
0000
0000
1001
,
0000
0000
0000
0001
,
0000
0000
0000
0001
,
0000
0000
0000
0001
,
0000
0000
0000
1000
,
0000
0000
0000
1000
,
0000
0000
0000
1000
,
0000
0000
0000
0100
,
0000
0000
0000
0010
,
0000
0000
0000
0100
,
0000
0000
0000
0010
,
0000
0000
0000
0100
,
0000
0000
0000
0010
,
0000
0010
0000
0000
,
0000
0000
0000
0100
,
0000
0100
0000
2002
,
3003
0000
0000
0010
,
0000
0010
0000
0010
,
0000
0000
0000
1000
,
0000
1000
0000
1000
,
0000
0000
0000
0001
,
0000
0001
0000
0001
,
0000
0000
0000
1000
,
0000
1000
0000
1000
,
0000
0000
0000
1001
;

//---------------dance-single - C. Picardy----------------
#NOTES:
     dance-single:
     :
     Easy:
     3:
     0.203343,0.245987,0.137195,0.034299,0.000000,146.000000,16.000000,4.000000,0.000000,0.000000,0.000000,0.203343,0.245987,0.137195,0.034299,0.000000,146.000000,16.000000,4.000000,0.000000,0.000000,0.000000:
0000
0000
0000
0000
,
0000
0000
0000
0000
,
0000
0000
0000
0000
,
0000
0000
0000
0000
,
1000
0000
1000
0000
,
0001
0000
0001
0000
,
0010
0000
0100
0000
,
1001
1001
0000
0100
,
0000
0010
0000
1000
,
0000
0001
0000
1000
,
0000
0001
0000
0010
,
0000
0100
0000
1001
,
0000
0010
0000
0100
,
0000
0010
0000
1000
,
0000
0001
0000
0010
,
0000
0100
0000
0110
,
0000
0001
0000
1000
,
0000
0010
0000
0110
,
0110
0000
0000
1000
,
0000
0001
0000
1001
,
0000
0010
0000
0001
,
0000
0100
0010
1001
,
1001
0000
0000
0100
,
0000
0010
0000
1001
,
0100
0000
0000
0000
,
0000
0000
0010
0010
,
0010
0000
0000
0001
,
0001
0000
0000
1000
,
1000
0000
0000
0000
,
0000
0000
0100
0100
,
0100
0000
0000
0010
,
0010
0000
0100
1001
,
0000
0000
0000
2000
,
3000
0000
0000
0020
,
0030
0000
0000
0002
,
0003
0000
0000
0200
,
0300
0000
0000
0010
,
0000
0010
0000
0010
,
0000
1000
0000
1000
,
0000
0000
0010
1001
,
0001
0001
0000
0100
,
0100
0100
0000
0010
,
0010
0010
0000
1000
,
1000
1000
0000
0100
,
0100
0010
0000
0001
,
0001
0100
0000
0010
,
0010
1000
0000
1000
,
1000
0010
0000
0100
,
0001
0100
0000
0010
,
1000
0010
0000
0100
,
0010
0100
0000
0001
,
1000
0001
0000
1000
,
0100
0010
0000
0001
,
0010
0100
0000
0010
,
0100
1000
0000
0110
,
1001
0000
0000
0100
,
0010
0100
0010
1000
,
0010
1000
0010
1000
,
0001
1000
0001
1000
,
0100
1000
0100
0010
,
0100
0010
0100
0010
,
0001
0010
0001
0100
,
0001
0100
0001
0100
,
0010
0000
1001
0110
;

//---------------dance-single - C. Picardy----------------
#NOTES:
     dance-single:
     :
     Medium:
     5:
     0.314814,0.300651,0.077172,0.111471,0.000000,235.000000,9.000000,13.000000,0.000000,0.000000,0.000000,0.314814,0.300651,0.077172,0.111471,0.000000,235.000000,9.000000,13.000000,0.000000,0.000000,0.000000:
0000
0000
0000
0000
,
0000
0000
0000
0000
,
0000
0000
0000
0000
,
0000
0000
0000
0000
,
0100
0010
0001
1000
,
0010
0100
0001
1000
,
0100
0010
0100
0100
,
1001
0220
0330
0100
,
0010
1000
0010
0100
,
0010
0000
0100
0000
0001
0100
0001
0000
,
0100
0001
1000
0001
,
0010
0000
0100
0000
1000
0100
1000
0000
,
0100
0010
0001
0010
,
0100
0000
1000
0000
0100
1000
0010
0000
,
0100
0001
1000
0010
,
0100
0000
0001
0000
0100
0010
0200
0000
,
0010
0010
0310
2000
,
0100
0000
0100
0000
3100
0010
0002
0000
,
1000
1000
1003
0020
,
0001
0000
0001
0000
0031
1000
0200
0000
,
0010
1000
1300
0020
,
1000
0000
0100
0000
0130
0001
0020
0000
,
0001
0100
0130
1000
,
0100
0000
0110
0000
1001
0000
0100
0010
,
0100
0010
0000
0000
0000
0000
0000
0000
,
0000
0000
0000
0000
0000
0000
0001
0100
,
0001
0100
0000
0000
0000
0000
0010
1000
,
0010
1000
0000
0000
0000
0000
0001
1000
,
0001
1000
0000
0000
0000
0000
0000
0000
,
0000
0000
0000
0000
0000
0000
0010
0100
,
0010
0100
0000
0000
0000
0000
1000
0100
,
0010
0001
0000
0000
0100
0000
1001
0000
,
0000
0000
0000
0000
0000
0000
1000
1000
,
0000
0000
0000
0000
0000
0001
0001
0001
,
0000
0000
0000
0000
0000
0000
0010
0010
,
0000
0000
0000
0000
0000
0000
0100
0100
,
0000
0000
0000
2000
,
3200
0000
0320
0000
0032
0000
0103
0010
,
0000
0100
0100
0100
,
0000
0010
0010
1001
,
0100
0000
0010
0010
0000
0000
1000
0000
,
0100
0000
0010
0010
0000
0000
0001
0000
,
1000
0000
0010
0010
0000
0000
0100
0000
,
0001
0000
1000
1000
1000
0000
0100
0000
,
0100
0000
0100
0010
0000
0000
0010
0000
,
0010
0000
0010
0100
0000
0000
0100
0000
,
0100
0000
0100
1000
0000
0000
1000
0000
,
0100
0000
0010
0100
0010
0000
0001
0000
,
0100
0000
0010
1000
0000
0000
0010
0000
,
1000
0000
0100
1000
0000
0000
0100
0000
,
1000
0000
0001
0010
0000
0000
0001
0000
,
0010
0000
0001
0010
0001
0000
1000
0000
,
0001
0000
1000
0010
0000
0000
0100
0000
,
0010
0000
0100
0001
0000
0000
1000
0000
,
0100
0000
0010
0100
0000
0000
1001
0000
,
1001
0000
0000
0100
0100
0000
0010
0000
,
1000
0100
1000
0010
,
0100
0010
1000
0000
0100
0000
0010
0000
,
0001
1000
1000
0010
,
0010
0000
0100
0001
0100
0000
0010
0000
,
1000
0100
0010
0001
,
0010
0001
0100
0000
0010
0000
1000
0000
,
0001
0000
0100
0000
0010
1000
0001
0000
,
0010
0001
1000
0000
0000
0000
1001
0000
;

//---------------dance-single - C. Picardy----------------
#NOTES:
     dance-single:
     :
     Challenge:
     9:
     0.654128,0.628633,0.222943,0.145770,0.630241,491.000000,26.000000,17.000000,78.000000,0.000000,0.000000,0.654128,0.628633,0.222943,0.145770,0.630241,491.000000,26.000000,17.000000,78.000000,0.000000,0.000000:
0000
0000
0000
0000
,
0000
0000
0000
0000
,
0010
0100
0010
0001
,
0100
0000
0000
0000
0000
0000
0000
0000
0000
0000
0000
0000
0010
0000
0000
0000
0000
0000
0000
0000
0000
0000
0000
0000
1000
0000
0000
0000
0000
0000
0000
0000
0000
0100
0000
0000
1000
0000
0000
0000
0000
0000
0100
0000
0000
0000
0100
0000
,
0010
0001
0100
1010
,
0100
0001
0011
1000
,
0110
1000
1100
0001
,
0110
0000
0000
0000
0000
0000
2002
3003
0000
0100
0000
0000
0010
0000
0000
0100
0000
0000
1001
0000
0000
0100
0000
0000
,
0010
0000
1000
0010
0000
0010
1000
0000
0001
0000
0100
0010
0000
0010
1000
0000
,
0100
0000
0000
0000
0000
0000
0010
0000
0000
0001
0000
0000
0000
0000
0000
0001
0000
0000
0100
0000
0000
0000
0000
0000
0010
0000
0000
0000
0000
0000
1000
0000
0000
0000
0001
0000
1000
0000
0000
0000
0000
0000
0100
0000
0000
0000
0000
0000
,
0010
0000
0010
0001
0000
0001
0100
0000
0100
0000
0100
0010
0000
0010
1000
0000
,
1000
0000
1000
0001
0000
0001
1000
0000
0100
0000
0010
0000
1001
0000
0100
0000
,
0010
0000
1000
0001
0000
0001
1000
0000
0100
0000
0010
0001
0000
0001
0010
0000
,
0100
0000
0000
0000
0000
0000
0100
0000
0000
1000
0000
0000
0000
0000
0000
1000
0000
0000
0100
0000
0000
0000
0000
0000
0010
0000
0001
0000
0010
0000
0001
0000
0000
0000
0010
0000
0001
0000
0000
0000
0000
0000
1000
0000
0000
0000
0000
0000
,
0001
0000
0100
0010
0000
0010
0100
0000
0001
0000
0001
1000
0000
1000
0001
0000
,
1000
0000
0000
0000
0000
0000
0010
0000
0000
1000
0000
0000
0000
0000
0000
0000
0010
0000
1000
0000
0000
0000
0010
0000
1000
0000
0000
0000
0010
0000
1000
0000
0000
0000
0000
0000
1001
0000
0000
0000
0000
0000
0001
0000
0000
0000
0000
0000
,
0100
0000
0010
1000
0000
1000
0010
0000
0100
0000
0001
0100
0000
0100
0001
0000
,
1000
0000
0100
0010
0000
0010
0001
0000
0100
0000
0010
0000
0110
0000
1000
0000
,
1001
0000
0100
0010
0000
1000
0001
0000
1000
0000
0100
1000
0000
0001
0010
0000
,
0100
0000
0100
0010
0000
0010
0001
0000
0100
0000
0010
0000
0110
0000
1000
0000
,
0001
0000
1000
0100
0000
0100
1000
0000
0001
0000
1000
0010
0000
0010
1000
0000
,
0001
0000
0100
0001
0100
0000
0100
0000
0010
0000
0010
0000
1010
0000
1000
0000
,
1010
0000
0001
0100
0000
0100
0001
0000
0100
0000
0010
0100
0000
0100
0010
0000
,
1000
0000
0100
0010
0100
0010
0100
0010
0100
0000
0010
0000
1001
0000
0100
0000
,
0010
0001
MMMM
M000
M000
MMMM
0000
M00M
,
M00M
0MM0
M00M
0000
M00M
0000
0000
0000
0001
0000
0010
0000
0100
0000
1000
0000
,
0100
0000
0010
0000
MMMM
0000
M000
0MM0
M000
0000
MMMM
0000
0001
0000
0100
0000
,
0010
0000
1000
0000
MMMM
0000
M000
0MM0
M000
0000
MMMM
0000
0100
0000
0010
0000
,
0100
1000
MMMM
M000
MMMM
000M
MMMM
0000
,
MMMM
0000
M000
0MM0
M000
0000
MMMM
0000
0100
0000
0010
0000
0100
0000
0010
0000
,
0001
0000
0100
0000
M0M0
000M
0000
0M0M
0000
000M
M0M0
0000
0010
0000
1000
0000
,
0100
0010
0000
0100
0010
0000
1001
2000
,
0001
0001
0000
0010
0010
3000
0100
0200
,
0000
0010
0010
0001
0001
0301
0010
0020
,
1000
1000
0000
0100
0100
0030
0001
0002
,
1000
1000
0000
0100
1000
0103
0010
0020
,
1000
1000
0000
0100
1000
0030
2000
0000
,
0200
0000
3000
0000
0002
0000
0300
0000
2000
0000
0003
3000
0020
0000
0002
0000
,
0000
0030
0200
0003
1000
0302
0020
0000
,
0003
0000
0000
0000
0000
0000
2030
0000
0000
0000
0000
0000
0000
0000
0000
0000
0000
0000
3010
0000
0000
0000
0000
0000
0100
0000
0000
0000
0000
0000
0010
0000
0000
0000
0000
0000
1000
0000
0000
0000
0100
0000
1000
0000
0000
0100
0000
0000
,
0000
0000
0000
0000
0000
0000
1000
0000
0000
0000
0000
0000
0100
0000
0000
0000
0000
0000
1000
0000
0000
0000
0000
0000
0000
0000
0000
0000
0000
0000
0100
0000
0000
0000
0000
0000
0010
0000
0000
0000
0100
0000
0010
0000
0000
0100
0000
0000
,
0000
0000
0010
0000
0100
0000
0010
0000
0000
0000
0001
0010
0000
0001
0010
0001
,
0000
0000
0000
0000
0000
0000
0010
0000
0000
0000
0000
0000
0001
0000
0000
0000
0000
0000
0010
0000
0000
0000
0000
0000
0000
0000
0000
0000
0000
0000
0001
0000
0000
0000
0000
0000
1000
0000
0000
0000
0001
0000
1000
0000
0000
0001
0000
0000
,
0000
0000
0000
0000
0000
0000
1000
0000
0000
0000
0000
0000
0100
0000
0000
0000
0000
0000
1000
0000
0000
0000
0000
0000
0001
0000
0000
0000
0000
0000
0100
0000
0000
0001
0000
0000
0100
0000
0000
0000
0001
0000
0100
0000
0000
0001
0000
0000
,
0000
0000
0000
0000
1000
0000
0010
0000
0000
0000
0000
0000
1000
0000
0000
0000
0000
0000
0100
0000
0000
0000
0000
0000
0000
0000
0000
0000
0000
0000
1000
0000
0000
0100
0000
0000
1000
0000
0000
0000
0100
0000
1000
0000
0000
0100
0000
0000
,
0000
0000
0000
0000
1000
0000
0100
0000
0000
0000
0000
0000
0010
0000
0000
0000
0000
0000
0001
0000
0000
0000
0000
0000
0000
0000
0000
0000
0000
0000
1000
0000
0000
0100
0000
0000
0000
0000
0000
0000
0010
0000
0100
0000
0000
1000
0000
0000
,
0000
0000
0000
0000
0001
0000
0100
0000
0000
0000
0000
0000
0010
0000
0000
0000
0000
0000
1000
0000
0000
0000
0000
0000
0000
0000
0000
0000
0000
0000
0001
0000
0000
0100
0000
0000
0010
0000
0000
0000
1000
0000
0010
0000
0000
1000
0000
0000
,
0000
0000
0000
0001
0000
0000
1000
0000
0000
0000
0000
0000
0100
0000
0000
0000
0000
0000
0010
0000
0000
0000
0000
0000
0001
0000
0000
0000
0000
0000
1000
0000
0000
0100
0000
0000
0010
0000
0000
0000
0001
0000
0010
0000
0000
0100
0000
0000
,
0000
0000
0000
0000
1000
0000
0100
0000
0000
0000
0000
0000
0010
0000
0000
0000
0000
0000
0001
0000
0000
0000
0000
0000
0000
0000
0000
0000
0000
0000
1000
0000
0000
0001
0000
0000
0100
0000
0000
0000
0001
0000
0100
0000
0000
0010
0000
0000
,
0000
0000
0000
0000
1000
0000
0001
0000
0000
0000
0000
0000
0100
0000
0000
0000
0000
0000
0010
0000
0000
0000
0000
0000
0000
0000
0000
0000
0000
0000
1000
0000
0000
0100
0000
0000
0000
0000
0000
0100
0000
0000
0010
0000
0000
0001
0000
0000
,
0000
0000
0000
1000
0000
0000
0010
0000
0000
0000
0000
0000
0100
0000
0000
0000
0000
0000
0001
0000
0000
0000
0000
0000
0000
0000
0000
0000
0000
0000
1000
0000
0000
0100
0000
0000
0010
0000
0000
0000
0100
0000
1000
0000
0000
0010
0000
0000
,
0000
0000
0000
0100
0000
0000
0010
0000
0000
0000
0000
0000
0100
0000
0000
0000
0000
0000
0001
0000
0000
0000
0000
0000
0100
0000
0000
0000
0000
0000
0001
0000
0000
1000
0000
0000
0001
0000
0000
0000
1000
0000
0001
0000
0000
1000
0000
0000
,
0000
0000
0000
0100
0000
0000
1000
0000
0000
0000
0000
0000
1100
0000
0000
0000
0000
0000
1100
0000
0000
0000
0000
0000
0000
0000
0000
0000
0000
0000
0100
0000
0000
0010
0000
0000
0100
0000
0000
0000
0010
0000
0001
0000
0000
0010
0000
0000
,
0000
0100
0010
0000
0011
0000
0011
0000
0000
0000
1000
0010
0000
0100
0001
1000
,
0000
0001
0100
0000
1100
0000
0101
0000
0000
0000
1000
0000
1001
0000
0000
0000
,
0110
0000
0000
0000
0000
0000
0000
0000
0000
0010
0000
0000
0100
0000
0000
0010
0000
0000
0001
0000
0001
0100
0000
0010
,
0000
0000
0010
1000
0000
0000
0100
0000
0000
0010
0000
0000
0000
0000
0000
0001
0000
0001
0010
0000
0010
0100
0000
1000
,
0000
0000
1000
0100
0000
0000
0001
0000
0000
0100
0000
0000
0000
0000
0000
1000
0000
0010
0000
0000
0010
0001
0010
0000
,
0000
0000
0010
1000
0000
0000
0001
0000
0000
0100
0000
0000
0000
0000
0000
0001
0000
0001
0100
0000
0100
1000
0000
0100
,
0000
0000
0010
1000
0000
0000
0001
0000
0000
0100
0000
0000
1000
0000
0000
0100
0000
0100
0010
0000
0010
1000
0000
0100
,
0000
0000
0001
0100
0000
0000
1000
0000
0000
0010
0000
0000
0000
0000
0000
0100
0000
0100
0001
0000
0001
0010
0000
0100
,
0000
0000
0100
0010
0000
0000
0001
0000
0000
0100
0000
0000
0000
0000
0000
1000
0001
0000
0000
0000
0100
0010
0100
0000
,
0000
0000
0001
1000
0000
0000
0001
0000
0000
1000
0000
0000
0000
0000
0000
0100
0000
0100
0010
0000
0010
0100
0000
1000
,
0000
0000
0100
0001
0000
0000
0100
0000
0000
1000
0000
0000
0010
0000
0000
0110
0000
0000
1001
0000
0000
0000
0000
0000
;

//---------------dance-single - C. Picardy----------------
#NOTES:
     dance-single:
     :
     Hard:
     7:
     0.433635,0.437310,0.240092,0.094322,0.132908,315.000000,28.000000,11.000000,0.000000,0.000000,0.000000,0.433635,0.437310,0.240092,0.094322,0.132908,315.000000,28.000000,11.000000,0.000000,0.000000,0.000000:
// measure 0
0000
0000
0000
0000
,  // measure 1
0000
0000
0000
0000
,  // measure 2
0000
0000
0000
0000
,  // measure 3
0000
0000
0000
0000
0000
0000
0000
0000
0000
0000
0000
0000
0100
0000
0000
0100
,  // measure 4
0010
0001
0100
1010
,  // measure 5
0001
1000
0100
0011
,  // measure 6
1000
0100
0001
0010
,  // measure 7
1100
0000
0110
0100
0010
0000
1001
0000
,  // measure 8
0100
0000
0001
0100
1000
0000
0010
0000
,  // measure 9
1000
0000
0100
0010
0001
0010
0100
0000
,  // measure 10
0100
1000
0010
1000
,  // measure 11
1000
0000
0001
0100
0010
0100
1001
0000
,  // measure 12
0100
0000
1000
0100
0001
0000
1000
0000
,  // measure 13
0010
0000
0100
0001
0010
0001
0100
0000
,  // measure 14
0010
1000
0100
0001
,  // measure 15
0010
0000
0100
0010
0100
0010
1001
0000
,  // measure 16
0010
0000
0100
0010
0001
0000
1000
0100
,  // measure 17
0010
0001
0010
0100
1000
0100
0110
0000
,  // measure 18
1001
0000
0100
0010
1000
0000
0100
0010
,  // measure 19
0001
0000
1000
0001
0100
0010
0110
0000
,  // measure 20
1000
0000
0100
1000
0010
0000
0100
0001
,  // measure 21
0010
0000
0000
0100
0010
0000
0010
0000
0001
0000
0001
0000
0011
0000
0000
0000
,  // measure 22
1100
0000
0001
0100
0010
0000
1000
0100
,  // measure 23
0010
0000
1100
0000
0101
0000
1000
0001
,  // measure 24
0100
0002
0000
0000
0000
0000
0000
0000
,  // measure 25
0000
0000
0000
0000
1003
0100
0010
0100
,  // measure 26
1000
2000
0000
0000
0000
0000
3100
0010
,  // measure 27
0001
0020
0000
0000
0000
0000
0130
0010
,  // measure 28
0001
0200
0000
0000
0000
0000
0000
0000
,  // measure 29
0000
0000
0000
0000
0310
1000
0100
0001
,  // measure 30
0100
2000
0000
0000
0000
0000
3001
0100
,  // measure 31
1000
0200
0000
0010
0310
0000
2001
0000
,  // measure 32
0000
0000
3001
0000
0000
0000
1000
2000
,  // measure 33
0000
0000
3100
0000
0000
0010
0001
0020
,  // measure 34
0000
0000
0130
0000
0000
0000
0010
0020
,  // measure 35
0000
0000
0031
0000
0000
0000
0100
0200
,  // measure 36
0000
0310
0000
1000
,  // measure 37
0001
0000
1000
0000
0001
0000
1000
1000
,  // measure 38
0000
0000
0001
0000
0010
0010
0010
0000
,  // measure 39
0000
0100
1000
0000
0010
0000
0110
0000
,  // measure 40
0110
0000
1000
0001
0000
0000
0101
0000
,  // measure 41
0101
0000
0010
0100
0000
0000
1010
0000
,  // measure 42
1010
0000
1000
0100
0000
0010
0011
0000
,  // measure 43
0011
0000
0000
0000
1000
0000
0100
0000
0001
0000
0000
0000
0100
0000
0000
0100
,  // measure 44
1000
0000
0000
0000
0100
0000
0010
0000
0000
0000
0001
0000
0010
0000
0000
0010
,  // measure 45
0100
0000
0000
0000
0010
0000
0100
0000
0000
0000
0010
0000
0001
0000
0000
0001
,  // measure 46
0100
0000
0000
0000
0001
0000
1000
0000
0000
0000
1000
0000
0001
0000
0000
0001
,  // measure 47
1000
0000
0000
0000
0100
0000
0010
0000
0001
0000
0000
0000
1000
0000
0000
1000
,  // measure 48
0001
0000
0000
0001
1000
0000
0000
0000
0100
0000
0000
0000
0010
0000
0000
0010
,  // measure 49
0100
0000
0000
0100
0010
0000
0000
0000
0100
0000
0000
0000
1000
0000
0000
1000
,  // measure 50
0010
0000
0000
0010
1000
0000
0000
0000
0001
0000
0000
0000
0100
0000
0000
0100
,  // measure 51
0001
0000
0000
0001
0100
0000
0000
0000
1001
0000
0000
0000
0100
0000
0000
0100
,  // measure 52
0010
0000
0000
0000
1000
0000
0001
0000
0000
0000
1000
0000
0100
0000
0000
0100
,  // measure 53
1000
0000
0000
0000
0001
0000
0010
0000
0000
0000
0100
0000
0010
0000
0000
0010
,  // measure 54
0001
0000
1000
0001
0000
0100
0110
0000
,  // measure 55
1001
0000
0000
0000
0000
0000
0100
0000
0010
0000
1000
0000
0001
0000
0000
0001
,  // measure 56
1000
0000
0000
1000
0001
0000
0000
0001
1000
0000
0000
1000
0100
0000
0000
0100
,  // measure 57
0010
0000
0000
0010
0100
0000
0000
0100
0010
0000
0000
0010
0001
0000
0000
0001
,  // measure 58
0010
0000
0000
0010
0001
0000
0000
0001
0010
0000
0000
0010
0001
0000
0000
0001
,  // measure 59
1000
0000
0000
1000
0001
0000
0000
0000
0110
0000
0000
0000
1000
0000
0001
0000
,  // measure 60
0100
0010
1000
0001
0000
0100
0010
1000
,  // measure 61
0001
0100
0010
1000
0000
0100
0010
0100
,  // measure 62
1000
0001
0100
0010
0000
1000
0100
0010
,  // measure 63
0100
0010
0001
0100
0010
0100
1001
0000
;
