#TITLE:Castle in the Sky;
#SUBTITLE:;
#ARTIST:DJ Satomi;
#TITLETRANSLIT:;
#SUBTITLETRANSLIT:;
#ARTISTTRANSLIT:;
#GENRE:;
#CREDIT:;
#BANNER:castleintheskybn.png;
#BACKGROUND:castleintheskybg.png;
#LYRICSPATH:;
#CDTITLE:;
#MUSIC:castleinthesky.ogg;
#OFFSET:-0.109805;
#SAMPLESTART:98.259285;
#SAMPLELENGTH:12.000000;
#SELECTABLE:YES;
#BPMS:0.000000=158.910004
;
#STOPS:
;
#BGCHANGES:20.000=sparklingnight.mp4=1.000=1=0=1=SongBgWithMovieViz==CrossFade==,
36.000=sparklingnight.mp4=1.000=0=0=1===CrossFade_Fastest==,
68.000=floatingnebula.mp4=1.000=0=1=1=StretchRewind==CrossFade_Fastest==,
100.000=floatingnebula.mp4=1.000=1=0=1=SongBgWithMovieViz==CrossFade==,
128.000=castleintheskybg.png=1.000=1=0=1===CrossFade==,
132.000=flash=2.000=0=0=1====#00FF00=,
132.250=spacecorridor.mp4=1.000=0=1=1=StretchRewind====,
164.000=Fast Stars.mp4=1.000=0=1=1=StretchRewind==SlideRight==,
196.000=flash=2.000=0=0=1====#FF00FF=,
196.250=sparklingnight.mp4=1.000=0=1=1=StretchRewind====,
200.000=sparklingnight.mp4=1.000=0=0=1=SongBgWithMovieViz==CrossFade_Faster==,
202.000=sparklingnight.mp4=1.000=0=0=1===CrossFade_Fastest==,
208.000=sparklingnight.mp4=1.000=0=0=1=SongBgWithMovieViz==CrossFade_Faster==,
210.000=sparklingnight.mp4=1.000=0=0=1===CrossFade_Fastest==,
228.000=floatingnebula.mp4=1.000=0=0=1===SlideLeft==,
260.000=flash=2.000=0=0=1====#00FFFF=,
260.250=spacecorridor.mp4=1.000=0=0=1=====,
308.000=castleintheskybg.png=1.000=1=0=1===CrossFade==,
99999=-nosongbg-=1.000=0=0=0 // don't automatically add -songbackground-
;
#KEYSOUNDS:;
#ATTACKS:;

//---------------dance-single - C. Picardy----------------
#NOTES:
     dance-single:
     :
     Beginner:
     1:
     0.115969,0.195336,0.084561,0.000000,0.000000,96.000000,86.000000,10.000000,0.000000,0.000000,0.000000,0.115969,0.195336,0.084561,0.000000,0.000000,96.000000,86.000000,10.000000,0.000000,0.000000,0.000000:
0000
0000
0000
0000
,
0000
0000
0000
0000
,
0000
0000
0000
0000
,
0000
0000
0000
0000
,
0000
0000
0000
0000
,
1000
0000
0000
0000
,
1000
0000
0000
0000
,
0001
0000
0000
0000
,
0001
0000
0000
0000
,
0100
0000
0100
0000
,
0100
0000
0100
0000
,
0010
0000
0010
0000
,
0010
0000
0010
0000
,
1000
0000
0000
0000
,
0001
0000
0000
0000
,
1000
0000
0000
0000
,
0001
0000
0000
0000
,
1001
0000
0000
0000
,
0100
0000
0100
0000
,
0010
0000
0000
0000
,
0100
0000
0000
0000
,
1001
0000
0000
0000
,
0001
0000
0000
0000
,
1000
0000
1000
0000
,
1000
0000
0000
0000
,
1001
0000
0000
0000
,
0100
0000
0000
0000
,
0010
0000
0000
0000
,
0100
0000
0000
0000
,
0001
0000
0000
0000
,
0001
0000
0000
0000
,
1000
0000
0000
0000
,
0000
0000
0000
0000
,
1001
0000
0000
0000
,
0110
0000
0000
0000
,
1001
0000
0000
0000
,
0110
0000
0000
0000
,
0010
0000
0000
0000
,
0100
0000
0000
0000
,
0010
0000
0000
0000
,
0100
0000
0000
0000
,
0001
0000
0001
0000
,
0001
0000
0001
0000
,
1000
0000
1000
0000
,
1000
0000
1000
0000
,
0010
0000
0010
0000
,
0010
0000
0010
0000
,
0100
0000
0100
0000
,
0100
0000
0000
0000
,
1001
0000
0000
0000
,
0010
0000
0000
0000
,
0100
0000
0000
0000
,
0010
0000
0000
0000
,
1000
0000
0000
0000
,
0001
0000
0000
0000
,
1000
0000
0000
0000
,
0000
0000
0000
0000
,
1001
0000
0000
0000
,
0100
0000
0000
0000
,
0010
0000
0000
0000
,
0100
0000
0000
0000
,
0001
0000
0001
0000
,
0001
0000
0000
0000
,
1000
0000
1000
0000
,
1000
0000
0000
0000
,
1001
0000
0000
0000
,
0010
0000
0000
0000
,
1000
0000
0000
0000
,
0001
0000
0000
0000
,
0100
0000
0000
0000
,
0001
0000
0000
0000
,
1000
0000
0000
0000
,
0010
0000
0000
0000
,
0100
0000
0000
0000
,
0100
0000
0000
0000
,
0010
0000
0000
0000
,
0010
0000
0000
0000
,
0100
0000
0000
0000
;

//---------------dance-single - ----------------
#NOTES:
     dance-single:
     :
     Easy:
     3:
     0.266971,0.428724,0.194490,0.101473,0.000000,221.000000,198.000000,23.000000,12.000000,0.000000,0.000000,0.266971,0.428724,0.194490,0.101473,0.000000,221.000000,198.000000,23.000000,12.000000,0.000000,0.000000:
0000
0000
0000
0000
,
0000
0000
0000
0000
,
0000
0000
0000
0000
,
0000
0000
0000
0000
,
0000
0000
0000
0000
,
0001
0000
1000
0000
,
0001
0000
1000
0000
,
0100
0000
0010
0000
,
0001
0000
1000
0000
,
0010
0010
0010
0000
,
0100
0100
0100
0000
,
0001
0001
0001
0000
,
1000
1000
1000
0000
,
0010
0100
0010
0000
,
1000
0001
1000
0000
,
0100
0010
0100
0000
,
1000
1000
2002
3003
,
1000
0001
0001
0000
,
0100
0010
0010
0000
,
1000
0001
1000
1000
,
0002
0000
2000
3003
,
0100
0000
0010
0000
,
0001
0001
1001
0000
,
0100
0010
0100
0010
,
2002
0000
0000
3003
,
0110
0000
1000
0000
,
0001
0000
0100
0000
,
0010
0000
1000
0000
,
0001
0000
1000
0000
,
0100
0000
0100
0000
,
0010
0000
0010
0000
,
0001
0000
0001
0000
,
0100
0000
0000
0010
,
1001
0000
0100
0010
,
0110
0000
1000
0001
,
1001
0000
1000
0001
,
0110
0000
0010
0100
,
1001
0000
1000
1000
,
1100
0000
0001
0001
,
0101
0000
0010
0010
,
0110
0000
1001
0000
,
0100
0010
0010
1000
,
0001
1000
1000
0100
,
0010
0001
0001
0100
,
0010
1000
1000
0010
,
0100
0001
1001
1000
,
0100
0010
0110
0001
,
1000
0010
1001
0100
,
0010
1001
0110
0000
,
0001
0000
1000
0000
,
0100
0100
0100
0000
,
0010
0000
0001
0000
,
1000
1000
1000
0000
,
0010
0000
0100
0000
,
0001
0000
1000
0000
,
0100
0000
1000
0000
,
0010
0000
0100
0000
,
0001
1000
0001
0000
,
1000
1000
0001
0000
,
0010
0100
0010
0000
,
0100
0100
0010
0000
,
0100
0100
0011
0000
,
0100
0100
1010
0000
,
0001
0001
1100
0000
,
0010
0100
0010
0000
,
1000
1000
0001
0000
,
0100
0010
0010
0000
,
1000
0001
1000
0100
,
0020
0000
0200
0330
,
1000
0001
0100
0000
,
0010
1000
0001
0000
,
1000
0100
0010
0001
,
0220
0000
0000
0330
,
1000
0000
0001
0000
,
0100
0000
0001
0000
,
1000
0000
0100
0000
,
1000
0000
0010
0000
,
2002
0000
0000
0000
,
3003
0000
0000
0000
;

//---------------dance-single - C. Picardy----------------
#NOTES:
     dance-single:
     :
     Medium:
     6:
     0.426428,0.524277,0.405892,0.160666,0.000000,353.000000,305.000000,48.000000,19.000000,0.000000,0.000000,0.426428,0.524277,0.405892,0.160666,0.000000,353.000000,305.000000,48.000000,19.000000,0.000000,0.000000:
0000
0000
0000
0000
,
0000
0000
0000
0000
,
0000
0000
0000
0000
,
0000
0000
0000
0000
,
0000
0000
0000
0010
,
0100
0001
1000
0100
,
1000
0001
0100
0010
,
1000
0001
0010
0100
,
0010
0000
0001
0000
1000
0000
1000
0010
,
1000
0000
0010
0000
0110
0000
1000
0100
,
0010
0000
0001
0000
0101
0000
0010
0001
,
0010
0000
0100
0000
0011
0000
1000
0100
,
0010
0000
0010
0001
0100
0000
0010
0000
,
0110
0000
1000
0000
1001
0000
1000
0100
,
0010
0000
0001
0100
0010
0000
1000
0001
,
0100
0000
0110
0000
1001
0000
1000
0001
,
0100
1100
0202
0303
,
1020
0100
1000
1030
,
0201
0010
0001
0301
,
0021
0000
0100
0000
0031
0100
0010
0000
,
2001
3100
1002
0103
,
2000
0000
0000
3100
1000
0000
0001
0000
,
0200
0000
0000
0301
0100
0000
0010
0000
,
0101
0000
0101
0000
1000
0100
0010
0000
,
2001
0000
0001
3001
,
0100
0000
0000
0010
0000
0000
1000
0000
,
1000
0000
0000
0001
0000
0000
0010
0000
,
0010
0000
0000
0100
0000
0000
1000
0000
,
1000
0000
0000
0010
0000
0000
0100
0000
,
0001
0000
0000
1000
0000
0010
0000
0000
,
0100
0000
0000
0010
0000
0100
0000
0000
,
0001
0000
0000
0010
0000
0100
0000
0000
,
1000
0000
0000
0001
0000
0001
0100
0000
,
1001
0000
0000
0100
0100
0000
0001
1000
,
0001
0000
0000
0010
0010
0000
0001
0010
,
0100
0000
0000
1000
1000
0000
0001
0100
,
0010
0000
0000
1000
0001
0000
0001
0100
,
1000
0000
0100
0000
0001
0000
1000
0010
,
0100
0000
0001
0000
0010
0000
0001
0100
,
0010
0000
1000
0000
0100
0000
0010
0100
,
1000
0000
0000
0010
0100
0000
0010
0010
,
0100
0000
0101
0000
0110
0000
1000
1000
,
0100
0000
0110
0000
1100
0000
0001
0001
,
1000
0000
0011
0000
1010
0000
0100
0100
,
0010
0000
0101
0000
1100
0000
0001
0100
,
1000
0000
0101
0000
0110
0000
1000
0100
,
0001
0000
1100
0000
0110
0000
0001
0010
,
0100
0000
0011
0000
0101
0000
0010
1000
,
0100
1001
0110
0000
,
2000
0000
0000
0001
0000
0001
3001
0000
,
0100
0100
0100
0000
0200
0000
0300
0000
,
0020
0000
0000
0100
0000
0100
0130
0000
,
1000
1000
1000
0000
2000
0000
3000
0000
,
0001
0000
0000
1000
0000
0100
0010
0000
,
0001
0000
0000
0100
0000
0010
0100
0000
,
0001
0000
0000
0010
0000
0100
1000
0000
,
0001
0000
0000
0100
0000
0100
0000
0000
,
0010
0010
0010
1000
,
1000
0000
1000
0001
0100
0000
0000
0000
,
0001
0001
0001
0000
,
1000
0000
1000
0100
1000
0000
0000
0000
,
0001
0100
0011
1000
,
1100
0000
0010
0000
0100
0010
0000
0000
,
1010
0000
0001
0100
0010
0000
1000
0000
,
0100
0100
0200
0300
,
0110
1000
1100
0001
,
0101
1000
1010
0100
,
0101
0000
1100
0000
0010
0100
0010
0000
,
1001
0100
1001
0010
,
2000
0000
0000
3001
0100
0000
0010
0000
,
2000
0000
0000
3001
0010
0000
0100
0000
,
0011
0000
1010
0000
0001
0100
0010
0000
,
2001
0010
0010
3010
,
0100
0000
0000
0001
0000
1000
0100
0000
,
1000
0000
0000
0001
0000
0010
0001
0000
,
1000
0000
0000
0010
0000
0100
0010
0000
,
1000
0000
0000
0001
0000
1000
0000
0000
,
0200
0000
0300
0000
;

//---------------dance-single - C. Picardy----------------
#NOTES:
     dance-single:
     :
     Hard:
     7:
     0.491661,0.591715,0.304419,0.202946,0.000000,407.000000,371.000000,36.000000,24.000000,10.000000,0.000000,0.491661,0.591715,0.304419,0.202946,0.000000,407.000000,371.000000,36.000000,24.000000,10.000000,0.000000:
0000
0000
0000
0000
,
0000
0000
0000
0000
,
0000
0000
0000
0000
,
0000
0000
0000
0000
,
0000
0000
0000
0000
0000
0000
1000
0100
,
0001
0000
0001
0100
1000
0000
0001
0100
,
1000
0000
1000
0100
0001
0000
1000
0010
,
0001
0000
0001
0010
1000
0000
0001
0010
,
1000
0000
1000
0010
0001
0000
1000
0100
,
0010
0000
1100
0000
0101
0000
1000
0100
,
0001
0001
0100
1000
0010
0000
0100
0001
,
0020
0000
0130
1000
0020
0000
0130
0001
,
0010
0010
0001
0100
0020
0000
1030
0001
,
0100
0000
1010
0000
0101
0000
1000
0100
,
0010
0100
1000
0001
0100
0000
0010
1000
,
0200
0000
0310
0001
0200
0000
0301
0100
,
1000
1000
0100
0001
2000
0000
3000
0000
,
1100
0010
1100
0010
,
0101
1000
0101
1000
,
0110
0000
1001
0000
1000
0100
0010
0001
,
2000
0000
0000
3001
0200
0000
0301
0000
,
0110
1000
0011
1000
,
0110
0001
1000
0010
,
1100
0000
0101
0000
0001
0100
0010
1000
,
0200
0000
0010
1000
,
0310
0000
00M0
0010
0000
0010
0001
0100
,
0010
0000
00M0
0010
0000
0010
1000
1000
,
0M01
0000
0M01
0000
0M01
0000
0M01
0010
,
010M
0000
010M
0000
010M
0000
010M
1000
,
0001
0000
0000
1000
0000
1000
1000
0001
,
0100
0000
0000
0010
0000
0010
0010
1000
,
0001
0000
0000
0100
0000
0100
0100
0001
,
1000
0000
0000
0010
0000
0100
0010
0100
,
0010
0000
1000
0100
0010
0000
0001
0100
,
0010
0000
1000
0100
0010
0000
0001
0010
,
0100
0000
1000
0010
0100
0000
0001
1000
,
0100
0000
0010
0001
1000
0000
0001
0100
,
1000
0000
1000
0100
0010
0000
0010
1000
,
0100
0000
0100
0010
1000
0000
1000
0010
,
0001
0000
0001
0100
1000
0000
1000
0100
,
0001
0000
0001
0010
1000
0000
0010
0100
,
0110
0000
0011
0000
0101
0000
1000
0100
,
1100
0000
0101
0000
1010
0000
0001
0010
,
0011
0000
0101
0000
0110
0000
1000
0001
,
1001
0000
0110
0000
1001
0000
1000
1000
,
0020
0000
0100
0000
1030
0000
0001
0001
,
0020
0000
0100
0000
0031
0000
0100
0100
,
0002
0000
1000
0000
0013
0000
0100
0100
,
2000
0001
3010
0000
,
0200
0000
0000
0010
0000
0010
0310
0000
,
1000
0100
0010
0001
1000
0000
0000
0000
,
0020
0000
0000
0100
0000
0100
0130
0000
,
0100
0001
0010
0100
1000
0000
0000
0000
,
0001
0000
0100
0001
0000
0001
0100
0000
,
0010
0000
1000
0010
0000
0010
1000
0000
,
0100
0000
0100
0010
0000
0010
0100
0000
,
1000
0000
0001
1000
0000
1001
0000
0000
,
0002
0010
0203
1000
,
0320
1000
2030
0100
,
3002
0100
0023
0100
,
0031
1000
0001
1000
0100
0000
0000
0000
,
0011
0100
0110
0001
,
1000
0100
1000
0100
1000
0000
0001
0000
,
1010
0100
1010
0001
,
0010
0001
0010
0001
0010
0000
0000
0000
,
1100
0000
0001
0100
1000
0000
1000
0100
,
0001
0000
0001
0100
0010
0000
0010
1000
,
0100
0000
0010
0000
0100
0010
0001
0010
,
0100
0000
1000
0010
0100
0000
0100
0000
,
1001
0100
0011
1000
,
0100
0010
0000
0010
0100
0000
1001
0000
,
0100
0000
0010
0000
1000
0001
0100
0010
,
2000
0010
0001
3001
,
0100
0000
0010
0000
0100
0000
0001
0100
,
0001
0000
1000
0000
0100
0000
1000
0100
,
1000
0000
0010
0000
0100
0000
0010
0100
,
0010
0000
1000
0000
0001
0000
1000
0020
,
2000
0000
0000
3030
;

//---------------dance-single - C. Picardy----------------
#NOTES:
     dance-single:
     :
     Challenge:
     9:
     0.645079,0.791490,0.617294,0.710311,0.105701,534.000000,461.000000,73.000000,84.000000,40.000000,13.000000,0.645079,0.791490,0.617294,0.710311,0.105701,534.000000,461.000000,73.000000,84.000000,40.000000,13.000000:
// measure 0
0000
0000
0000
0000
,  // measure 1
0000
0000
0000
0000
,  // measure 2
0000
0000
0000
0000
,  // measure 3
0000
0000
0000
0000
,  // measure 4
0000
0000
0000
0000
0000
0000
1000
0100
,  // measure 5
0001
0100
1000
0010
0002
0000
0013
1000
,  // measure 6
0200
0000
0301
0100
2000
0000
3001
0100
,  // measure 7
2000
0000
3100
0001
0020
0000
0130
0010
,  // measure 8
0001
0010
1000
0010
0200
0010
0010
0310
,  // measure 9
1100
0000
0101
0000
1100
0000
0001
0010
,  // measure 10
0100
1000
0010
0100
2001
0000
3001
0100
,  // measure 11
0120
0000
1030
0100
0120
0000
0031
0010
,  // measure 12
0100
1000
0010
0200
0004
0000
0303
0100
,  // measure 13
2010
0000
3001
0100
2010
0000
3001
0010
,  // measure 14
0100
1000
0001
0100
1002
0000
1003
0100
,  // measure 15
2100
0000
3001
0100
0102
0000
1003
0100
,  // measure 16
0110
0100
1000
0001
2002
0000
3003
0000
,  // measure 17
2200
0000
0010
0300
0002
0000
0010
3000
,  // measure 18
0200
0000
1000
0003
0020
0000
1000
0330
,  // measure 19
M1M1
0000
1M1M
0000
0001
0100
0010
2000
,  // measure 20
0200
0000
0010
0300
0200
0000
0001
3300
,  // measure 21
0220
0000
0001
0030
2000
0000
0010
3300
,  // measure 22
0001
0200
0000
0310
0110
0MM0
1001
M00M
,  // measure 23
0202
0000
1000
0303
0001
0100
0010
1000
,  // measure 24
2002
0000
0000
0000
0010
0000
0010
3003
,  // measure 25
0110
0MM0
0000
1000
M000
0001
0100
1000
,  // measure 26
0100
0001
0010
0100
0MM0
1000
0100
0010
,  // measure 27
0001
00MM
0000
0100
0M00
0001
0010
1000
,  // measure 28
0010
0001
1000
0100
MM00
0010
0100
1000
,  // measure 29
0020
0000
0100
0130
0002
0000
0010
0013
,  // measure 30
0200
0000
0001
0301
2000
0000
0010
3010
,  // measure 31
0001
0100
0001
0100
0010
1000
0010
1000
,  // measure 32
0001
0100
0010
1000
0100
0010
0100
1000
,  // measure 33
1002
0000
1003
0100
1200
0000
1300
0010
,  // measure 34
0210
0000
0301
0010
0012
0000
1003
0010
,  // measure 35
0210
0000
0301
1000
2100
0000
3001
0100
,  // measure 36
0120
0000
1030
0100
0210
0000
1300
0010
,  // measure 37
0102
0M00
1003
0100
0012
00M0
0103
0010
,  // measure 38
2010
00M0
3001
0010
1200
M000
0310
0001
,  // measure 39
0102
0M00
0013
0100
2100
0M00
3001
0010
,  // measure 40
0210
00M0
0310
0100
1002
M000
0103
0010
,  // measure 41
1010
1000
1100
1000
1010
1000
0100
0010
,  // measure 42
0011
0001
0101
0001
0011
0001
0100
0010
,  // measure 43
0110
0010
1010
0010
0110
0100
0001
0100
,  // measure 44
0101
1000
1100
0001
0101
0100
0010
1000
,  // measure 45
1001
0001
0101
0100
0110
1000
0100
0010
,  // measure 46
0011
1000
1100
1000
1010
0100
0001
1000
,  // measure 47
1010
0001
0011
0100
0110
1000
1001
0100
,  // measure 48
0002
0000
0200
0000
0010
0000
1000
0303
,  // measure 49
0102
0000
0M00
0000
0000
0000
2003
0000
0000
0000
3001
0000
100M
0100
1000
0100
,  // measure 50
1000
0000
0100
0000
0100
0000
1000
0000
0100
0000
0000
0000
0010
0001
0010
0001
,  // measure 51
0020
0000
0000
0000
0000
0000
0032
0000
00M0
0000
1003
0000
001M
1000
0010
1000
,  // measure 52
0010
0000
1000
0000
1000
0000
0010
0000
1000
0000
0001
0000
0100
0010
0100
0010
,  // measure 53
0200
0000
0000
0000
0000
0000
0302
0000
0M00
0000
0013
0000
0001
0010
0001
0010
,  // measure 54
0001
0000
1000
0000
0100
0000
0020
0000
0000
0000
0031
0000
00M1
0100
0001
0100
,  // measure 55
0002
0000
0000
2003
000M
3001
M010
0100
,  // measure 56
1000
0001
0100
0001
0000
100M
0000
M000
,  // measure 57
0001
0100
0010
0100
0001
0100
0010
1000
,  // measure 58
0100
1000
0001
1000
0100
0100
0010
0MM0
,  // measure 59
0001
0010
0001
0010
0100
1000
0100
1000
,  // measure 60
0010
0100
0010
1000
0001
0010
0010
0MM0
,  // measure 61
0102
0000
1003
1000
2100
0000
3001
0001
,  // measure 62
0101
0100
0010
1000
0100
0010
0010
0000
,  // measure 63
2001
0000
3010
0100
2002
0000
3003
0010
,  // measure 64
0100
0000
1000
0000
0001
0000
0100
0000
0010
0000
1000
0001
0100
0000
0000
0000
,  // measure 65
0010
2000
0000
0000
0100
0000
3000
0000
0010
0200
0000
0000
1000
0000
0300
0000
,  // measure 66
0001
0200
0000
0000
0010
0000
0300
0000
1000
0002
0000
0000
0100
0000
0003
0000
,  // measure 67
0010
1000
0000
0000
0100
1000
0000
0000
0001
0000
0010
0000
0100
0000
0010
0000
,  // measure 68
0001
2000
0000
0000
0100
0000
3000
0000
1000
0002
0000
0000
0100
0000
0003
0000
,  // measure 69
0001
0010
0000
0000
1001
0000
0000
0000
1000
0100
0000
0000
1001
0000
0000
0000
,  // measure 70
0100
0010
0000
0000
0101
0000
0000
0000
0010
0001
0000
0000
0110
0000
0000
0000
,  // measure 71
1100
0000
0101
0000
0010
1000
0100
0010
,  // measure 72
0012
1000
0100
1003
,  // measure 73
0200
0000
0000
0320
0000
1000
1030
0100
,  // measure 74
0001
0100
1000
0020
0000
0001
0031
0010
,  // measure 75
2000
0000
0000
3200
0000
0001
0301
0100
,  // measure 76
0010
0001
0100
2000
0000
3100
0001
2000
,  // measure 77
0200
0000
0000
0000
,  // measure 78
3300
0000
0000
0000
;
