#VERSION:0.83;
#TITLE:Canterbury Plains;
#SUBTITLE:(Top Gear 2);
#ARTIST:Allan Zax;
#TITLETRANSLIT:;
#SUBTITLETRANSLIT:;
#ARTISTTRANSLIT:;
#GENRE:;
#ORIGIN:;
#CREDIT:;
#BANNER:canterburyplainsbn.png;
#BACKGROUND:canterburyplainsbg.png;
#PREVIEWVID:;
#JACKET:;
#CDIMAGE:;
#DISCIMAGE:;
#LYRICSPATH:;
#CDTITLE:;
#MUSIC:canterburyplains.ogg;
#OFFSET:-0.004676;
#SAMPLESTART:61.497578;
#SAMPLELENGTH:12.000000;
#SELECTABLE:YES;
#BPMS:0.000=160.000,
284.000=80.000,
292.000=160.000;
#STOPS:;
#DELAYS:;
#WARPS:;
#TIMESIGNATURES:0.000=4=4;
#TICKCOUNTS:0.000=4;
#COMBOS:0.000=1;
#SPEEDS:0.000=1.000=0.000=0;
#SCROLLS:0.000=1.000;
#FAKES:;
#LABELS:0.000=Song Start;
#BGCHANGES:16.000=retroscifigrid.mp4=1.000=1=0=1=SongBgWithMovieViz==CrossFade==,
32.000=retroscifigrid.mp4=1.000=0=0=1===CrossFade_Fastest==,
60.000=retroscifigrid.mp4=1.000=0=0=1=SongBgWithMovieViz==CrossFade_Fastest==,
62.000=canterburyplainsbg.png=1.000=0=0=1===CrossFade_Fastest==,
64.000=flash=2.000=0=0=1====#0000FF=,
64.250=bluelinesabstractwaves.mp4=1.000=0=1=1=StretchRewind====,
96.000=futuristicneongrid.mp4=1.000=0=0=1===CrossFade_Fastest==,
132.000=shininggridarrayspin.mp4=1.000=0=1=1=StretchRewind==CrossFade_Fastest==,
164.000=sunsetbackground.mp4=1.000=0=0=1===SlideUp==,
196.000=futuristicneongrid.mp4=1.000=0=0=1===CrossFade_Fastest==,
228.000=canterburyplainsbg.png=1.000=0=0=1=====,
229.000=canterburyplainsbg.png=1.000=0=0=1====#FF0000=,
230.000=canterburyplainsbg.png=1.000=0=0=1====#00FF00=,
231.000=canterburyplainsbg.png=1.000=0=0=1====#0000FF=,
232.000=canterburyplainsbg.png=1.000=0=0=1====#FF0000=,
232.250=canterburyplainsbg.png=1.000=0=0=1====#00FF00=,
232.500=canterburyplainsbg.png=1.000=0=0=1====#0000FF=,
232.750=canterburyplainsbg.png=1.000=0=0=1====#FF0000=,
233.000=canterburyplainsbg.png=1.000=0=0=1====#00FF00=,
233.250=canterburyplainsbg.png=1.000=0=0=1====#0000FF=,
233.500=canterburyplainsbg.png=1.000=0=0=1====#FF0000=,
233.750=canterburyplainsbg.png=1.000=0=0=1====#00FF00=,
234.000=canterburyplainsbg.png=1.000=0=0=1====#FFFF00=,
234.250=canterburyplainsbg.png=1.000=0=0=1====#00FFFF=,
234.500=canterburyplainsbg.png=1.000=0=0=1====#FF00FF=,
234.750=canterburyplainsbg.png=1.000=0=0=1====#FFFFFF=,
235.000=canterburyplainsbg.png=1.000=0=0=1====#FFFFFF80=,
235.250=canterburyplainsbg.png=1.000=0=0=1====#FFFF00=,
235.500=canterburyplainsbg.png=1.000=0=0=1====#00FFFF=,
235.750=canterburyplainsbg.png=1.000=0=0=1====#FF0000=,
236.000=canterburyplainsbg.png=1.000=0=0=1=====,
236.250=retroscifigrid.mp4=1.000=0=0=1===SlideUp==,
268.000=shininggridarrayspin.mp4=1.000=0=0=1===FadeUp==,
284.000=shininggridarrayspin.mp4=0.500=1=0=1=SongBgWithMovieViz==CrossFade==,
289.000=canterburyplainsbg.png=1.000=0=0=1===FadeCenterVertical==,
292.000=sunsetbackground.mp4=1.000=0=0=1===SlideLeft==,
328.000=canterburyplainsbg.png=1.000=1=0=1===CrossFade==,
99999=-nosongbg-=1.000=0=0=0 // don't automatically add -songbackground-
;
#KEYSOUNDS:;
#ATTACKS:
;

//---------------dance-single - C. Picardy----------------
#NOTEDATA:;
#CHARTNAME:;
#STEPSTYPE:dance-single;
#DESCRIPTION:C. Picardy;
#CHARTSTYLE:;
#DIFFICULTY:Beginner;
#METER:1;
#RADARVALUES:0.103207,0.159249,0.038841,0.015537,0.000000,93.000000,88.000000,5.000000,2.000000,0.000000,0.000000,0.000000,0.000000,0.000000,0.103207,0.159249,0.038841,0.015537,0.000000,93.000000,88.000000,5.000000,2.000000,0.000000,0.000000,0.000000,0.000000,0.000000;
#CREDIT:C. Picardy;
#NOTES:
0000
0000
0000
0000
,
0000
0000
0000
0000
,
0000
0000
0000
0000
,
0000
0000
0000
0000
,
0000
0000
0000
0000
,
0000
0000
0000
0000
,
0000
0000
0000
0000
,
0000
0000
0000
0000
,
1000
0000
1000
0000
,
1000
0000
0000
0000
,
0001
0000
0001
0000
,
0001
0000
0000
0000
,
0100
0000
0100
0000
,
0100
0000
0000
0000
,
0010
0000
0010
0000
,
0010
0000
0000
0000
,
1001
0000
0000
0000
,
1000
0000
0000
0000
,
0001
0000
0000
0000
,
1000
0000
0000
0000
,
0001
0000
0000
0000
,
0100
0000
0000
0000
,
0010
0000
0000
0000
,
0100
0000
0000
0000
,
0010
0000
0010
0000
,
0010
0000
0000
0000
,
0100
0000
0100
0000
,
0100
0000
0000
0000
,
0001
0000
0001
0000
,
0001
0000
0000
0000
,
1000
0000
1000
0000
,
1000
0000
0000
0000
,
0010
0000
0000
0000
,
1001
0000
0000
0000
,
0100
0000
0000
0000
,
0001
0000
0000
0000
,
1000
0000
0000
0000
,
0010
0000
0000
0000
,
1000
0000
0000
0000
,
0001
0000
0000
0000
,
0100
0000
0000
0000
,
0001
0000
1000
0000
,
0001
0000
0000
0000
,
1000
0000
0001
0000
,
1000
0000
0000
0000
,
0010
0000
0100
0000
,
0010
0000
0000
0000
,
0100
0000
0010
0000
,
0100
0000
0000
0000
,
1001
0000
0000
0000
,
0100
0000
0000
0000
,
0010
0000
0000
0000
,
0100
0000
0000
0000
,
0001
0000
0000
0000
,
1000
0000
0000
0000
,
0001
0000
0000
0000
,
0100
0000
0100
0000
,
0100
0000
0000
0000
,
0200
0000
0000
0000
,
0300
0000
0000
0000
,
0001
0000
0000
0000
,
1000
0000
0000
0000
,
0001
0000
0000
0000
,
1001
0000
0000
0000
,
0100
0000
0000
0000
,
0010
0000
0000
0000
,
0100
0000
0000
0000
,
1001
0000
0000
0000
,
0001
0000
0000
0000
,
1000
0000
0000
0000
,
0001
0000
0000
0000
,
0100
0000
0100
0000
,
0010
0000
0010
0000
,
1000
0000
0000
0000
,
0001
0000
0000
0000
,
1000
0000
0000
0000
,
0001
0000
0000
0000
,
0100
0000
0000
0000
,
0010
0000
0000
0000
,
0100
0000
0000
0000
,
0010
0000
0000
0000
,
0020
0000
0000
0000
,
0030
0000
0000
0000
;

//---------------dance-single - C. Picardy----------------
#NOTEDATA:;
#CHARTNAME:;
#STEPSTYPE:dance-single;
#DESCRIPTION:C. Picardy;
#CHARTSTYLE:;
#DIFFICULTY:Challenge;
#METER:11;
#RADARVALUES:0.890020,1.491894,0.302962,0.217511,0.827319,802.000000,763.000000,39.000000,28.000000,84.000000,4.000000,4.000000,0.000000,0.000000,0.890020,1.491894,0.302962,0.217511,0.827319,802.000000,763.000000,39.000000,28.000000,84.000000,4.000000,4.000000,0.000000,0.000000;
#CREDIT:C. Picardy;
#NOTES:
// measure 0
0000
0000
0000
0000
,  // measure 1
0000
0000
0000
0000
,  // measure 2
0000
0000
0000
0000
,  // measure 3
0000
0000
0000
0000
,  // measure 4
1000
0000
0100
0000
1000
0000
0100
1000
0100
0000
1000
0000
0100
0000
0010
0000
,  // measure 5
0001
0000
0010
0000
0100
0000
1000
0100
1000
0000
0100
0000
0010
0000
0001
0000
,  // measure 6
0100
0000
0010
0000
1000
0000
0010
1000
0010
0000
1000
0000
0100
0000
0010
0000
,  // measure 7
0100
0000
1000
0000
0001
0000
0100
0001
0100
0000
0010
0000
1000
0000
0100
0000
,  // measure 8
0010
0000
0100
0000
1000
0000
0001
0010
0001
0000
1000
0000
0100
0000
1000
0100
,  // measure 9
1000
0000
0001
0000
0100
0000
0001
0100
0001
0000
1000
0000
0010
0000
1000
0010
,  // measure 10
1000
0000
0100
0000
0010
0000
0001
0010
0001
0000
0010
0000
0100
0000
1000
0100
,  // measure 11
1000
0000
0010
0000
0100
0000
0001
1000
0001
0000
0100
0000
0010
0000
1000
0100
,  // measure 12
0010
0000
0100
0000
1000
0000
0001
0100
0010
0000
1000
0000
0100
0000
0010
0100
,  // measure 13
1000
0000
0001
0000
0100
0000
0010
1000
0001
0000
0010
0000
0100
0000
1000
0010
,  // measure 14
0100
0000
0001
0000
0010
0000
0100
1000
0001
0000
0100
0000
0010
0000
1000
0000
,  // measure 15
0200
0000
0310
0001
0010
0100
1000
0001
,  // measure 16
1MM1
0000
1000
0100
0010
0000
0100
0000
1000
0000
0001
0000
0100
0000
0020
0000
,  // measure 17
0000
0000
0000
0000
0001
0000
0000
0000
1030
0000
0100
0000
0010
0001
0100
0000
,  // measure 18
1MM1
0000
0000
0000
1000
0000
0001
0100
0001
0000
1000
0000
0100
0000
0200
0000
,  // measure 19
0000
0000
0010
0000
0310
0000
0001
0010
0001
0000
0100
0000
M11M
0000
0000
0000
,  // measure 20
1MM1
0000
0000
0000
0100
0000
0001
0010
0001
0000
1000
0000
0100
0000
0020
0000
,  // measure 21
0000
0000
1000
0000
0031
0010
0100
1000
,  // measure 22
1MM1
0000
0000
0000
1000
0000
0001
0100
0001
0000
1000
0000
0100
0000
0200
0000
,  // measure 23
0000
0000
0010
0000
0310
0000
0000
0001
0010
0000
0001
0000
0100
0000
0010
0000
,  // measure 24
M12M
0000
1000
0000
0001
0001
0000
1030
,  // measure 25
12MM
0000
0010
0010
1000
0010
1300
0000
,  // measure 26
M2M1
0000
0010
0000
0001
0010
0000
0310
,  // measure 27
0000
2000
0001
0010
3002
1000
1000
0100
,  // measure 28
2003
0000
0100
0000
0001
0100
0000
3001
,  // measure 29
0020
0000
0001
0001
0100
0001
0130
0000
,  // measure 30
MM12
0000
0100
0000
1000
0100
0000
1003
,  // measure 31
0001
0000
0000
0001
0010
0000
0100
0000
1000
0000
0000
0100
0010
0000
0001
0000
,  // measure 32
2000
0200
0001
3310
,  // measure 33
1000
0100
1000
0100
0010
0001
0010
0001
1000
0010
1000
0010
0100
0001
0100
0001
,  // measure 34
1000
0001
1000
0001
0100
0000
0100
0010
0000
0100
0001
0000
1000
0000
1MM1
0000
,  // measure 35
0100
0010
0100
0000
0001
0000
1000
0000
0000
0000
0001
0000
0010
0000
0100
0000
,  // measure 36
1MM1
0000
0100
0010
0001
0100
0010
1000
,  // measure 37
0001
0010
0001
0010
0100
1000
0100
1000
,  // measure 38
0001
0100
0001
0100
0001
0100
0001
0100
0010
1000
0010
1000
0010
1000
0010
1000
,  // measure 39
0100
0010
0100
0010
0001
1000
0001
1000
0001
0010
0100
1000
0001
0010
0100
1000
,  // measure 40
0002
0000
0000
0000
1003
0000
0100
0000
0010
0100
0010
0000
0001
0000
0100
0000
,  // measure 41
1MM1
0000
0100
0010
0001
0000
0100
0000
1000
0000
0100
0000
0010
0000
1000
0100
,  // measure 42
0010
0000
1000
0000
0010
0000
0001
0000
0100
0010
1000
0000
0001
0100
0010
0100
,  // measure 43
0001
0000
0100
0000
1000
0000
0100
0010
1000
0010
0100
0010
1000
0000
0100
0000
,  // measure 44
0001
0000
0100
0000
0010
0000
0100
0010
0001
0000
0100
0000
1000
0000
0001
0000
,  // measure 45
0010
0000
1000
0000
0001
0000
0100
0010
1000
0000
0100
0000
0001
0000
1000
0000
,  // measure 46
0010
0000
0100
0000
0010
0000
1000
0000
0001
0000
0100
0010
0001
0000
1000
0000
,  // measure 47
1M1M
0000
0000
0000
0100
0000
0001
0100
0010
0000
1000
0000
0100
0000
0010
0000
,  // measure 48
MM11
1000
11MM
0001
M1M1
0010
M11M
0001
,  // measure 49
1MM1
0000
0000
0000
1000
0000
0001
0100
0001
0100
0001
0000
1000
0000
0100
0000
,  // measure 50
M11M
0000
0000
0000
0001
0000
1000
0100
1000
0100
1000
0000
0010
0000
0100
0000
,  // measure 51
M1M1
0000
0000
0000
1000
0000
0100
0010
0100
0010
0100
0000
0010
0000
0001
0000
,  // measure 52
MM11
0000
0000
0000
0100
0000
0010
1000
0010
1000
0010
0000
1000
0000
0100
0000
,  // measure 53
1M1M
0000
0000
0000
0100
0000
0001
0100
0010
0100
0001
0000
1000
0000
0100
0000
,  // measure 54
M11M
0000
0000
0000
1000
0000
0001
0010
0100
0010
0001
0000
1000
0000
0010
0000
,  // measure 55
M1M1
0000
0000
0000
0010
0000
1000
0010
0100
0010
1000
0000
0100
0000
0010
0000
,  // measure 56
MM11
0000
0100
0000
1000
0000
0001
0100
0010
0000
1000
0000
11MM
0000
0100
0010
,  // measure 57
0002
0200
0010
1303
,  // measure 58
4000
0004
0000
0000
0000
0000
0000
0000
0000
0000
0000
0000
0000
0000
0000
3003
,  // measure 59
1000
0100
1000
0100
1000
0100
1000
0100
0010
0001
0010
0001
0010
0001
0010
0001
,  // measure 60
0100
0001
0100
0001
0100
0010
0100
0010
1000
0010
1000
0010
1000
0001
1000
0001
,  // measure 61
1000
0100
0010
0100
1000
0001
0100
0010
0100
0001
1000
0100
0010
0100
1000
0001
,  // measure 62
0100
0010
0100
0001
0010
0001
0100
0010
0100
0010
1000
0100
0010
0001
0010
0100
,  // measure 63
1000
0001
1000
0001
0100
0001
0100
0001
0010
0001
0010
0001
1000
0100
1000
0100
,  // measure 64
0010
0001
0010
0100
1000
0001
0100
0010
0100
0001
1000
0100
0010
0100
1000
0001
,  // measure 65
0100
0010
1000
0100
0010
0001
0010
0100
1000
0001
0100
0010
0100
0001
1000
0100
,  // measure 66
0010
0100
1000
0001
0100
0010
0100
0001
0010
0100
1000
0001
0100
0010
1000
0001
,  // measure 67
0100
0010
0100
0010
1000
0010
1000
0010
1000
0001
1000
0001
0010
0100
0010
0100
,  // measure 68
1000
0100
0010
0100
1000
0001
0100
0010
0100
0000
0001
0010
0100
0000
1000
0100
,  // measure 69
0010
0100
1000
0001
0100
0010
1000
0010
0100
0010
1000
0100
0010
0001
0010
0100
,  // measure 70
0010
0001
0100
0010
1000
0010
0100
0010
1000
0000
0001
0100
0010
1000
0100
0010
,  // measure 71
MM11
0000
0000
0000
0100
0000
1000
0000
1MM1
0000
0000
0000
0001
0100
0001
0100
0010
0000
0000
0000
1000
0100
10MM
0100
1000
0000
0000
0000
0001
0100
0001
0000
,  // measure 72
1000
0001
1000
0001
1000
0100
1000
0100
1000
0000
0000
0000
0001
0010
MM01
0010
0001
0000
0000
0000
0100
0010
0100
0010
1000
0001
1MM0
0001
0100
0010
1000
0001
,  // measure 73
0100
0000
0010
0100
0010
0000
1000
0000
0100
0000
0010
0000
0100
0000
21MM
0000
,  // measure 74
0000
0000
3001
0000
M1M2
0000
0000
0000
1003
0000
0100
0000
0010
0001
0100
0000
,  // measure 75
1MM2
0000
0000
0000
0103
0000
0001
0010
0001
0000
0100
0000
0010
0000
2M1M
0000
,  // measure 76
0000
0000
3100
0000
0010
0000
0001
0010
0100
0000
1000
0000
0100
0000
0010
0000
,  // measure 77
MM11
0000
0000
0000
1000
0000
0010
0100
0010
0000
1000
0000
0100
0000
0021
0000
,  // measure 78
MM00
0130
21MM
0000
3001
0010
0001
1000
,  // measure 79
1M2M
0000
0000
0000
1030
0000
0001
0010
0001
0000
1000
0000
0100
0000
M21M
0000
,  // measure 80
0000
0000
0310
0000
0001
0000
1000
0010
1000
0000
1M1M
0000
0001
0000
M1M1
0000
,  // measure 81
4000
0004
0000
0000
0000
0000
0000
0000
0000
0000
0000
0000
0000
0000
0000
3003
,  // measure 82
2000
0000
0000
0200
0000
0000
0000
0000
,  // measure 83
0000
0000
3300
0000
;

//---------------dance-single - C. Picardy----------------
#NOTEDATA:;
#CHARTNAME:;
#STEPSTYPE:dance-single;
#DESCRIPTION:C. Picardy;
#CHARTSTYLE:;
#DIFFICULTY:Hard;
#METER:9;
#RADARVALUES:0.627009,0.713514,0.178670,0.186438,0.089335,565.000000,542.000000,23.000000,24.000000,14.000000,0.000000,2.000000,0.000000,0.000000,0.627009,0.713514,0.178670,0.186438,0.089335,565.000000,542.000000,23.000000,24.000000,14.000000,0.000000,2.000000,0.000000,0.000000;
#CREDIT:C. Picardy;
#NOTES:
0000
0000
0000
0000
,
0000
0000
0000
0000
,
0000
0000
0000
0000
,
0000
0000
0000
0000
,
1000
0100
0100
1000
0100
0100
1000
0100
,
0000
0000
1000
0100
0010
0010
0001
0100
,
0001
0100
0100
0001
0100
0100
0010
0100
,
0000
0000
0010
1000
0100
0010
0001
0100
,
0010
1000
1000
0010
1000
1000
0010
1000
,
0000
0000
0001
0100
0010
0100
0001
0010
,
0001
0010
0010
0001
0010
0010
0001
0010
,
0000
0000
0100
0010
0001
0010
0100
1000
,
0001
0100
0010
0100
0001
0100
0010
1000
,
0000
0000
1000
0010
0100
0010
1000
0100
,
0010
0001
0010
0100
1000
0001
0100
0010
,
0220
0000
0000
0330
,
1MM0
0000
0001
1000
0001
0000
1000
0000
0100
0000
0100
0000
0010
0000
0002
0000
,
0000
0000
0000
0000
0103
0000
0000
0000
0001
0000
0100
0000
0010
0100
0010
0000
,
0110
0000
0000
0000
0010
0000
1000
0010
1000
0000
0100
0000
1000
0000
1000
0000
,
0000
0100
0100
0010
0001
0100
0010
0000
,
1001
0000
0000
0000
1000
0000
0001
0100
0001
0000
1000
0000
0100
0000
0200
0000
,
0000
0000
0310
0000
0001
0010
0100
1000
,
1100
0000
0000
0000
1000
0000
0100
0010
0100
0000
1000
0000
0001
0000
0001
0000
,
0000
0010
0010
0100
0010
0010
0001
0100
,
0101
0000
0001
0000
1000
0100
0000
0100
,
0010
0000
0010
0010
0100
0100
0010
0000
,
0011
0000
0100
0000
0010
0100
0000
0100
,
0000
0001
0001
0100
0010
0010
1000
0100
,
0110
0000
1000
0000
1000
0001
0000
0001
,
0100
0000
0100
0100
0010
0100
0100
0000
,
1010
0000
0100
0000
0001
1000
0000
1000
,
0001
0011
1000
1100
,
2000
3200
0320
0032
,
1003
0100
1000
0100
0010
0001
0010
0001
,
1000
0000
0001
0000
1000
0000
0001
1000
0000
1000
0001
0000
0100
0000
0010
0000
,
0100
0010
0100
0000
0010
0000
0010
0000
0000
0000
0100
0000
0010
0000
1000
0000
,
0200
0000
0310
0001
0010
0100
1000
1000
,
0001
0100
0001
0100
0010
1000
0010
1000
,
0001
1000
0001
0000
1000
0000
0100
0000
1000
0100
1000
0000
0001
0000
0100
0000
,
0001
0100
0001
0000
0100
0000
0010
0000
0100
0010
0100
0000
0010
0000
1000
0000
,
1001
0000
0001
0100
0010
0010
1000
0100
,
0010
0000
0001
0010
0001
0000
0010
0000
0100
0000
0100
0000
1000
0000
0100
0000
,
0000
0000
0100
0000
1000
0000
0000
0000
0001
0000
0100
0000
0001
0100
0001
0000
,
0101
0000
0000
0000
1000
0000
0010
1000
0010
0000
1000
0000
0100
0000
0100
0000
,
0000
0010
0010
0001
0010
0010
0100
0000
,
0011
0000
0000
0000
1000
0000
0001
0100
0001
0000
0001
0000
1000
0000
0010
0000
,
0000
0000
0010
0000
1000
0000
0000
0000
0100
0000
0010
0100
0010
0000
0100
0000
,
0110
0000
0000
0000
0010
0000
0001
0010
0001
0000
0010
0000
0100
0000
1000
0000
,
0000
0001
0001
0100
0010
0010
1000
0100
,
2001
0000
0010
0000
0100
0100
0000
3001
,
0200
0000
0010
0310
2000
0100
3100
0000
,
0021
0000
0100
0000
0001
0001
0000
0130
,
0000
2000
0010
3010
0200
0010
0310
1000
,
0200
0000
0010
0000
1000
1000
0000
1300
,
0002
0000
0010
0013
0002
0100
0103
0000
,
1020
0000
0100
0000
1000
1030
0000
0001
,
1000
0000
1000
0100
0001
0000
0001
0100
,
2000
0010
0001
3100
,
4MM4
0MM0
0MM0
3MM3
,
1000
0100
1000
0100
0010
0001
0010
0001
,
0100
0001
0100
0001
0100
0010
0100
0010
,
1000
0010
1000
0010
0100
0001
0100
0001
,
0010
0100
0010
0100
0010
0001
0010
0001
,
1000
0100
1000
0100
0001
0100
0001
0100
,
1000
0010
1000
0010
0001
0010
0001
0010
,
0100
0001
0100
0001
0100
1000
0100
1000
,
0100
0010
0100
0010
1000
0100
1000
0100
,
0010
0100
1000
0100
0010
0100
1000
0100
,
0010
0001
0100
0001
0010
0001
0100
0001
,
1000
0010
0100
0010
1000
0010
0100
0010
,
1000
0001
0100
0001
1000
0001
0100
0001
,
1000
0100
1100
0000
MM10
0001
0011
0000
,
01MM
0000
0010
0000
0110
0000
0000
0100
0010
0000
0010
0000
1000
0001
1001
0000
,
1000
0100
0010
0001
1000
0100
0010
0002
,
0000
0000
0010
0000
0013
0000
0100
0000
1000
0000
1000
0000
0001
0100
0001
0000
,
0100
0000
0010
0000
0100
0000
0010
1000
0010
0000
1000
0000
0100
0000
0100
0000
,
0010
0001
0010
0100
1000
0001
0100
0000
,
1001
0000
0001
0100
0010
1000
0001
0200
,
0000
0010
0310
1000
0100
0100
0010
0001
,
0010
0000
0100
0000
1000
0000
0001
1000
0001
0000
0100
0000
0010
0000
0010
0000
,
0000
0100
0100
0001
0100
0010
1000
0000
,
0001
0010
0100
1000
0001
0010
0100
1000
,
0002
0000
0000
0200
0000
0000
0000
0000
,
0000
0000
0303
0000
;

//---------------dance-single - C. Picardy----------------
#NOTEDATA:;
#CHARTNAME:;
#STEPSTYPE:dance-single;
#DESCRIPTION:C. Picardy;
#CHARTSTYLE:;
#DIFFICULTY:Medium;
#METER:6;
#RADARVALUES:0.476083,0.479933,0.271889,0.132060,0.000000,429.000000,394.000000,35.000000,17.000000,0.000000,0.000000,0.000000,0.000000,0.000000,0.476083,0.479933,0.271889,0.132060,0.000000,429.000000,394.000000,35.000000,17.000000,0.000000,0.000000,0.000000,0.000000,0.000000;
#CREDIT:C. Picardy;
#NOTES:
0000
0000
0000
0000
,
0000
0000
0000
0000
,
0000
0000
0000
0000
,
0000
0000
0000
0000
,
1000
0000
0001
0000
1000
0100
1000
0000
,
0001
0000
1000
0000
0001
0100
0001
0000
,
0100
0000
0010
0000
1000
0010
1000
0000
,
0100
0000
0010
0000
0001
0010
0001
0000
,
1000
0000
1000
0000
0001
0010
0100
1000
,
0000
0000
0001
0000
0100
0001
0100
0000
,
0001
0000
0001
0000
1000
0100
0010
0001
,
0000
0000
1000
0000
0100
1000
0100
0000
,
0010
0000
0010
0000
0001
0100
0010
1000
,
0000
0000
0100
0000
0010
0100
0010
0000
,
0001
0000
0001
0000
1000
0100
0010
0002
,
2000
0000
0000
3003
,
0110
0000
0100
0000
0001
0100
0010
2000
,
0000
0000
3001
0000
1000
0100
1000
0100
,
1000
0000
0001
0000
0001
0100
0001
0100
,
0000
0010
1010
0101
,
1000
0000
0100
0000
1000
0100
0010
0002
,
0000
0000
1003
0000
0001
0100
0001
0100
,
0001
0000
1000
0000
0001
0010
0100
1000
,
0000
0001
0100
0000
0010
1000
0100
0000
,
0011
0000
1100
0000
1000
0100
0000
0100
,
0010
0000
0001
1000
0001
1000
0001
0000
,
0101
0000
1010
0000
1000
0010
0000
0010
,
0000
0010
0010
0000
1000
1000
1000
0000
,
0110
0000
0101
0000
0001
0010
0000
0010
,
0100
0000
0010
0100
0010
0100
0010
0000
,
0011
0000
1001
0000
0100
0010
0000
0010
,
0200
0301
2000
3100
,
0020
0001
0100
0031
,
1000
0100
0001
0000
0001
0100
1000
0000
,
1000
0010
0001
0000
0001
0010
1000
0000
,
0001
0100
0001
0100
0000
0010
0100
0000
,
0110
1000
0100
0100
,
0010
0001
0100
0100
,
0001
0100
1000
0000
1000
0100
0001
0000
,
0001
0010
1000
0000
1000
0010
0001
0000
,
1100
0000
0010
0000
0001
0100
0010
0000
,
1001
0000
0100
0000
0100
0010
0100
0010
,
0000
0010
1000
0000
0001
0100
0001
0000
,
0110
0000
1000
0000
0100
1000
0100
1000
,
0000
0001
1000
0000
1010
0000
0101
0000
,
1000
0000
0100
0000
0010
0001
0010
0001
,
0000
0001
0100
0000
0001
0100
0010
1000
,
0100
0000
1000
0000
0100
0010
0100
0010
,
0000
0001
1000
0000
0010
1000
0001
0000
,
1200
0000
0010
0000
1000
1300
0000
0001
,
0200
0000
0010
0000
0001
0001
0301
0000
,
1020
0000
0100
0000
1000
1000
0000
1030
,
0000
0001
1000
0000
0001
0010
0100
1000
,
0002
0000
0010
0000
1000
1003
0000
0001
,
2000
0000
0001
0000
0100
0100
3100
0000
,
0120
0000
0001
0000
0100
0130
0000
0010
,
0100
0011
0100
1010
,
0100
0010
0100
0010
,
2002
0000
0000
3003
,
0001
0000
0001
0100
0000
0100
0001
0000
,
0001
0100
0000
0100
0010
0000
0110
0000
,
1000
0000
1000
0100
0000
0100
1000
0000
,
1000
0100
0000
0100
0010
0000
0110
0000
,
0001
0000
0001
1000
0000
1000
0100
0000
,
0100
0010
0000
0010
0001
0000
0011
0000
,
0100
0000
0100
0001
0000
0001
0100
0000
,
0100
0010
0000
0010
1000
0000
1010
0000
,
0001
0000
1000
0001
0000
1000
0100
0000
,
0010
0001
0000
0100
0010
0000
1001
0000
,
0010
0000
1000
0010
0000
0100
0001
0000
,
0010
0100
0000
1000
0010
0000
0110
0000
,
1000
0001
0100
0000
0010
1000
0001
0000
,
0010
0100
1000
0000
0001
0100
0010
0010
,
1001
0000
0100
0000
0001
0100
1000
0000
,
0100
0000
0001
0000
1000
0100
0001
0000
,
0100
0000
1000
0000
0001
0010
1000
0000
,
0010
0000
0001
0000
1000
0010
0001
0000
,
0010
0000
1000
0000
0001
0100
0010
0000
,
1000
0000
0100
0000
0010
0100
1000
0000
,
0100
0000
0010
0000
0001
0100
0010
0000
,
1000
0000
0100
0000
0010
0001
0100
0000
,
1010
1100
0110
0011
,
2002
0000
0000
3003
0000
0000
0000
0000
;

//---------------dance-single - C. Picardy----------------
#NOTEDATA:;
#CHARTNAME:;
#STEPSTYPE:dance-single;
#DESCRIPTION:C. Picardy;
#CHARTSTYLE:;
#DIFFICULTY:Easy;
#METER:4;
#RADARVALUES:0.297413,0.350348,0.170902,0.046610,0.000000,268.000000,246.000000,22.000000,6.000000,0.000000,0.000000,0.000000,0.000000,0.000000,0.297413,0.350348,0.170902,0.046610,0.000000,268.000000,246.000000,22.000000,6.000000,0.000000,0.000000,0.000000,0.000000,0.000000;
#CREDIT:C. Picardy;
#NOTES:
0000
0000
0000
0000
,
0000
0000
0000
0000
,
0000
0000
0000
0000
,
0000
0000
0000
0000
,
1000
0000
0001
0000
,
0100
0000
0010
0000
,
1000
0000
0100
0000
,
0010
0000
0001
0000
,
0001
0010
0100
0100
,
0000
1000
0010
1000
,
0001
0100
0010
0010
,
0000
1000
0001
1000
,
0100
0010
0001
0001
,
0000
0100
0001
0010
,
0100
1000
0010
0010
,
2002
0000
0000
3003
,
1000
0001
1000
1000
,
0001
0100
0001
0001
,
1000
0100
1000
1000
,
0100
0010
0001
1001
,
0000
0100
0010
0010
,
1000
0001
0100
0100
,
0100
0010
1000
0100
,
0010
0001
1000
1000
,
0001
0100
0110
0000
,
1000
0100
0110
0000
,
0001
1000
1001
0000
,
0010
0100
0001
0001
,
1000
0100
1100
0000
,
0001
0010
0011
0000
,
1000
0001
1001
0000
,
1000
1100
0001
0101
,
1000
0001
1000
0001
,
1000
0100
1000
0001
,
0100
0001
0010
0001
,
1000
0100
0000
0010
,
0100
0000
1000
0001
,
0100
0100
0010
0010
,
1000
0100
1000
0100
,
0010
0001
0010
0001
,
0100
0000
0010
0010
,
1001
0000
0100
0100
,
0010
0000
1000
0001
,
0100
0000
0010
1000
,
0001
0000
0010
0100
,
0110
0000
0001
1000
,
0100
0000
0010
0001
,
1000
0000
0010
0100
,
0001
0000
1000
0100
,
1001
0000
0010
0100
,
1000
0000
0010
0100
,
0001
0000
1000
0100
,
0010
0000
0001
0010
,
0100
0000
1000
0010
,
0100
0000
0001
0100
,
0010
0000
1000
0010
,
0110
0000
1001
0000
,
1000
0100
0010
0001
,
0220
0000
0000
0330
,
1001
0000
0100
0000
,
0010
0010
1000
0000
,
0001
0000
0010
0000
,
0100
0100
1000
0000
,
0110
0000
0001
0000
,
1000
1000
0010
0000
,
0100
0000
0001
0000
,
0010
0010
0001
0000
,
1100
0000
0010
0000
,
0100
0100
0001
0000
,
0100
0000
0010
0000
,
1000
1000
0100
0000
,
0011
0100
0010
0100
,
0001
1000
0001
1000
,
0001
0100
0001
1000
,
0100
1000
0100
0100
,
1000
0001
0010
0001
,
1000
0010
1000
1010
,
0000
0001
0100
0001
,
0010
0100
1000
1000
,
0100
0010
0001
1000
,
0010
0100
0001
0001
,
2002
0000
0000
0000
,
3003
0000
0000
0000
;
