#TITLE:Can Can World;
#SUBTITLE:;
#ARTIST:Makkeroni;
#TITLETRANSLIT:;
#SUBTITLETRANSLIT:;
#ARTISTTRANSLIT:;
#GENRE:;
#CREDIT:;
#BANNER:cancanworldbn.png;
#BACKGROUND:cancanworldbg.png;
#LYRICSPATH:;
#CDTITLE:;
#MUSIC:cancanworld.ogg;
#OFFSET:-0.900353;
#SAMPLESTART:85.155548;
#SAMPLELENGTH:12.000000;
#SELECTABLE:YES;
#BPMS:0.000000=158.009995
;
#STOPS:
;
#BGCHANGES:3.500=cancansolo1.mp4=1.000=0=0=0=StretchNoLoop==CrossFade_Fastest==,
33.750=cancangroup1.mp4=1.000=0=0=0=StretchNoLoop==CrossFade_Fastest==,
80.000=cancanexpo1.mp4=1.000=0=0=0=StretchNoLoop==CrossFade_Fastest==,
111.000=cancangroup2.mp4=1.000=0=0=0=StretchNoLoop==CrossFade_Fastest==,
142.500=cancanexpo2.mp4=1.000=0=0=0=StretchNoLoop==CrossFade_Fastest==,
189.500=cancangroup3.mp4=1.000=0=0=0=StretchNoLoop==CrossFade_Fastest==,
219.750=cancanexpo3.mp4=1.000=0=0=0=StretchNoLoop==CrossFade_Fastest==,
252.500=cancangroup4.mp4=1.000=0=0=0=StretchNoLoop==CrossFade_Fastest==,
285.000=flash=1.600=0=0=1=====,
285.250=cancanworldbg.png=1.000=0=0=1=====,
99999=-nosongbg-=1.000=0=0=0 // don't automatically add -songbackground-
;
#KEYSOUNDS:;
#ATTACKS:;

//---------------dance-single - C. Picardy----------------
#NOTES:
     dance-single:
     :
     Beginner:
     1:
     0.118117,0.160140,0.036344,0.009086,0.000000,91.000000,87.000000,4.000000,1.000000,0.000000,0.000000,0.118117,0.160140,0.036344,0.009086,0.000000,91.000000,87.000000,4.000000,1.000000,0.000000,0.000000:
0000
0000
0000
0000
,
0000
0000
0000
0000
,
0000
0000
0000
0000
,
0000
0000
0000
0000
,
0000
0000
0000
0000
,
0000
0000
0000
0000
,
0000
0000
0000
0000
,
0000
0000
0000
0000
,
0010
0000
0010
0000
,
0010
0000
0010
0000
,
0100
0000
0100
0000
,
0100
0000
0100
0000
,
0001
0000
0000
0000
,
1000
1000
0000
0000
,
0001
0001
0000
0000
,
0100
0000
0000
0000
,
0010
0000
0000
0000
,
0100
0100
0000
0000
,
0010
0010
0000
0000
,
0100
0000
0000
0000
,
1001
0000
0000
0000
,
0001
0001
0000
0000
,
1000
1000
0000
0000
,
0001
0000
0000
0000
,
1000
0000
0000
0000
,
0010
0010
0000
0000
,
0100
0100
0000
0000
,
0010
0000
0000
0000
,
1001
0000
0000
0000
,
0100
0000
0000
0000
,
0010
0000
0000
0000
,
1000
0000
0000
0000
,
0001
0000
0000
0000
,
0100
0000
0000
0000
,
0010
0000
0000
0000
,
1000
0000
0000
0000
,
0001
0000
0001
0000
,
0001
0000
0000
0000
,
1000
0000
1000
0000
,
1000
0000
0000
0000
,
0010
0000
0010
0000
,
0010
0000
0000
0000
,
0100
0000
0100
0000
,
0100
0000
0010
0000
,
0000
0000
1000
0000
,
0000
0000
0002
0000
,
0000
0000
0003
0000
,
0000
0000
0100
0000
,
0000
0000
0010
0010
,
0000
0000
0100
0100
,
0000
0000
0001
0000
,
0000
0000
1000
0000
,
0000
0000
0010
0010
,
0000
0000
0100
0100
,
0000
0000
1000
0000
,
0000
0000
1001
0000
,
0000
0000
1000
1000
,
0000
0000
0001
0001
,
0000
0000
0100
0000
,
0000
0000
0010
0000
,
0000
0000
0100
0100
,
0000
0000
0010
0010
,
0000
0000
1000
0000
,
0000
0000
1001
0000
,
0000
0000
0100
0000
,
0000
0000
0010
0000
,
0000
0000
1000
0000
,
0000
0000
0001
0000
,
0000
0000
0100
0000
,
0000
0000
0010
0000
,
0000
0000
1000
0000
;

//---------------dance-single - C. Picardy----------------
#NOTES:
     dance-single:
     :
     Challenge:
     9:
     0.638613,0.648510,0.572415,0.599673,0.013629,492.000000,429.000000,63.000000,66.000000,55.000000,28.000000,0.638613,0.648510,0.572415,0.599673,0.013629,492.000000,429.000000,63.000000,66.000000,55.000000,28.000000:
0000
0000
0000
0000
,
0000
0000
0000
0000
,
0000
0000
0000
0000
,
0000
0000
0000
0000
,
0001
0010
0100
1000
0010
0100
0101
0M0M
,
1000
0100
0010
0001
2002
0000
0010
3003
,
0001
0100
1000
0100
0001
1000
1010
M0M0
,
0100
0110
0100
0001
1001
1000
1001
0001
,
2000
0000
0000
0000
0100
3000
M000
0000
0002
0000
0000
0000
0100
0003
000M
0000
,
0020
0000
0000
0000
0001
0030
00M0
0000
0200
0000
0000
0000
1000
0300
0M00
0000
,
0200
0000
0000
0000
0010
0300
0M00
0000
2000
0000
0000
0000
0100
3000
M000
0000
,
0010
0100
1000
0100
0010
0001
1001
0000
,
0220
0000
1000
0330
0001
0100
0010
2000
,
0002
0000
0010
3003
1000
0100
0010
0002
,
2000
0000
0010
3003
0001
0100
1000
0100
,
0001
0010
1000
0010
0001
0100
0010
2000
,
0200
0000
0010
3300
0100
1000
0001
0200
,
0002
0000
1000
0303
0001
0100
0010
2000
,
0200
0000
0001
3300
1000
0100
0001
0100
,
1000
0010
0100
0010
1010
0000
M1MM
0000
,
2002
0000
0010
3003
1000
0001
0100
0010
,
0220
0000
1000
0330
0001
1000
0100
0010
,
0220
0000
0001
0330
1000
0100
0001
0100
,
1000
0010
0001
0010
1000
0100
0010
0001
,
0202
0000
0010
0303
0001
0100
1000
0100
,
0220
0000
1000
0330
0001
1000
0100
1000
,
2002
0000
0010
3003
0001
0100
1000
0100
,
0001
0000
0010
0000
0110
0000
0100
0000
1001
0000
0000
0100
M01M
0000
0110
0000
,
1MM0
0100
0010
0100
1000
1000
1000
0001
,
0100
1000
0100
0001
0010
0010
0110
0000
,
0100
0100
0100
0010
0001
0001
0001
0100
,
1000
0000
0100
0000
0001
0000
1000
0100
0010
0000
0010
0000
0100
0000
1100
0000
,
MM10
0001
0010
0100
0010
0010
0010
0001
,
0100
0100
0100
1000
0100
0100
0101
0000
,
1000
0001
0100
0001
1000
0001
0010
0100
,
1000
1000
0010
0100
0101
0001
1000
1000
,
0002
0000
0200
0000
0010
0000
1000
0303
,
0001
0010
1000
0010
0001
1000
0100
0000
,
2000
0000
0200
0000
0010
0000
0001
3300
,
0010
0010
0100
1000
0001
0001
0100
0001
,
2001
0000
0200
0000
0001
0000
0010
3300
,
0001
1000
0100
1000
0010
0100
1001
0000
,
0202
0000
1000
0000
0010
0000
1010
0303
,
0001
0100
0010
1000
1010
M0M0
0001
0010
,
0011
00MM
1000
0100
1100
MM00
0001
0100
,
0101
0M0M
1000
0001
2001
0000
0200
3000
,
0002
0300
2000
0003
0020
3000
0002
0030
,
0100
0013
0010
1000
2002
0000
3003
0000
,
0001
0100
1000
0100
0101
0M0M
1100
MM00
,
0001
0100
0010
1000
1001
M00M
0110
0MM0
,
1000
0100
0001
0100
1000
0010
0001
0010
,
1000
0100
0001
0100
2200
0000
3300
0000
,
0001
0100
0010
1000
1010
M0M0
0011
00MM
,
0100
0001
0010
0100
0110
0MM0
1001
M00M
,
0001
0100
1000
0100
0001
0010
1000
0010
,
0001
0000
0000
0010
0100
0000
0110
0000
1002
0000
0000
0000
0013
0000
0000
0000
,
0100
0010
0001
0100
0101
1000
1100
MM00
,
0010
0100
1000
0010
1010
0001
0011
00MM
,
0001
0100
1000
0100
0010
1000
0100
0010
,
1000
0010
0001
0100
0210
0000
0301
0000
,
1000
0100
0001
0100
1100
0001
0101
0M0M
,
1000
0010
0001
0010
1010
0001
0011
00MM
,
0001
0010
0100
1000
1001
0100
0110
1000
,
0MM1
0000
0100
0000
2002
0000
0010
3003
,
0001
0010
0100
1000
2200
0000
0010
3300
,
0100
0010
0001
0100
0202
0000
0010
0303
,
0100
0010
1000
0100
0001
0100
0010
1000
,
0010
0001
0100
0010
0220
0000
1000
0330
,
0001
1000
0010
1000
2200
0000
0011
3300
,
1000
0100
0010
0001
0202
0000
1010
0303
,
0100
0010
0001
0010
0100
0001
0010
0100
,
2002
0000
3003
M00M
0000
0000
0000
0000
;

//---------------dance-single - C. Picardy----------------
#NOTES:
     dance-single:
     :
     Hard:
     7:
     0.520495,0.516082,0.399782,0.154461,0.000000,401.000000,357.000000,44.000000,17.000000,0.000000,0.000000,0.520495,0.516082,0.399782,0.154461,0.000000,401.000000,357.000000,44.000000,17.000000,0.000000,0.000000:
0000
0000
0000
0000
,
0000
0000
0000
0000
,
0000
0000
0000
0000
,
0000
0000
0000
0000
,
0001
0000
1000
0000
0100
0010
0100
0000
,
1000
0001
0100
0100
,
0010
0000
0100
0000
0001
1000
0001
0000
,
1000
0100
1001
0100
,
1001
0000
1100
0000
,
0101
0000
0011
0000
,
1010
0000
0011
0000
,
0110
0000
1001
0000
0100
0010
0100
0000
,
2002
0000
3003
0000
0100
0010
0100
0000
,
0010
0000
1001
0000
0010
0100
0010
0000
,
0100
0000
1001
0000
0001
0100
0010
1000
,
0001
0000
0010
0000
0100
0010
0001
0010
,
0200
0000
1300
0000
0010
1000
0100
0000
,
0010
0000
1001
0000
0010
0001
0100
0000
,
0010
0000
1001
0000
0001
0100
0010
1000
,
0010
0100
0001
1000
0100
0000
0010
0000
,
0220
0000
0330
0000
0001
0100
0010
0000
,
1010
0000
1010
0000
0001
1000
0100
0000
,
0110
0000
0110
0000
0001
0010
0001
0010
,
0001
0000
0100
0000
0010
1000
0100
1000
,
0020
0000
1030
0000
0001
0100
0010
0000
,
0101
0000
0101
0000
0010
0100
1000
0000
,
1100
0000
1100
0000
0100
0010
0001
0010
,
0100
1000
0100
1000
0001
0000
1000
0000
,
0001
0100
1000
0000
1000
0100
0001
0000
,
0001
0100
1000
0100
0001
0010
0100
0000
,
1000
0100
0001
0000
0001
0100
1000
0000
,
1000
0100
0001
0100
1000
0010
0001
0010
,
1000
0000
0001
0000
1000
0100
1000
0000
,
0001
0010
0001
0010
0001
0001
0001
0000
,
0010
0100
1000
0000
0010
0100
0001
0000
,
0010
0100
1000
0001
0100
0000
0010
0000
,
1010
0100
0011
1000
,
0001
0100
0001
0100
0010
0100
0010
0000
,
1000
1100
0001
0101
,
1000
0100
1000
0100
1000
1000
0100
0000
,
0010
0110
0100
0110
,
0001
0010
0100
1000
0100
0010
0001
0000
,
0010
1001
0100
1001
,
0001
0100
0010
1000
0100
0000
0100
1000
,
0010
0000
0010
0100
0001
0000
0001
0100
,
0010
0000
0010
1000
2002
0000
0000
0000
,
0000
0000
0000
0000
,
0000
3003
0220
0330
,
0001
0100
0010
1000
0001
0000
0001
0000
,
1000
0100
0010
0100
1000
0000
1000
0000
,
0001
0100
0010
0100
0001
0010
0100
0010
,
0001
0010
0100
1000
0200
0000
0300
0000
,
0100
0010
0001
0010
0100
0000
0100
0000
,
0010
0001
0010
0100
0010
0000
0010
0000
,
0001
0100
0010
0100
0001
0100
0010
1000
,
0100
0010
2002
3003
,
0001
0100
1000
0100
0001
0000
1010
0000
,
1000
0100
0001
0100
1000
0000
0011
0000
,
0001
0010
0001
0010
0100
1000
0100
1000
,
0001
0010
0100
1000
0002
0000
0003
0000
,
1000
0010
0100
0010
1000
0000
0101
0000
,
0001
0010
0100
0010
0001
0000
1100
0000
,
1000
0100
0001
0100
1000
0100
0010
0001
,
0100
0010
0220
0330
,
0001
0100
0010
0000
0100
0000
1001
0000
,
0010
0100
1000
0000
0010
0000
1001
0000
,
1000
0100
0010
0100
1000
0000
0001
0000
,
1000
0100
0010
0100
0200
0000
0300
0000
,
1000
0100
0010
0100
1000
0000
1100
0000
,
0001
0100
0010
0100
0001
0000
0101
0000
,
0001
0100
1000
0100
0001
0000
0100
0000
,
0110
0000
0000
0000
;

//---------------dance-single - C. Picardy----------------
#NOTES:
     dance-single:
     :
     Medium:
     6:
     0.453000,0.483827,0.299836,0.263493,0.000000,349.000000,316.000000,33.000000,29.000000,0.000000,0.000000,0.453000,0.483827,0.299836,0.263493,0.000000,349.000000,316.000000,33.000000,29.000000,0.000000,0.000000:
0000
0000
0000
0000
,
0000
0000
0000
0000
,
0000
0000
0000
0000
,
0000
0000
0000
0000
,
0001
1000
0001
0100
,
0010
0010
0010
0000
0100
0000
1001
0000
,
0100
0010
0100
0010
,
1000
1000
1000
0000
0010
0000
0110
0000
,
0002
0000
2003
0000
,
3002
0000
2003
0000
,
3020
0000
0230
0000
,
0310
0000
0010
0000
0010
0100
0010
0000
,
2002
0000
3003
0000
0100
0010
0100
0000
,
0010
0000
1001
0000
0010
0100
0010
0000
,
0100
0000
1001
0000
0010
0100
0010
0000
,
0001
0010
0001
0000
1000
0100
1000
0000
,
0202
0000
0303
0000
1000
0010
1000
0000
,
0010
0000
0101
0000
1000
0100
1000
0000
,
0010
0000
0011
0000
1000
0100
0010
0000
,
0100
0010
0001
0000
0100
0000
0010
0000
,
2002
0000
3003
0000
1000
0001
0100
0000
,
0010
0000
1010
0000
0001
1000
0100
0000
,
0010
0000
0011
0000
1000
0100
0010
0000
,
0001
0010
0100
0000
0010
0100
1000
0000
,
0220
0000
0330
0000
0001
0100
0010
0000
,
0100
0000
1010
0000
0001
0010
0100
0000
,
0010
0000
1100
0000
0100
0010
0001
0000
,
1000
0100
0001
0000
0110
0000
0001
0000
,
1000
0000
0001
0000
1000
0010
1000
0000
,
0100
0000
0010
0000
0001
0010
0001
0000
,
2000
0010
3002
0010
,
1003
0010
0100
0000
0001
0100
0010
0010
,
1000
0000
0001
0000
1000
1000
1000
0000
,
0100
0000
0010
0000
0001
0001
0001
0000
,
0002
0100
2003
0100
,
3010
1000
0100
0000
2002
0000
3003
0000
,
0001
1000
1100
0101
,
1000
0010
0100
0000
0001
0010
0100
0000
,
1000
0001
1010
0011
,
1000
0100
0010
0000
0010
0100
1000
0000
,
1010
0001
0011
1000
,
0001
0100
1000
0000
1000
0100
0001
0000
,
0110
0100
1001
0001
,
1000
0000
0100
0010
0001
0000
0001
0010
,
0100
0000
0100
1000
0010
0000
0010
1000
,
0001
0000
0001
0100
0020
0000
0000
0000
,
0000
0000
1000
0100
,
1000
1000
1030
0000
0020
0000
0000
0000
,
1030
0100
0010
0000
0001
0000
0001
0000
,
0010
0100
1000
0000
1000
0000
1000
0000
,
0001
0100
0010
0000
1000
0000
0001
0000
,
1000
0100
0010
0001
0200
0000
0000
0000
,
0310
0100
0001
0000
1000
0000
1000
0000
,
0100
0010
0001
0000
0001
0000
0001
0000
,
0010
0000
0100
0000
1000
0100
1000
0100
,
1000
0010
2002
3003
,
0001
0100
0010
0000
0100
0000
0110
0000
,
0010
1000
0100
0000
0010
0000
0110
0000
,
0001
0010
0001
0000
0100
0000
0010
0000
,
1000
0010
0100
0010
2000
0000
0000
0000
,
3001
0100
0010
0000
0100
0000
1001
0000
,
1000
0010
0100
0000
0010
0000
1001
0000
,
0001
0000
0100
0000
0010
1000
0100
0010
,
0001
0000
2002
3003
,
0001
0100
0010
0000
0100
0000
0100
0000
,
0010
1000
0100
0000
0010
0000
0010
0000
,
0001
0010
0001
0000
1000
0000
0100
0000
,
0010
0100
1000
0010
0200
0000
0000
0000
,
0301
0010
0100
0000
0010
0000
1001
0000
,
1000
0100
0010
0000
0100
0000
1001
0000
,
0001
0100
1000
0000
1000
0100
0001
0000
,
1100
0000
0000
0000
;

//---------------dance-single - C. Picardy----------------
#NOTES:
     dance-single:
     :
     Easy:
     4:
     0.310220,0.354806,0.236235,0.227149,0.000000,239.000000,213.000000,26.000000,25.000000,0.000000,0.000000,0.310220,0.354806,0.236235,0.227149,0.000000,239.000000,213.000000,26.000000,25.000000,0.000000,0.000000:
// measure 0
0000
0000
0000
0000
,  // measure 1
0000
0000
1000
1000
,  // measure 2
0000
0000
0000
0000
,  // measure 3
0000
0000
0001
0001
,  // measure 4
0000
0000
0000
0000
,  // measure 5
0000
0000
0100
0100
,  // measure 6
0000
0000
0000
0000
,  // measure 7
0000
0000
0000
1001
,  // measure 8
1000
0000
0001
0000
,  // measure 9
1000
0000
0001
0000
,  // measure 10
0100
0000
0010
0000
,  // measure 11
0100
0010
0100
0000
,  // measure 12
2002
3003
0100
0010
,  // measure 13
1000
1000
0100
0010
,  // measure 14
0001
0001
1000
0001
,  // measure 15
0100
0010
0100
0010
,  // measure 16
2000
3000
0001
0100
,  // measure 17
0010
0010
1000
0001
,  // measure 18
0100
0100
0001
1000
,  // measure 19
0001
1000
0001
0000
,  // measure 20
0220
0330
1000
0001
,  // measure 21
0010
0010
0001
1000
,  // measure 22
0100
0100
1000
0010
,  // measure 23
0100
0001
1000
0010
,  // measure 24
0200
0300
0010
0001
,  // measure 25
1000
1000
0010
1000
,  // measure 26
0001
0001
1000
0100
,  // measure 27
1000
0010
1001
0000
,  // measure 28
0200
0300
0020
0030
,  // measure 29
1000
0001
1000
1000
,  // measure 30
0002
0003
0200
0300
,  // measure 31
0010
1000
0100
0010
,  // measure 32
0002
0003
0020
0030
,  // measure 33
0100
1000
0010
0010
,  // measure 34
1001
0000
0110
0000
,  // measure 35
0010
0100
2002
3003
,  // measure 36
0010
0100
0010
0100
,  // measure 37
1001
0000
0110
0000
,  // measure 38
1000
0001
1000
0001
,  // measure 39
1100
0000
0011
0000
,  // measure 40
1000
0100
0010
0001
,  // measure 41
0101
0000
1010
0000
,  // measure 42
0001
1000
0100
1000
,  // measure 43
0010
0100
1001
0000
,  // measure 44
0110
0000
1010
0000
,  // measure 45
0011
0000
2002
0000
,  // measure 46
0000
0000
0000
0000
,  // measure 47
0000
3003
0220
0330
,  // measure 48
1000
0001
0100
0100
,  // measure 49
0010
1000
0001
0001
,  // measure 50
1000
0100
0010
0001
,  // measure 51
1000
0100
0020
0030
,  // measure 52
0001
0010
0100
0100
,  // measure 53
1000
0010
0100
0100
,  // measure 54
0001
0100
0010
1000
,  // measure 55
0001
0000
2002
3003
,  // measure 56
0100
0010
1000
1001
,  // measure 57
0001
0100
0010
0110
,  // measure 58
1000
0001
0100
0010
,  // measure 59
1000
0001
0200
0300
,  // measure 60
0010
1000
0001
1001
,  // measure 61
1000
0100
0010
0110
,  // measure 62
0001
0010
0100
1000
,  // measure 63
0010
0000
0220
0330
,  // measure 64
0001
1000
0100
0100
,  // measure 65
0010
0001
1000
1000
,  // measure 66
0001
0100
0010
1000
,  // measure 67
0100
0010
0002
0003
,  // measure 68
1000
0010
0100
0100
,  // measure 69
0010
1000
0001
0001
,  // measure 70
0100
0010
1000
0100
,  // measure 71
1001
0000
0000
0000
;
