#TITLE:Burn the Night with You;
#SUBTITLE:;
#ARTIST:Ace;
#TITLETRANSLIT:;
#SUBTITLETRANSLIT:;
#ARTISTTRANSLIT:;
#GENRE:;
#CREDIT:;
#BANNER:burnthenightwithyoubn.png;
#BACKGROUND:burnthenightwithyoubg.png;
#LYRICSPATH:;
#CDTITLE:;
#MUSIC:burnthenightwithyou.ogg;
#OFFSET:-0.033691;
#SAMPLESTART:61.138519;
#SAMPLELENGTH:12.000000;
#SELECTABLE:YES;
#BPMS:0.000000=157.000000
;
#STOPS:
;
#BGCHANGES:16.000=goldenwaves.mp4=1.000=1=0=1=SongBgWithMovieViz==CrossFade==,
32.000=goldenwaves.mp4=1.000=1=0=1===CrossFade==,
60.000=flash=2.000=0=0=1====#FF0000=,
60.250=goldenwaves.mp4=1.000=0=0=1=====,
60.750=flash=2.000=0=0=1====#FF0000=,
61.000=goldenwaves.mp4=1.000=0=0=1=====,
61.500=flash=2.000=0=0=1====#FF0000=,
61.750=burnthenightwithyoubg.png=1.000=0=0=1=====,
64.000=largeflames.mp4=1.000=0=1=1=StretchRewind==SlideUp==,
96.000=goldenwaves.mp4=1.000=0=1=1=StretchRewind==SlideUp==,
128.000=largeflames.mp4=1.000=0=0=1===CrossFade_Fastest==,
156.000=flash=2.000=0=0=1====#FF0000=,
156.250=largeflames.mp4=1.000=0=0=1=====,
157.500=flash=2.000=0=0=1====#FF0000=,
157.750=burnthenightwithyoubg.png=1.000=0=0=1=====,
160.000=flash=2.000=0=0=1=====,
160.250=80sscifitunnel.mp4=1.600=0=1=1=StretchRewind====,
192.000=white reverse flash=2.000=0=0=1=====,
192.250=80sscifitunnel.mp4=1.600=0=1=1=StretchRewind====,
220.000=flash=2.000=0=0=1====#FF0000=,
220.250=80sscifitunnel.mp4=1.000=0=0=1=====,
220.750=flash=2.000=0=0=1====#00FF00=,
221.000=80sscifitunnel.mp4=1.000=0=0=1=====,
221.500=flash=2.000=0=0=1====#0000FF=,
221.750=burnthenightwithyoubg.png=1.000=0=0=1=====,
224.000=goldenwaves.mp4=1.000=0=0=1===SlideUp==,
240.000=largeflames.mp4=1.000=0=0=1===SlideUp==,
255.500=burnthenightwithyoubg.png=1.000=0=0=1===CrossFade_Fastest==,
99999=-nosongbg-=1.000=0=0=0 // don't automatically add -songbackground-
;
#KEYSOUNDS:;
#ATTACKS:;

//---------------dance-single - C. Picardy----------------
#NOTES:
     dance-single:
     :
     Beginner:
     1:
     0.115318,0.162850,0.071526,0.000000,0.000000,79.000000,72.000000,7.000000,0.000000,0.000000,0.000000,0.115318,0.162850,0.071526,0.000000,0.000000,79.000000,72.000000,7.000000,0.000000,0.000000,0.000000:
0000
0000
0000
0000
,
0000
0000
0000
0000
,
0000
0000
0000
0000
,
0000
0000
0000
0000
,
0100
0000
0000
0000
,
0000
0000
0000
0000
,
0010
0000
0000
0000
,
1001
0000
0000
0000
,
1000
0000
0000
0000
,
0001
0000
0000
0000
,
1000
0000
0000
0000
,
0001
0000
0000
0000
,
0100
0000
0000
0000
,
0010
0000
0000
0000
,
0100
0000
0000
0000
,
1001
0000
0000
0000
,
1000
0000
1000
0000
,
1000
0000
0000
0000
,
0001
0000
0001
0000
,
0001
0000
0000
0000
,
0100
0000
0100
0000
,
0100
0000
0000
0000
,
0010
0000
0010
0000
,
0010
0000
0000
0000
,
1000
0000
0000
0000
,
0001
0000
0000
0000
,
1000
0000
0000
0000
,
0001
0000
0000
0000
,
0100
0000
0000
0000
,
0010
0000
0000
0000
,
0100
0000
0000
0000
,
0010
0000
0000
0000
,
0001
0000
0000
0000
,
0100
0000
0000
0000
,
0010
0000
0000
0000
,
1000
0000
0000
0000
,
0100
0000
0000
0000
,
0010
0000
0000
0000
,
0001
0000
0000
0000
,
0100
0000
0000
0000
,
1001
0000
0000
0000
,
0010
0000
0000
0000
,
1001
0000
0000
0000
,
0100
0000
0000
0000
,
0110
0000
0000
0000
,
1000
0000
0000
0000
,
0110
0000
0000
0000
,
0001
0000
0000
0000
,
1000
0000
1000
0000
,
1000
0000
0000
0000
,
0001
0000
0001
0000
,
0001
0000
0000
0000
,
0100
0000
0100
0000
,
0100
0000
0000
0000
,
0010
0000
0010
0000
,
0010
0000
0000
0000
,
1000
0000
0001
0000
,
1000
0000
0000
0000
,
0001
0000
1000
0000
,
0001
0000
0000
0000
,
0100
0000
0010
0000
,
0100
0000
0000
0000
,
0010
0000
0100
0000
,
0010
0000
0000
1001
;

//---------------dance-single - C. Picardy----------------
#NOTES:
     dance-single:
     :
     Easy:
     4:
     0.351793,0.455981,0.378068,0.286106,0.000000,241.000000,204.000000,37.000000,28.000000,0.000000,0.000000,0.351793,0.455981,0.378068,0.286106,0.000000,241.000000,204.000000,37.000000,28.000000,0.000000,0.000000:
0000
0000
0000
0000
,
0000
0000
0000
0000
,
0000
0000
0000
0000
,
0000
0000
0000
0000
,
0001
0000
0001
0000
,
1000
0000
1000
0000
,
0001
0000
1000
0000
,
1001
0000
0000
1001
0000
0000
0000
0000
,
0200
0000
0301
1000
,
0200
0000
1300
0001
,
0020
0000
0230
0000
,
2300
0000
3002
0000
,
0103
0100
0010
0000
,
1000
0100
1000
0000
,
0002
0000
0203
0000
,
0310
0000
0000
0110
0000
0000
0000
0000
,
0100
0010
0100
0010
,
1000
0001
1000
0001
,
1000
1100
0100
0110
,
0010
0001
0100
1001
,
0001
0100
0010
1000
,
0001
0010
0100
1000
,
0001
0101
1000
1100
,
1001
1001
2002
3003
,
1000
0100
1000
0010
,
0100
0001
0010
0001
,
0100
0010
0100
0010
,
2002
3003
0220
0330
,
0001
0010
0001
0100
,
0010
1000
0100
1000
,
0010
0100
0202
0303
,
2200
3300
0010
0010
,
1001
1000
0001
0001
,
1000
0001
1000
0100
,
0000
0100
0010
0100
,
1000
0001
0100
0100
,
0110
0010
1000
0001
,
1000
0100
1000
0010
,
0100
0000
0010
0010
,
1001
0000
0000
0110
0000
0000
0000
0000
,
1001
0100
0010
0100
,
0001
1000
0100
0010
,
0011
1000
1100
0010
,
0100
0100
0001
0001
,
1000
0100
0010
0100
,
1000
0010
0100
0001
,
0010
0010
0100
0100
,
1000
0001
0202
0303
,
1010
0100
0001
1000
,
0100
0010
0001
1000
,
1010
0100
0110
0001
,
1000
1000
0010
0010
,
0100
0001
0010
0100
,
1000
0100
0010
0001
,
1001
0110
1001
0100
,
0110
0000
0000
1001
0000
0000
0000
0000
,
0001
1000
0100
0100
,
0010
0001
1000
1000
,
0220
0330
2020
3030
,
0001
0010
0100
1000
,
0010
0100
0001
0001
,
1000
0100
0010
0010
,
0022
0033
2200
3300
,
0001
0100
0110
1001
;

//---------------dance-single - C. Picardy----------------
#NOTES:
     dance-single:
     :
     Medium:
     6:
     0.427699,0.456875,0.286106,0.122617,0.056199,293.000000,265.000000,28.000000,12.000000,0.000000,0.000000,0.427699,0.456875,0.286106,0.122617,0.056199,293.000000,265.000000,28.000000,12.000000,0.000000,0.000000:
0000
0000
0000
0000
,
0000
0000
0000
0000
,
0000
0000
0000
0000
,
0000
0000
0000
0000
,
1000
0000
0000
1000
0000
0000
1000
0000
0000
0000
0000
0000
0000
0000
0000
0000
,
0001
0000
0000
0001
0000
0000
0001
0000
0000
0000
0000
0000
0000
0000
0000
0000
,
0100
0100
0100
0000
,
0010
0000
0000
0010
0000
0000
0110
0000
0000
0000
0000
0000
0000
0000
0000
0000
,
1001
0100
1000
0100
,
1000
0010
0100
0010
,
2000
3001
0020
0031
,
2000
3200
0320
0032
,
1003
0000
0010
0000
1000
0000
0010
0100
,
0010
1000
0100
0010
,
0100
0100
0010
0010
,
0001
0000
0000
0001
0000
0000
1001
0000
0000
0000
0000
0000
0000
0000
0000
0000
,
1000
0000
0100
0000
1000
0000
0010
0100
,
0010
0000
1000
0000
0100
0000
0010
0100
,
0020
0130
2000
3010
,
0100
0000
0101
0000
1001
0000
1000
0100
,
0010
0001
0010
0000
0100
0000
1000
0000
,
0001
0100
0001
0000
0010
0000
0100
0000
,
1000
0000
0000
1000
0000
0000
0000
0000
0001
0000
0000
0001
0000
0000
0000
0000
,
0100
0000
0010
0000
0010
0100
0010
0100
,
0010
0000
1000
0000
0001
0000
0100
0010
,
0000
0000
1000
0000
0100
0000
0010
0100
,
0000
1000
0001
0101
,
0100
0000
0010
0000
1000
0000
0100
0010
,
0100
0000
1000
0000
0001
0000
0010
0001
,
0000
1000
1000
0000
0100
0000
1000
0100
,
0000
0000
1000
0000
0001
0000
1000
0001
,
0000
0100
0100
0000
0110
0000
1001
0000
,
0200
0010
0001
0310
,
2000
0100
0010
3100
,
0020
0001
0100
0031
,
0002
0000
0010
0000
0100
0000
1000
1003
,
0100
0010
1100
0010
,
1000
0001
0000
0100
0000
0100
0000
0110
,
0000
1000
1001
0100
,
0101
0000
1000
1100
0000
0000
0000
0000
,
1001
0000
0010
0000
0100
0000
0010
0001
,
0010
0000
0100
0000
1000
0000
0010
1000
,
0100
0000
0010
0001
0100
0000
0010
0000
,
1010
0001
0011
1100
,
0001
0000
0100
0000
0010
0000
0100
0010
,
0100
0000
0010
0000
1000
0000
0100
0010
,
0100
0110
0010
0011
,
1001
0000
0100
0010
0000
0010
0100
0000
,
1001
0000
0100
0000
0010
0000
1000
0100
,
0010
0000
0001
0000
0100
0000
0001
0100
,
1000
0000
1000
0100
0001
0000
0001
0010
,
0100
1000
0101
1100
,
0010
0000
0100
0000
0001
0000
0010
0100
,
1000
0000
0010
0000
0100
0000
0001
0010
,
0001
0011
1000
1100
,
0010
0000
0000
0010
0000
0000
0110
0000
0000
0000
0000
0000
0000
0000
0000
0000
,
1001
0000
0100
0000
0010
0000
1000
0010
,
1000
0000
0100
0000
0010
0000
0001
0010
,
0001
0000
0000
0001
0000
0000
0000
0000
1000
0000
0000
1000
0000
0000
0000
0000
,
0010
0000
0100
0000
0001
0010
0100
1000
,
0010
0000
0100
0000
0001
0000
1000
0100
,
0001
0000
0100
0000
1000
0000
0001
0100
,
0010
0000
0000
0010
0000
0000
0000
0000
0100
0000
0000
0100
0000
0000
0000
0000
,
0001
0000
1001
0000
1000
0100
0010
0001
;

//---------------dance-single - C. Picardy----------------
#NOTES:
     dance-single:
     :
     Hard:
     9:
     0.642278,0.620651,0.275887,0.051090,0.250342,440.000000,413.000000,27.000000,5.000000,22.000000,0.000000,0.642278,0.620651,0.275887,0.051090,0.250342,440.000000,413.000000,27.000000,5.000000,22.000000,0.000000:
0000
0000
0000
0000
,
0000
0000
0000
0000
,
0000
0000
0000
0000
,
0000
0000
0000
0000
,
0001
0000
0000
0010
0000
0000
0001
0000
0000
0000
0100
0000
0010
0000
0000
0000
,
1000
0000
0000
1000
0000
0000
1000
0000
0000
0000
0000
0000
0MM0
0000
0000
0000
,
0001
0000
0001
0000
0001
0001
1000
0100
,
1000
0000
0000
1100
0000
0000
1001
0000
0000
0000
0000
0000
MMMM
0000
0000
0000
,
0110
0000
2000
0000
3001
0010
0100
0010
,
0002
0000
1003
0100
0010
0100
1000
0010
,
0100
0000
0000
0001
0000
0000
1000
0000
0100
0000
0000
1000
0000
0000
0001
0000
,
0100
0100
0010
0010
1000
0100
0010
0000
,
1100
0000
0001
0100
0010
0100
0001
0010
,
0200
0000
0310
0001
0010
0100
1000
0000
,
0100
0000
0000
0010
0000
0000
0100
0000
0010
0000
0000
0001
0000
0000
1000
0000
,
0001
0000
0000
1001
0000
0000
0110
0000
0000
0000
0000
0000
MMMM
0000
0000
0000
,
1000
0000
0100
0000
0010
0000
0100
1000
0000
1000
0100
0000
0010
0000
0001
0000
,
0010
0000
0100
0000
1000
0000
0001
0100
0000
0100
0001
0000
1000
0000
0100
0000
,
0010
0000
0001
1000
0000
0000
0010
0000
0100
0000
0001
1000
0000
0000
0001
0000
,
0100
0000
0100
0000
0010
0000
0010
0000
1000
0010
1000
0010
1000
0000
0000
0000
,
0001
0000
0100
0000
0010
0000
0100
0001
0000
0001
0010
0000
0100
0000
0010
0000
,
0001
0000
0010
0000
0100
0000
1000
0001
0000
0001
0100
0000
0010
0000
1000
0000
,
0100
0000
0010
0001
0000
0000
1000
0000
0100
0000
0010
0001
0000
0000
1000
0000
,
0100
0000
0100
0000
1000
0000
1000
0000
0001
0100
0001
0100
0001
0000
0000
0000
,
0110
0000
0001
0010
0100
1000
0100
0010
,
0000
0100
0010
0001
0010
0100
1000
0010
,
0000
0100
0100
0010
0100
0000
1001
0000
,
0010
0000
0010
0000
1000
0000
0001
0000
0000
0000
1000
0000
0001
0000
1000
0100
,
1000
0000
0001
0100
1000
0100
0001
1000
,
0000
0001
0010
1000
0010
0001
1000
0100
,
0000
0001
0100
1000
0001
0001
0100
0010
,
0000
0000
0100
0000
0010
0000
0000
0000
1000
0000
1000
0000
0001
0000
1000
0001
,
0100
0110
1000
0101
,
0001
0100
0010
1000
0000
1000
0000
0100
,
0010
0000
0200
0000
1300
0100
0010
0001
,
0010
0010
0000
0100
0000
0100
1000
0001
,
0100
0000
0001
0100
0001
0100
0010
1000
,
0010
1000
0000
0001
0000
0101
0000
0110
,
0000
1000
0002
0000
1000
0000
1003
0000
,
0001
0100
0010
1001
0000
0000
MMMM
0000
,
1000
0000
0000
0100
0010
0000
0100
0000
1000
0000
0100
0000
0010
0000
0001
0000
,
1000
0000
0000
0010
0100
0000
0010
0000
1000
0000
0100
0000
0010
0000
0011
0000
,
0000
0100
0001
0101
0000
1000
0100
1100
,
0000
0101
0000
1001
0000
0110
0000
0001
,
1000
0000
0000
0100
0010
0000
0001
0000
0010
0000
0100
0000
1000
0000
0100
0000
,
0010
0000
0000
0100
1000
0000
0001
0000
0100
0000
0010
0000
0100
0000
0000
0000
,
0101
0000
1100
0000
0001
0100
0010
1000
,
1MM1
0000
0000
0001
0000
0000
1MM1
0000
0000
0000
0100
0010
0000
0010
0100
0000
,
0001
0100
0010
0100
0001
0100
0010
1000
,
0100
1000
0010
1000
0100
1000
0010
0100
,
0001
0100
1000
0100
0001
0100
1000
0100
,
0001
0010
1000
0010
0001
0010
1000
0010
,
0001
0010
0001
0010
0100
1000
0100
1000
,
0001
0100
0001
0100
0010
1000
0010
1000
,
0100
0000
1001
0000
0001
1000
0100
0010
,
0110
0000
0000
0110
0000
0000
1001
0000
0000
0000
0000
0000
MMMM
0000
0000
0000
,
0010
0000
0100
0000
0001
0000
0100
0010
0000
0010
1000
0000
0100
0000
0010
0000
,
0100
0000
1000
0000
0010
0000
0100
0001
0000
0001
0100
0000
0010
0000
1000
0000
,
0100
0000
1000
0001
0000
0000
0100
0000
0010
0000
1000
0001
0000
0000
0100
0000
,
0010
0000
0010
0000
1000
0000
1000
0000
0001
1000
0001
1000
0001
0000
0000
0000
,
0100
0000
0010
0000
1000
0000
0100
0010
0000
0010
0100
0000
1000
0000
0001
0000
,
0100
0000
0010
0000
1000
0000
0001
0010
0000
0010
0100
0000
1000
0000
0100
0000
,
0010
0000
0001
1000
0000
0000
0010
0000
0100
0000
0001
1000
0000
0000
1000
0000
,
0001
0000
1000
0000
0001
0000
1000
0000
0100
0000
0010
0000
0001
0000
0010
0100
;

//---------------dance-single - C. Picardy----------------
#NOTES:
     dance-single:
     :
     Challenge:
     10:
     0.954658,0.979975,0.449594,0.122617,1.037132,654.000000,610.000000,44.000000,12.000000,42.000000,0.000000,0.954658,0.979975,0.449594,0.122617,1.037132,654.000000,610.000000,44.000000,12.000000,42.000000,0.000000:
// measure 0
0000
0000
0000
0000
,  // measure 1
0000
0000
0000
0000
,  // measure 2
0000
0000
0000
0000
,  // measure 3
0000
0000
0000
0000
,  // measure 4
0002
0000
0000
0010
0000
0000
0100
0000
0000
0000
1003
0000
0010
0000
0100
0000
,  // measure 5
0020
0000
0000
1000
0000
0000
0100
0000
0030
0000
0000
0000
MMMM
0000
0000
0000
,  // measure 6
0011
0000
1100
0000
0001
0010
0100
1000
,  // measure 7
1010
0000
0000
0101
0000
0000
2200
0000
0000
0000
0000
0000
3300
0000
MMMM
0000
,  // measure 8
2001
0000
0000
0000
3100
0000
0100
0010
0000
0010
0001
0000
0100
0000
0010
0000
,  // measure 9
0200
0000
0000
0000
0301
0000
0001
0010
0000
0010
0100
0000
1000
0000
0100
0000
,  // measure 10
0020
0000
0000
0001
0000
0000
0130
0000
2000
0000
0000
0001
0000
0000
3010
0000
,  // measure 11
0100
0000
0001
0000
0100
0000
0001
0000
1000
0000
0010
0000
1000
0010
0100
0010
,  // measure 12
1000
0000
0010
0100
0000
0100
0001
0000
1000
0000
0100
0010
0000
0010
0100
0000
,  // measure 13
1000
0000
1000
0001
0000
0001
0100
0000
0010
0000
0010
1000
0000
1000
0001
0000
,  // measure 14
1000
0000
0100
1000
0000
0000
0001
0000
0100
0000
0001
0100
0000
0000
0010
0000
,  // measure 15
1001
0000
0000
0110
0000
0000
0022
0000
0000
0000
0000
0000
0033
0000
MMMM
0000
,  // measure 16
1000
0100
1000
0100
1000
0000
0001
0100
0000
0100
0010
0000
1000
0100
0010
0001
,  // measure 17
0100
0001
0100
0001
0100
0000
0010
1000
0000
1000
0001
0000
0010
0100
1000
0001
,  // measure 18
1000
0100
0010
0001
0000
0000
11MM
0000
0001
0100
0010
1000
0000
0000
M1M1
0000
,  // measure 19
1000
0100
0010
0000
0001
0010
0100
0000
1000
0010
0100
0010
1000
0001
0010
0100
,  // measure 20
1000
0010
1000
0010
1000
0000
0001
0100
0000
0100
0010
0000
1000
0010
0100
0001
,  // measure 21
0010
0100
0010
0100
0010
0000
0100
1000
0000
1000
0001
0000
0100
0010
1000
0100
,  // measure 22
0010
0100
1000
0001
0000
0000
M1M1
0000
1000
0100
0010
0001
0000
0000
11MM
0000
,  // measure 23
0001
0000
0101
0000
0100
0000
0110
0000
1000
0000
1001
0000
0100
0010
0001
0010
,  // measure 24
0100
0000
1000
0000
0010
0000
1000
0100
1000
0000
0001
0000
0100
0000
0010
0100
,  // measure 25
0010
0000
1000
0000
0100
0000
0001
0100
0001
0000
0100
0000
1000
0000
0010
0001
,  // measure 26
0010
0000
1000
0000
0001
0000
0100
1000
0100
0000
0010
0000
1000
0000
0100
0010
,  // measure 27
0100
0000
0010
0000
0001
0000
1000
0010
1000
0000
0001
0000
0001
0010
MM01
0010
,  // measure 28
0001
0000
1000
0000
0100
0000
0001
0100
1000
0000
0001
0000
0100
0000
1000
0100
,  // measure 29
0001
0000
1000
0000
0100
0000
0010
0100
1000
0000
0001
0000
0100
0000
0010
1000
,  // measure 30
0001
0000
0010
0000
0100
0000
0010
0100
1000
0000
0010
0000
0001
0000
0010
1000
,  // measure 31
0001
0000
0001
1000
0100
0000
0100
0000
1000
0100
1000
0100
0010
0001
0010
0001
,  // measure 32
1000
0000
0010
0100
0001
0000
0010
0100
1000
0000
0010
1000
0001
0000
0010
0001
,  // measure 33
1000
0000
0100
0000
0001
0000
0100
0000
1000
0000
0010
0000
0001
0000
0010
1000
,  // measure 34
0100
0000
0010
0001
1000
0000
0010
0100
0001
0000
1000
0100
0010
0000
0001
0010
,  // measure 35
0100
0000
0010
0000
0001
0000
0100
0000
1000
0000
0100
0000
0010
1000
0010
1000
,  // measure 36
0010
0000
1000
0100
1000
0000
0001
0100
0001
0000
1000
0100
1000
0000
0001
0100
,  // measure 37
0001
0000
0010
0000
0100
0000
0010
0000
1000
0000
0010
0000
0001
0000
1000
0100
,  // measure 38
1000
0000
0001
0000
0010
0000
0100
1000
0100
0000
1000
0000
1001
0000
0000
0000
,  // measure 39
0011
0100
0110
1001
0000
MMMM
MMMM
0000
,  // measure 40
1010
0000
1000
0100
0000
0100
0010
0000
0001
0010
0001
0000
0001
0000
0100
0000
,  // measure 41
0110
0000
0010
1000
0000
1000
0010
0000
0100
0000
0001
0100
0010
0000
1010
0000
,  // measure 42
1000
0000
0100
0010
0001
0000
0110
0000
0100
0000
1000
0001
0100
0000
0101
0000
,  // measure 43
1000
0100
1000
0100
0010
0001
0010
0001
1000
0010
0100
0001
1000
0010
0100
0001
,  // measure 44
1000
0000
1000
0010
0000
0010
0100
0000
0010
1000
0010
0000
1100
0000
0100
0000
,  // measure 45
0010
0000
0010
0100
0000
0100
1000
0000
0001
0100
0010
0000
1000
0001
0100
0000
,  // measure 46
1001
0000
0001
1000
0100
0000
0010
0100
1000
0000
0001
0010
0100
0000
0010
0000
,  // measure 47
0011
0000
0010
0100
0000
0100
1000
0000
1001
0000
0001
0000
0100
0010
0100
0000
,  // measure 48
1001
0000
0001
0100
0000
0100
0010
0000
1000
0100
0010
0100
1000
0100
0010
0000
,  // measure 49
0011
0000
0010
0100
0000
0100
1000
0000
0001
0100
0010
0100
0001
0100
0010
0000
,  // measure 50
1010
0000
0100
0001
0010
0000
0011
0000
1000
0000
0001
0100
0010
0000
1001
0000
,  // measure 51
0001
0010
0001
0010
0100
1000
0100
1000
0001
0100
0010
1000
0001
0100
0010
1000
,  // measure 52
0100
0000
0100
0010
0000
0010
0100
0000
1000
0001
1000
0000
0001
0000
0100
0000
,  // measure 53
0010
0000
0010
0100
0000
0100
0010
0000
1000
0001
1000
0000
0001
1000
0001
0000
,  // measure 54
1100
0000
0001
0100
0010
0000
1000
0100
0010
0000
0001
0010
0100
0000
1000
0000
,  // measure 55
1001
0000
0000
0101
0000
0000
0220
0000
0000
0000
0000
0000
0330
0000
MMMM
0000
,  // measure 56
0001
0010
0001
0010
0001
0000
1000
0100
0000
0100
1000
0000
0001
0100
0010
1000
,  // measure 57
0100
1000
0100
1000
0100
0000
0010
0001
0000
0001
0010
0000
0100
1000
0100
1000
,  // measure 58
0001
0100
0010
1000
0000
0000
1MM1
0000
1000
0100
0010
0001
0000
0000
11MM
0000
,  // measure 59
0001
0100
0001
0100
0010
0100
0010
0100
0010
1000
0010
1000
0100
0010
0001
1000
,  // measure 60
0010
0100
0001
0100
0010
0000
1000
0100
0000
0100
0010
0000
0001
0010
0100
1000
,  // measure 61
0001
0010
0100
0010
0001
0000
0100
0010
0000
0010
1000
0000
0100
1000
0010
0100
,  // measure 62
0001
0010
0100
1000
0000
0000
MM11
0000
1000
0010
0100
0001
0000
0000
1M1M
0000
,  // measure 63
0001
0000
0101
0000
1000
0000
1100
0000
0001
1000
0100
0010
0100
1000
0001
0100
;
