#VERSION:0.83;
#TITLE:Brave Parade;
#SUBTITLE:;
#ARTIST:GH/Treasure Sound Team;
#TITLETRANSLIT:;
#SUBTITLETRANSLIT:;
#ARTISTTRANSLIT:;
#GENRE:;
#ORIGIN:;
#CREDIT:;
#BANNER:braveparadebn.png;
#BACKGROUND:braveparadebg.png;
#PREVIEWVID:;
#JACKET:;
#CDIMAGE:;
#DISCIMAGE:;
#LYRICSPATH:;
#CDTITLE:;
#MUSIC:braveparade.ogg;
#OFFSET:-0.001635;
#SAMPLESTART:33.817768;
#SAMPLELENGTH:13.500010;
#SELECTABLE:YES;
#BPMS:0.000=141.020;
#STOPS:;
#DELAYS:;
#WARPS:;
#TIMESIGNATURES:0.000=4=4;
#TICKCOUNTS:0.000=4;
#COMBOS:0.000=1;
#SPEEDS:0.000=1.000=0.000=0;
#SCROLLS:0.000=1.000;
#FAKES:;
#LABELS:0.000=Song Start;
#BGCHANGES:16.000=sunsetbackground.mp4=4.000=1=0=1=SongBgWithMovieViz==CrossFade==,
18.000=sunsetbackground.mp4=1.000=0=0=1=SongBgWithMovieViz====,
30.000=braveparadebg.png=1.000=0=0=1===CrossFade_Fastest==,
32.000=yellow flash=1.000=0=0=1=====,
32.250=sunsetbackground.mp4=1.000=0=0=1=====,
64.000=greenarena.mp4=1.000=0=1=1=StretchRewind==SlideLeft==,
96.000=flash=1.000=0=0=1====#FF0000=,
96.250=magicalforest.mp4=1.000=0=1=1=StretchRewind====,
128.000=greenarena.mp4=1.000=0=0=1===SlideUp==,
160.000=sunsetbackground.mp4=1.000=1=0=1===CrossFade==,
192.000=flash=1.000=0=0=1====#FF0000=,
192.250=magicalforest.mp4=1.000=0=1=1=StretchRewind====,
220.000=braveparadebg.png=1.000=0=0=1====#FF0000=,
220.500=braveparadebg.png=1.000=0=0=1====#00FF00=,
221.000=braveparadebg.png=1.000=0=0=1====#0000FF=,
221.500=braveparadebg.png=1.000=0=0=1=====,
223.000=braveparadebg.png=1.000=0=0=1====#FF0000=,
223.500=braveparadebg.png=1.000=0=0=1====#00FF00=,
224.000=braveparadebg.png=1.000=0=0=1====#0000FF=,
224.500=braveparadebg.png=1.000=0=0=1====#FFFF00=,
225.000=braveparadebg.png=1.000=0=0=1====#00FFFF=,
225.500=braveparadebg.png=1.000=0=0=1====#FF00FF=,
226.000=braveparadebg.png=1.000=0=0=1====#FF0000=,
226.500=braveparadebg.png=1.000=0=0=1====#00FF00=,
227.000=braveparadebg.png=1.000=0=0=1====#FF0000=,
227.250=braveparadebg.png=1.000=0=0=1====#00FF00=,
227.500=braveparadebg.png=1.000=0=0=1====#0000FF=,
227.750=braveparadebg.png=1.000=0=0=1====#FFFF00=,
228.000=braveparadebg.png=1.000=0=0=1====#FF00FF=,
228.500=flash=1.000=0=0=1=====,
228.750=braveparadebg.png=1.000=0=0=1=====,
230.000=flash=1.000=0=0=1=====,
230.250=braveparadebg.png=1.000=0=0=1=====,
231.000=magicalforest.mp4=1.000=0=1=1=StretchRewind==SlideUp==,
282.500=flash=1.000=0=0=1=====,
282.750=braveparadebg.png=1.000=0=0=1=====,
99999=-nosongbg-=1.000=0=0=0 // don't automatically add -songbackground-
;
#KEYSOUNDS:;
#ATTACKS:
;

//---------------dance-single - C. Picardy----------------
#NOTEDATA:;
#CHARTNAME:;
#STEPSTYPE:dance-single;
#DESCRIPTION:C. Picardy;
#CHARTSTYLE:;
#DIFFICULTY:Beginner;
#METER:1;
#RADARVALUES:0.094987,0.173923,0.090296,0.032835,0.000000,81.000000,70.000000,11.000000,4.000000,0.000000,0.000000,0.000000,0.000000,0.000000,0.094987,0.173923,0.090296,0.032835,0.000000,81.000000,70.000000,11.000000,4.000000,0.000000,0.000000,0.000000,0.000000,0.000000;
#CREDIT:C. Picardy;
#NOTES:
0000
0000
0000
0000
,
0000
0000
0000
0000
,
0000
0000
0000
0000
,
0000
0000
0000
0000
,
2000
0000
0000
0000
,
3000
0000
0000
0000
,
0002
0000
0000
0000
,
0003
0000
0000
0000
,
1000
0000
0000
0000
,
1000
0000
0000
0000
,
0001
0000
0000
0000
,
0001
0000
0000
0000
,
1000
0000
0000
0000
,
0001
0000
0000
0000
,
1000
0000
0000
0000
,
0001
0000
0000
0000
,
0100
0000
0000
0000
,
0100
0000
0000
0000
,
0010
0000
0000
0000
,
0010
0000
0000
0000
,
0100
0000
0000
0000
,
0010
0000
0000
0000
,
0100
0000
0000
0000
,
0010
0000
0000
0000
,
1001
0000
0000
0000
,
1000
0000
0000
0000
,
0001
0000
0000
0000
,
1000
0000
1000
0000
,
1000
0000
0000
0000
,
0001
0000
0000
0000
,
0001
0000
0000
0000
,
0001
0000
0001
0000
,
0001
0000
0000
0000
,
1000
0000
0000
0000
,
0001
0000
0000
0000
,
1000
0000
0000
0000
,
0100
0000
0000
0000
,
0010
0000
0000
0000
,
0100
0000
0000
0000
,
0010
0000
0000
0000
,
1001
0000
0000
0000
,
1001
0000
0000
0000
,
1001
0000
0000
0000
,
1001
0000
0000
0000
,
0110
0000
0000
0000
,
0110
0000
0000
0000
,
0220
0000
0000
0000
,
0330
0000
0000
0000
,
0001
0000
0001
0000
,
0001
0000
0000
0000
,
1000
0000
0000
0000
,
0001
0000
0000
0000
,
1000
0000
1000
0000
,
1000
0000
0000
0000
,
0100
0000
0000
0000
,
0010
0000
0000
0010
,
0000
0000
0000
0100
,
0100
0000
0000
1000
,
0000
0000
0000
0001
,
0000
0000
0000
1000
,
0000
0000
0000
0001
,
0000
0000
0000
0100
,
0000
0000
0000
0010
,
0000
0000
0000
0100
,
0000
0000
0000
0010
,
0000
0000
0000
1000
,
0000
0000
0000
0001
,
0000
0000
0000
0110
,
0000
0000
0000
1001
,
0000
0000
0000
0110
,
0000
0000
0000
0000
0000
0010
0000
0000
;

//---------------dance-single - C. Picardy----------------
#NOTEDATA:;
#CHARTNAME:;
#STEPSTYPE:dance-single;
#DESCRIPTION:C. Picardy;
#CHARTSTYLE:;
#DIFFICULTY:Challenge;
#METER:10;
#RADARVALUES:0.650838,0.637718,0.467900,0.607449,0.381708,555.000000,498.000000,57.000000,74.000000,59.000000,2.000000,0.000000,0.000000,0.000000,0.650838,0.637718,0.467900,0.607449,0.381708,555.000000,498.000000,57.000000,74.000000,59.000000,2.000000,0.000000,0.000000,0.000000;
#CREDIT:C. Picardy;
#NOTES:
0000
0000
0000
0000
,
0000
0000
0000
0000
,
1000
0100
1000
0100
0001
0100
0001
0200
,
0000
0000
1300
0000
1000
0000
0020
0000
0000
0000
0130
0000
0001
0100
0001
0100
,
0001
1000
0000
1000
0001
0000
0200
0002
,
0000
0000
1000
0000
0000
0000
0010
0303
,
0001
0100
0001
0100
1000
0100
1000
0100
,
0001
0000
0010
0000
0100
0000
0000
0000
0011
0000
2100
0000
0000
0000
3001
0100
,
0020
0000
0000
0000
1000
0000
0000
0000
0100
0000
0030
1000
0100
0000
0010
0001
,
0020
0000
0000
0000
0100
0000
0000
0000
0001
0000
0030
0001
0100
0000
0001
0010
,
0200
0000
0000
0000
1000
0000
0000
0000
0010
0000
0300
0100
1000
0000
0001
0100
,
0020
0000
0000
0000
1030
0000
1010
0000
0000
1001
0000
0000
1100
0000
0100
0010
,
0002
0000
0000
0000
1000
0000
0000
0000
0100
0000
0003
0001
0010
0000
0100
1000
,
0002
0000
0000
0000
0013
0000
0100
0010
0100
0000
0000
1000
0000
0000
0001
0000
,
0102
0000
0000
0000
1003
0000
0010
0100
0001
0000
0000
0100
0001
0000
1000
0000
,
0100
0000
0000
0000
0010
0000
0110
0000
0000
0000
1001
0000
0000
0000
1000
0001
,
0200
0000
0000
0000
1000
0000
0000
0000
0010
0000
0300
1000
0100
0000
1000
0100
,
0020
0000
0000
0000
0001
0000
0000
0000
1000
0000
0030
0001
0100
0000
0010
1000
,
0200
0000
0000
0000
0010
0000
0000
0000
0001
0000
0300
0100
1000
0000
0001
0100
,
0020
0000
0000
0000
0031
0000
0011
0000
0000
0110
0000
0000
1010
0000
1000
0001
,
0200
0000
0000
0000
1000
0000
0300
0000
0100
0000
0000
0100
0001
0000
0010
0100
,
0020
0000
0000
0000
0130
0000
1000
0100
1000
0000
0000
0001
0100
0000
0001
0000
,
0021
0000
0000
0000
0100
0000
0100
0000
0130
0000
0000
0010
0100
0000
1000
0000
,
0100
0000
1000
0000
0010
0000
1001
0000
0000
0000
0010
0100
0010
0000
0100
0000
,
1001
M00M
1000
1100
MM00
0001
0101
0100
,
0020
0000
0M00
0000
1030
0000
0001
0000
0000
0000
0202
0000
0000
0303
1M0M
0000
,
1010
1000
M001
0200
0000
0310
0110
01M0
,
0001
0000
0000
0000
0000
0000
2000
0000
0000
0000
0000
0000
0200
0000
0000
3000
0000
0000
0002
0000
0000
0300
0000
0000
0200
0000
0000
0003
0000
0000
2000
0000
0000
0300
0000
0000
0020
0000
0000
3000
0000
0000
0002
0000
0000
0000
0033
0000
,
0021
000M
1030
1010
M0M0
0100
1100
1M00
,
0020
0000
0000
0000
1030
0000
00M1
0000
0000
0000
0220
0000
0000
0330
1MM0
0000
,
1001
100M
0100
0M20
0000
0130
11M0
0000
,
0001
0000
0010
0000
0001
0000
0010
0000
0100
0000
1000
0000
0001
0000
0100
0001
,
0200
0000
0000
0000
0010
0000
0310
0000
1000
0000
0000
1000
0001
0000
1000
0100
,
2000
0000
0000
0000
3010
0000
0100
0010
0100
0000
0000
0001
0100
0000
0001
0010
,
0002
0000
0000
0000
0010
0000
0013
0000
0100
0000
0000
0100
1000
0000
0010
0100
,
0002
0000
0000
0000
1003
0000
0010
0100
0001
0000
0000
1000
0010
0000
1000
0100
,
0020
0000
0000
0000
0100
0000
0130
0000
0010
0000
0000
0001
1000
0000
0001
0100
,
0020
0000
0000
0000
1030
0000
0001
1000
0100
0000
0000
0110
0000
0000
1100
0000
,
0102
0000
0000
0000
0013
0000
0100
0010
0001
0000
0000
1000
0100
0000
0010
0000
,
1001
0000
0000
0000
0001
0000
1000
0010
1000
0000
0000
0100
1000
0000
0001
0100
,
2000
0000
0000
0000
3100
0000
0001
0000
1000
0000
0000
0100
0010
0000
0001
0010
,
2000
0000
0000
0000
3010
0000
0001
0100
0010
0000
0000
1000
0100
0000
0001
0100
,
2000
0000
0000
0000
3010
0000
0100
0000
0001
0000
0000
0010
1000
0000
0010
0001
,
0200
0000
0000
0000
0310
0000
0100
0010
0100
0000
0000
0001
1000
0000
1000
0010
,
0002
0000
0000
0000
0013
0000
1000
0000
0100
0000
0000
0001
0100
0000
1000
0010
,
0200
0000
0000
0000
0301
0000
0010
0001
0010
0000
0000
1100
0000
0000
0011
0000
,
2010
0000
0000
0000
0010
0000
0000
0000
0010
0000
3000
0010
0100
0000
0001
0000
,
0010
0000
0200
0000
2000
0300
0200
3000
2000
0300
3010
0100
0010
0000
1000
0000
,
1100
MM00
0001
0101
0M0M
0100
0110
01M0
,
0002
0000
1003
110M
0000
MM12
00M0
0013
,
0110
0100
1000
M002
0000
1003
101M
1000
,
0100
0000
0020
0000
0002
0030
0200
0003
2000
0300
0200
3000
0002
0303
0010
0000
,
0110
0MM0
0001
0101
0M0M
1000
1010
1000
,
M200
0000
0310
0011
00MM
2010
00M0
3001
,
1001
100M
0100
0M20
0000
0130
1100
MM00
,
0001
0010
0100
100M
00M0
0M00
M001
0010
,
0100
0000
1000
0000
0001
0000
0100
0000
0010
0000
1000
0000
0100
0010
0100
0010
,
0100
0000
0022
0000
0000
0000
0033
0000
11MM
0000
0000
0000
0001
0000
0000
0001
,
0200
0000
0000
0000
0310
0000
0M00
0010
1000
0000
0001
0000
1000
0000
M000
0000
,
0011
0000
0000
0000
1000
0100
1000
0000
1100
0000
0001
0000
0200
0000
0000
0000
,
0010
0000
0000
0000
0301
0000
0M00
0001
1000
0000
0100
0000
0010
0000
00M0
0000
,
1001
0000
0000
0000
0001
0100
0000
0001
0100
0000
0010
0000
2000
0000
0000
0000
,
0010
0000
0000
0000
3001
0000
M000
1000
0100
0000
0010
0001
0010
0100
1000
0100
,
0010
0001
0010
0100
1000
0000
1001
0000
0000
0000
1000
0000
0002
0000
M000
0000
,
0100
0000
0000
0000
0013
0000
0000
0100
0010
0000
0001
0000
1000
0000
0100
0000
,
0110
0000
0MM0
0000
1000
0001
0100
0000
0101
0000
0010
0000
0010
0000
1000
0000
,
0001
0000
000M
0000
1000
0100
1000
0000
1100
0000
0001
0000
MM10
0000
0010
0000
,
0001
0000
1000
0100
0010
0001
0010
0100
1000
0000
0102
0000
0000
0000
0100
0000
,
0103
0000
0000
0000
0010
0000
0000
1000
0010
0000
2000
0000
0010
0000
0000
0000
,
3010
0000
0000
0010
0100
0000
0001
0000
0010
0000
0200
0000
0000
0000
0010
0000
,
0310
0000
0001
0100
0010
1000
0010
0100
0001
0000
1100
0000
0000
0000
0000
0000
;

//---------------dance-single - C. Picardy----------------
#NOTEDATA:;
#CHARTNAME:;
#STEPSTYPE:dance-single;
#DESCRIPTION:C. Picardy;
#CHARTSTYLE:;
#DIFFICULTY:Hard;
#METER:9;
#RADARVALUES:0.561714,0.579744,0.410438,0.254472,0.192906,479.000000,429.000000,50.000000,31.000000,4.000000,0.000000,0.000000,0.000000,0.000000,0.561714,0.579744,0.410438,0.254472,0.192906,479.000000,429.000000,50.000000,31.000000,4.000000,0.000000,0.000000,0.000000,0.000000;
#CREDIT:C. Picardy;
#NOTES:
0000
0000
0000
0000
,
0000
0000
0000
0000
,
1000
0100
0000
0100
1000
0000
0001
0100
,
0000
0100
0001
0002
0000
0100
0103
0000
,
0010
1000
0000
1000
0010
0000
1000
0002
,
0000
0010
0000
0013
,
0100
1000
0000
0100
0010
0000
0001
1000
,
0000
0000
0010
0000
0100
0000
0000
0000
1001
0000
1001
0000
0000
0000
0001
0100
,
0002
0000
0000
0000
1000
0000
0000
0000
0100
0000
0000
0000
1003
0000
0100
1000
,
0200
0000
0000
0000
1000
0000
0000
0000
0010
0000
0000
0000
1300
0000
0010
0100
,
0020
0000
0000
0000
1000
0000
0000
0000
0100
0000
0000
0000
1030
0000
0001
0010
,
0001
0000
0000
0000
1000
0000
0100
0000
0000
0100
0000
0000
0110
0000
0000
0000
,
0021
0000
0000
0000
0100
0000
0000
0000
0001
0000
0000
0000
0031
0000
1000
0010
,
1000
0000
0000
0000
1010
0000
0000
0000
0001
0000
0000
1000
0000
0000
0100
0000
,
0200
0000
0000
0000
0310
0000
0100
0010
0100
0000
0000
0000
0010
0000
0100
0000
,
1000
0000
0000
0000
0001
0000
0101
0000
0000
0000
1010
0000
0000
0000
1000
0001
,
2000
0000
0000
0000
3100
0000
0100
0000
1000
0000
0000
0001
0100
0000
0001
0100
,
0002
0000
0000
0000
0013
0000
0010
0000
0100
0000
0000
0100
1000
0000
0100
1000
,
0200
0000
0000
0000
1300
0000
1000
0000
0010
0000
0000
0010
0100
0000
0001
0100
,
0002
0000
0000
0000
1003
0000
1000
0000
0000
1010
0000
0000
1010
0000
0000
0000
,
2001
0000
0000
0000
3100
0000
0100
0000
0010
0000
0000
0001
0010
0000
0001
0010
,
0002
0000
0000
0000
1003
0000
1000
0000
0010
0000
0000
0010
0000
0000
0100
0000
,
0102
1000
0100
0010
,
1003
0000
0100
1100
0000
0101
0000
0100
,
0020
0000
1030
1000
1001
0000
1000
0100
,
0020
0000
0030
0011
0000
1100
0000
0001
,
0100
0010
0000
1001
0000
0100
0110
0100
,
0000
0001
0100
0010
1000
0100
0010
0001
,
0011
0000
1000
0100
1100
0000
0001
0001
,
0201
0000
0000
0010
0000
0301
0000
0001
,
0100
0110
0000
1000
0000
0001
1001
0000
,
1000
0000
0001
0000
1000
0000
0001
0000
0100
0000
1001
0000
0000
0000
1000
0100
,
1000
0000
0100
0000
0010
0000
0100
0000
1000
0000
0000
0100
0010
0000
0001
0000
,
0100
0000
0010
0000
0100
0000
0001
0000
0010
0000
0000
0100
0010
0000
0001
0000
,
1000
0000
0001
0000
0100
0000
0001
0000
1000
0000
0000
0100
1000
0000
0010
0000
,
0100
0000
0010
0000
1000
0000
0010
0000
0100
0000
0000
0010
1000
0000
0001
0000
,
0010
0000
0100
0000
0010
0000
0001
0000
0100
0000
0000
0001
0010
0000
0100
0000
,
0010
0000
0100
0000
1000
0000
0100
0000
0010
0000
0000
0010
0100
0000
1000
0000
,
0002
0000
0000
0000
1003
0000
0001
0100
0001
0000
0000
0000
0101
0000
0000
0000
,
0100
0000
0100
0000
0010
0000
0000
0010
1000
0000
0000
1000
0001
0000
1000
0000
,
0100
0000
0000
0000
1100
0000
0000
0000
0010
0000
0000
0010
0001
0000
0010
0000
,
0100
0000
0000
0000
0011
0000
0000
0000
1000
0000
0000
1000
0010
0000
0100
0000
,
0010
0000
0000
0000
1010
0000
0000
0000
0100
0000
0000
0100
0010
0000
0100
0000
,
1000
0000
0000
0000
1001
0000
0000
0000
0100
0000
0000
0100
0001
0000
0010
0000
,
0100
0000
0000
0000
0110
0000
0000
0000
0010
0000
0000
0001
0010
0000
0100
0000
,
1000
0000
0000
0000
0101
0000
0000
0000
0100
0000
0000
0100
0000
0000
0010
0000
,
0210
0010
0010
0310
,
1000
0010
1000
0010
0100
0001
0010
0100
,
1100
0000
0001
0100
0101
0000
1000
1010
,
2000
0000
0000
0001
0000
3100
0000
0100
,
0010
0011
0000
0200
0000
0310
0010
1010
,
0000
1000
0100
0010
0001
1000
0010
0100
,
0101
0000
1000
0001
1001
0000
0001
0011
,
0020
0000
0000
0100
0000
0031
0000
1000
,
1001
1000
0000
0100
0000
0100
0010
0000
,
0001
0010
0100
1000
0000
0000
0001
0010
,
0100
0000
1000
0000
0001
0000
0200
0000
0000
0000
0310
0000
0100
0010
0100
0010
,
0100
0010
0MM0
0000
1MM1
0000
0210
0000
,
0001
0000
0000
0000
0310
0000
0000
0010
1000
0000
0100
0000
0020
0000
0000
0000
,
0001
0000
0100
0130
1000
0001
0200
0000
,
0010
0000
0000
0000
0301
0000
0000
0001
0100
0000
0001
0000
0010
0000
0000
0000
,
1001
0000
0000
0000
1000
0000
0000
0001
1000
0000
0100
0000
0020
0000
0000
0000
,
0001
0000
0000
0000
0130
0000
0000
0100
0010
0000
0001
0000
0010
0000
0100
0000
,
1000
0010
0100
0101
0000
1000
0200
0000
,
0010
0000
0000
0000
1300
0000
0000
0100
0010
0000
0100
0000
1000
0000
0100
0000
,
0010
0001
0100
0110
0000
1000
0010
0001
,
0010
1000
0100
0110
0000
0001
0010
1000
,
0010
0000
0001
0010
0001
0010
0001
0000
0100
0000
0120
0000
0000
0000
1000
0000
,
1030
0000
0000
0000
0001
0000
0000
0001
0010
0000
0200
0000
1000
0000
0000
0000
,
1300
0000
1000
0100
0010
0002
0000
0100
,
0103
0000
0010
1000
0010
1000
0010
0000
1010
0000
0101
0000
0000
0000
0000
0000
;

//---------------dance-single - C. Picardy----------------
#NOTEDATA:;
#CHARTNAME:;
#STEPSTYPE:dance-single;
#DESCRIPTION:C. Picardy;
#CHARTSTYLE:;
#DIFFICULTY:Medium;
#METER:6;
#RADARVALUES:0.431547,0.434808,0.287307,0.295516,0.020522,368.000000,333.000000,35.000000,36.000000,0.000000,0.000000,0.000000,0.000000,0.000000,0.431547,0.434808,0.287307,0.295516,0.020522,368.000000,333.000000,35.000000,36.000000,0.000000,0.000000,0.000000,0.000000,0.000000;
#CREDIT:C. Picardy;
#NOTES:
0000
0000
0000
0000
,
0000
0000
0000
0000
,
0000
0000
0000
0000
,
0000
0000
0000
0000
,
1000
1000
0000
0001
0001
0000
1000
2000
,
0000
0001
0000
3001
,
0100
0100
0000
0010
0010
0000
0100
0100
,
0000
0010
0010
0000
1000
0001
0000
0100
,
0020
0000
1000
0000
0130
0000
1000
0100
,
2000
0000
0010
0000
3001
0000
0100
0010
,
0200
0000
0010
0000
1300
0000
0001
0100
,
0020
0000
1030
0002
0000
1003
0001
0100
,
0020
0000
1000
0000
0130
0000
0001
0010
,
0200
0000
0000
0000
0310
0000
0000
0000
0001
0000
0000
0001
0000
0000
0001
0000
,
2000
0000
3010
0100
0002
0000
1000
0000
,
0103
0000
0010
1010
0000
0011
0000
1000
,
0200
0000
1300
0100
1000
0000
0101
0000
,
0020
0000
1030
0010
1000
0000
0110
0000
,
2000
0000
3001
0010
0001
0000
1100
0000
,
0020
0000
0130
0010
0000
0010
0100
0001
,
0200
0000
0310
1000
0010
0000
1010
0000
,
0200
0000
0000
0000
1300
0000
0010
0000
1000
0000
0000
1000
0000
0000
0100
0000
,
0020
0001
0001
0031
,
1100
0000
0000
0101
0000
1100
0000
0000
,
1001
0000
1000
0001
1000
0000
0100
0010
,
0100
0000
0000
1000
0000
1000
0000
0001
,
0001
0001
0000
0100
0000
0010
1000
1000
,
0000
0000
0101
0000
0100
0010
0100
0010
,
0100
0000
0010
1000
0010
0000
1000
0001
,
1000
0000
0000
0100
0000
0100
0000
0010
,
0010
0010
0000
0001
0000
0001
0010
0000
,
1100
0000
0101
0000
1000
0001
0000
0100
,
0020
0000
1030
0100
1000
0000
1100
0000
,
0020
0000
0130
0001
0100
0000
0101
0000
,
2000
0000
3100
0010
0100
0000
0011
0000
,
2000
0000
3010
0100
0010
0000
1010
0000
,
0002
0000
0013
0001
0010
0000
0011
0000
,
2000
0000
0000
0000
3010
0000
0100
0000
0010
0000
0000
0010
0000
0000
0010
0000
,
0200
0000
0000
0301
2000
0000
0100
0000
,
3100
0000
0010
0000
0001
0010
0100
0000
,
2001
0000
3001
0100
0010
0000
1000
0000
,
1200
0000
0310
0100
1000
0000
0001
0000
,
0201
0000
0301
0100
0010
0000
1000
0000
,
0120
0000
1030
0010
0100
0000
0001
0000
,
0021
0000
0031
0010
0100
0000
1000
0000
,
0102
0000
0000
0000
1003
0000
0100
0000
0010
0000
0000
0010
0000
0000
0001
0000
,
2000
0001
0001
3001
,
0000
1000
0100
0000
0010
0001
0010
0000
,
1001
0000
0100
0010
0100
0000
0001
0001
,
1000
0000
0000
0100
0000
0100
0000
0010
,
0010
0010
0000
0001
0000
0010
0100
0100
,
0000
0000
1100
0000
0001
0100
0001
0100
,
0010
0000
1000
0010
0010
0000
1000
1000
,
0001
0000
0000
1100
0000
0101
0000
0001
,
0001
0001
0000
1000
0000
0001
1000
0000
,
0001
0010
0001
0010
0000
0000
0100
1000
,
0100
1000
0100
1000
0000
0001
1000
0000
,
0001
1001
0000
0000
0110
0000
1001
0000
,
0100
0000
0010
0000
0001
0010
0001
0000
,
1000
0000
0010
0000
1000
0010
0200
0000
,
0010
0310
1000
0100
,
0010
0000
0000
0000
0001
0000
0000
0001
0000
0000
1000
0000
0001
0000
0000
0000
,
0100
0000
0010
0000
1000
0010
1000
0000
,
0100
0000
1000
0001
0000
0100
0010
0000
,
0110
1000
1100
0010
,
0001
0000
0100
0010
0000
1000
0001
0000
,
0010
0000
0100
1000
0000
0001
0010
0000
,
0100
0000
1000
0001
1000
0002
0000
0000
,
0100
0000
0103
0000
0000
2002
0000
0000
,
3003
0000
1000
0100
0010
0001
0000
0010
,
0100
0000
1000
0100
0010
1001
0000
0000
;

//---------------dance-single - C. Picardy----------------
#NOTEDATA:;
#CHARTNAME:;
#STEPSTYPE:dance-single;
#DESCRIPTION:C. Picardy;
#CHARTSTYLE:;
#DIFFICULTY:Easy;
#METER:3;
#RADARVALUES:0.279098,0.347846,0.246263,0.451482,0.000000,238.000000,208.000000,30.000000,55.000000,0.000000,0.000000,0.000000,0.000000,0.000000,0.279098,0.347846,0.246263,0.451482,0.000000,238.000000,208.000000,30.000000,55.000000,0.000000,0.000000,0.000000,0.000000,0.000000;
#CREDIT:C. Picardy;
#NOTES:
// measure 0
0000
0000
0000
0000
,  // measure 1
0000
0000
0000
0000
,  // measure 2
0000
0000
0000
0000
,  // measure 3
0000
0000
0000
0000
,  // measure 4
0000
1000
0000
1000
,  // measure 5
0000
1000
0000
1000
,  // measure 6
0000
0001
0000
0001
,  // measure 7
0000
0001
1001
0000
,  // measure 8
2000
0100
3100
0000
,  // measure 9
0002
0100
0103
0000
,  // measure 10
0020
0100
0130
0000
,  // measure 11
2000
0001
0001
3010
,  // measure 12
0200
0010
0301
0000
,  // measure 13
2000
0100
0001
3001
,  // measure 14
0200
0300
0020
0030
,  // measure 15
1000
0100
0011
0011
,  // measure 16
1000
0100
1000
0000
,  // measure 17
0001
0100
0010
0000
,  // measure 18
1000
0010
0100
0000
,  // measure 19
0001
0010
0100
1001
,  // measure 20
0010
0100
1000
0000
,  // measure 21
0001
0100
0010
0100
,  // measure 22
0002
1000
1000
1003
,  // measure 23
1001
0000
0110
1001
,  // measure 24
0220
0330
1000
0100
,  // measure 25
2002
3003
0010
0100
,  // measure 26
0011
0000
1100
0000
,  // measure 27
0001
0100
0010
1000
,  // measure 28
2002
3003
0100
0010
,  // measure 29
2002
3003
0010
0010
,  // measure 30
0110
0000
1001
0000
,  // measure 31
0101
1100
0202
0303
,  // measure 32
0100
0010
0100
0010
,  // measure 33
1000
0001
1000
0001
,  // measure 34
0010
0100
0010
0100
,  // measure 35
1000
0100
1000
0100
,  // measure 36
0010
0001
0010
0001
,  // measure 37
0100
0001
0100
0001
,  // measure 38
2000
0000
3002
0000
,  // measure 39
0203
0000
0310
0110
,  // measure 40
1000
0100
1000
0010
,  // measure 41
0100
0001
0010
0001
,  // measure 42
0100
0010
1000
0010
,  // measure 43
0100
0001
1000
0100
,  // measure 44
0010
0100
1000
0100
,  // measure 45
0010
0001
0100
0010
,  // measure 46
2002
0000
0000
3003
,  // measure 47
0010
0100
0010
0100
,  // measure 48
2002
3003
0220
0330
,  // measure 49
1000
0100
0010
0001
,  // measure 50
2200
3300
0202
0303
,  // measure 51
1000
0010
0100
0001
,  // measure 52
2020
3030
0022
0033
,  // measure 53
0001
0010
0100
1000
,  // measure 54
0220
0330
2002
3003
,  // measure 55
0010
0010
0000
0100
,  // measure 56
0100
0200
0000
0010
,  // measure 57
0310
0000
1001
0200
,  // measure 58
0000
0310
0010
2000
,  // measure 59
0000
3100
0010
0200
,  // measure 60
0000
0320
0000
0032
,  // measure 61
0000
1003
1000
0020
,  // measure 62
0000
0230
0000
0301
,  // measure 63
1000
0001
0100
0020
,  // measure 64
0000
2030
0000
3100
,  // measure 65
0100
2000
3000
0001
,  // measure 66
0001
0200
0300
0010
,  // measure 67
0010
1000
0001
0020
,  // measure 68
0000
0230
0000
2300
,  // measure 69
0000
3001
0001
0100
,  // measure 70
0010
0000
0100
0000
0000
1001
0000
0000
;
