#TITLE:Brainwave;
#SUBTITLE:;
#ARTIST:x0-000;
#TITLETRANSLIT:;
#SUBTITLETRANSLIT:;
#ARTISTTRANSLIT:;
#GENRE:;
#CREDIT:;
#BANNER:brainwavebn.png;
#BACKGROUND:brainwavebg.png;
#LYRICSPATH:;
#CDTITLE:;
#MUSIC:brainwave.ogg;
#OFFSET:-0.084108;
#SAMPLESTART:75.917191;
#SAMPLELENGTH:12.000000;
#SELECTABLE:YES;
#BPMS:0.000000=155.000000
;
#STOPS:
;
#BGCHANGES:16.000=digitalblocks.mp4=1.600=0=1=1=StretchRewind==SlideLeft==,
48.000=brainwavebg.png=1.000=0=0=1====#FF0000=,
49.000=brainwavebg.png=1.000=0=0=1====#00FF00=,
50.000=brainwavebg.png=1.000=0=0=1====#0000FF=,
51.000=brainwavebg.png=1.000=0=0=1=====,
52.000=flash=2.000=0=0=1====#FF0000=,
52.250=redscanlines.mp4=1.000=0=1=1=StretchRewind====,
84.000=brainsplashscreen.mp4=1.000=0=1=1=StretchRewind==SlideUp==,
116.000=flash=2.000=0=0=1====#00FFFF=,
116.250=purplespace.mp4=1.000=0=0=1=SongBgWithMovieViz====,
148.000=flash=2.000=0=0=1====#FF0000=,
148.250=redscanlines.mp4=1.000=0=0=1=====,
180.000=digitalblocks.mp4=1.600=0=1=1=StretchRewind==SlideUp==,
196.000=flash=2.000=0=0=1====#00FF00=,
196.250=digitalblocks.mp4=1.600=0=0=1=====,
212.000=flash=2.000=0=0=1====#FF00FF=,
212.250=purplespace.mp4=1.000=0=1=1=StretchRewind====,
228.000=brainsplashscreen.mp4=1.000=0=1=1=StretchRewind==SlideRight==,
244.000=brainwavebg.png=1.000=0=0=1====#FF0000=,
244.750=brainwavebg.png=1.000=0=0=1====#00FF00=,
245.500=brainwavebg.png=1.000=0=0=1====#0000FF=,
246.250=brainwavebg.png=1.000=0=0=1====#FF00FF=,
247.000=brainwavebg.png=1.000=0=0=1====#FFFF00=,
247.500=brainwavebg.png=1.000=0=0=1====#00FFFF=,
248.000=flash=2.000=0=0=1=====,
248.250=brainwavebg.png=1.000=0=0=1=====,
99999=-nosongbg-=1.000=0=0=0 // don't automatically add -songbackground-
;
#KEYSOUNDS:;
#ATTACKS:;

//---------------dance-single - C. Picardy----------------
#NOTES:
     dance-single:
     :
     Beginner:
     1:
     0.122894,0.190486,0.051206,0.010241,0.000000,84.000000,79.000000,5.000000,1.000000,0.000000,0.000000,0.122894,0.190486,0.051206,0.010241,0.000000,84.000000,79.000000,5.000000,1.000000,0.000000,0.000000:
0000
0000
0000
0000
,
0000
0000
0000
0000
,
0000
0000
0000
0000
,
0000
0000
0000
0000
,
1000
0000
1000
0000
,
1000
0000
0000
0000
,
0001
0000
0001
0000
,
0001
0000
0000
0000
,
0100
0000
0100
0000
,
0100
0000
0000
0000
,
0010
0000
0010
0000
,
0010
0000
0000
0000
,
1001
0000
0000
0000
,
0100
0000
0000
0000
,
0010
0000
0000
0000
,
1000
0000
0000
0000
,
0001
0000
0000
0000
,
1001
0000
0000
0000
,
0010
0000
0000
0000
,
0100
0000
0000
0000
,
0002
0000
0003
0000
,
1000
0000
0001
0000
,
1000
0000
0000
0000
,
0001
0000
1000
0000
,
0001
0000
0000
0000
,
0100
0000
0010
0000
,
0100
0000
0000
0000
,
0010
0000
0100
0000
,
0010
0000
0000
0000
,
1000
0000
0000
0000
,
1000
1000
1000
0000
,
0001
0000
0000
0000
,
0001
0001
0001
0000
,
0100
0000
0000
0000
,
0100
0100
0100
0000
,
0010
0000
0000
0000
,
0010
0010
0010
0000
,
0110
0000
0000
0000
,
1000
0000
0000
0000
,
0001
0000
0000
0000
,
1000
0000
0000
0000
,
0010
0000
0000
0000
,
0100
0000
0000
0000
,
0010
0000
0000
0000
,
0100
0000
0000
0000
,
0001
0000
0001
0000
,
0001
0000
0000
0000
,
1000
0000
1000
0000
,
1000
0000
0000
0000
,
0100
0000
0100
0000
,
0100
0000
0000
0000
,
0010
0000
0010
0000
,
0010
0000
0000
0000
,
1001
0000
0000
0000
,
0100
0000
0000
0000
,
0010
0000
0000
0000
,
0100
0000
0000
0000
,
0001
0000
0000
0000
,
1000
0000
0000
0000
,
0001
0000
0000
0000
,
1000
0000
0000
0000
,
0100
0000
0000
0000
,
1001
0000
0000
0000
;

//---------------dance-single - C. Picardy----------------
#NOTES:
     dance-single:
     :
     Challenge:
     11:
     0.991931,1.024118,0.215065,0.317477,1.433765,678.000000,657.000000,21.000000,31.000000,55.000000,0.000000,0.991931,1.024118,0.215065,0.317477,1.433765,678.000000,657.000000,21.000000,31.000000,55.000000,0.000000:
0000
0000
0000
0000
,
0000
0000
0000
0000
,
0000
0000
0000
0000
,
0000
0000
0000
0000
,
1000
0001
0100
0010
0000
1000
0001
0100
0010
1000
0100
0010
0000
0001
1000
0100
,
0010
0001
0100
0010
0000
1000
0001
0100
0010
0100
0001
1000
0000
0100
0010
0100
,
1000
0001
0100
0010
0000
1000
0001
0100
0010
1000
0100
0010
0000
0100
0010
0001
,
1000
0000
0010
0000
0100
0000
0001
0000
0000
0000
1000
0000
0010
0000
0100
0000
0001
0000
0100
0000
0010
0000
1000
0000
0001
0000
0010
0100
0010
0000
0001
0000
,
1000
0100
0010
0001
0000
1000
0100
0010
0001
0010
0100
1000
0000
0001
0100
0010
,
1000
0010
0100
0001
0000
1000
0010
0100
0001
0100
0010
1000
0000
0100
0001
0100
,
0010
0100
1000
0010
0000
0100
0010
0001
0010
1000
0010
0100
0000
0001
0010
0100
,
0010
1000
0010
0100
0000
0010
0100
0010
1000
0010
0001
1000
0000
0010
0100
0001
,
M1M1
0000
0000
0000
0000
0000
0000
0000
11MM
0000
0000
0000
0000
0000
0000
0000
MM01
0000
0010
0000
0000
0000
0001
0000
0010
0001
0010
0001
0010
0000
0100
0000
,
1000
0000
0001
0100
0010
0000
1000
0001
0100
0000
0010
1000
0100
0000
0010
0001
,
0100
0000
0010
1000
0001
0000
0100
0000
1000
0000
0100
0000
0010
0000
1000
0000
,
0001
0000
1000
0100
0010
0000
0100
0010
0001
0000
1000
0010
0100
0000
0001
0010
,
0100
0000
0000
0000
1000
0000
0010
0000
0100
0000
0010
0000
0000
0000
1000
0000
0001
0000
1000
0000
0000
0000
0001
0000
0100
0000
0001
0000
0100
0001
0100
0001
,
0100
0000
0010
1000
0001
0000
0010
0100
1000
0000
0010
0100
0001
0000
0100
0000
,
1000
0100
0001
0010
1000
0010
0001
0010
,
0200
0000
M001
0000
10M0
0000
0310
0100
,
0001
0000
0010
0000
0000
0000
0001
0000
0100
0000
0000
0000
0110
0000
0000
0000
1000
0000
0010
0000
0000
0000
0010
0000
1000
0000
0010
0000
1000
0010
1000
0010
,
1000
0000
0001
0100
0000
0000
0M10
1000
0000
0000
M001
0010
0100
0000
100M
0010
,
0000
0000
01M0
0001
0000
0000
001M
1000
0000
0000
M010
0001
1000
0000
001M
0100
,
0000
0000
0001
0100
0000
0000
100M
0100
0000
0000
M001
0010
1000
0000
0010
0001
,
0000
0000
0000
0000
100M
0000
0100
0000
1000
0000
0000
0000
1000
0000
0000
0000
0100
0000
0010
0000
0100
0000
0000
0000
0010
0000
0100
0000
0010
0100
0010
0100
,
0010
0000
0001
0010
0000
0000
010M
1000
0000
0000
M001
0100
1000
0000
M100
0010
,
0000
0000
10M0
0100
0000
0000
M010
0001
0000
0000
100M
0010
0100
0000
M001
0010
,
0000
0000
100M
0010
0000
0000
M100
0010
0000
0000
00M1
0100
0010
0000
100M
0100
,
0000
0000
M001
0100
0000
0000
100M
0010
0000
0100
0001
0010
0100
0000
0110
0000
,
1000
0100
1000
0100
0010
0100
0010
0100
0010
0001
0010
0001
0100
0001
0100
0001
,
2M00
0000
0000
3000
2M2M
0000
0000
3030
M22M
0000
0000
0330
M2M2
0000
0000
0303
,
0001
0010
0001
0010
0100
0010
0100
0010
0100
1000
0100
1000
0010
1000
0010
1000
,
0001
0000
0000
0000
0100
0000
0000
0000
0001
0000
0000
0000
0100
0000
0000
0000
0010
0000
1000
0000
0000
0000
1000
0000
0001
0000
1000
0000
0001
1000
0001
1000
,
0001
0100
0001
0100
1000
0100
1000
0100
0001
0010
0001
0010
0100
1000
0100
1000
,
0M02
0000
0000
0003
MM22
0000
0000
0033
22MM
0000
0000
3300
M2M2
0000
0000
0303
,
1000
0100
1000
0100
0001
0100
0001
0100
1000
0010
1000
0010
0001
0010
0001
0010
,
1000
0000
0000
0000
0010
0000
0100
0000
0001
0000
0000
0000
0010
0000
0100
0000
1000
0000
0000
0000
0001
0000
0010
0000
0001
0000
0010
0000
0001
0010
0001
0010
,
0002
0000
2003
0100
0010
0010
3002
0100
,
0000
0203
0010
0001
0320
1000
0100
1000
,
0032
0000
1000
0100
0000
0010
0100
0000
,
2003
0000
0010
0100
0000
0001
0010
3001
,
0201
0000
0302
0010
0100
2003
0100
0010
,
0000
3001
0020
0100
0001
0130
1000
0010
,
1002
0000
0100
0010
0000
1003
0100
1000
,
1020
0000
0001
0100
0000
1000
0100
1030
,
0001
0100
0010
1000
0000
0010
0100
0010
1000
0001
0100
0010
0000
1000
0100
0010
,
0100
1000
0001
0100
0000
0010
1000
0001
0100
0010
1000
0001
0000
0010
0100
1000
,
0001
0100
0010
0100
0000
0001
1000
0010
0100
0010
1000
0100
0000
0010
0100
0010
,
0001
0000
1000
0000
0010
0000
0100
0000
0000
0000
0001
0000
0100
0000
0010
0000
1000
0000
0001
0000
0010
0000
0100
0000
1000
0000
0001
0000
1000
0100
1000
0000
,
0001
0100
0010
1000
0000
0001
0010
0100
1000
0100
0010
0001
0000
1000
0010
0100
,
0001
0100
0010
1000
0000
0100
0010
0001
0010
0100
1000
0010
0000
0100
0001
0010
,
0100
0010
1000
0010
0000
0001
0010
0100
0010
1000
0010
0001
0000
0001
0100
0010
,
0100
1000
0100
0010
0000
1000
0010
0100
0010
0001
0010
1000
0100
0010
0100
1000
,
1001
0000
1000
0100
0010
0100
1000
0100
0010
0000
0001
0100
0010
0100
0001
0100
,
0010
1000
0100
0001
0100
1000
0010
0001
,
0010
0000
1000
0010
0100
0010
1000
0010
0100
0000
0001
0010
0100
0010
0001
0010
,
0100
0000
0000
0000
1000
0000
0001
0000
0100
0000
0001
0000
1000
0000
0000
0000
0001
0000
1000
0000
0001
0000
0000
0000
1000
0000
0001
0000
0100
0001
0100
0001
,
0100
0000
0001
0010
0100
1000
0100
0010
0001
0000
1000
0100
0010
0001
0010
0100
,
1000
0010
0001
0010
1000
0100
0001
0100
,
1000
0000
0010
0100
0001
0100
0010
0100
0001
0000
1000
0100
0010
0100
2000
0000
,
0000
0000
0000
0000
3001
0000
0100
0000
0010
1000
0000
0001
1000
0001
0100
0010
,
M11M
0000
0000
1M1M
0000
0000
MM11
0000
0000
11MM
0000
0000
1MM1
0000
1100
0000
,
0202
0000
0303
0000
;

//---------------dance-single - C. Picardy----------------
#NOTES:
     dance-single:
     :
     Easy:
     4:
     0.332107,0.444467,0.307235,0.348200,0.000000,227.000000,197.000000,30.000000,34.000000,0.000000,0.000000,0.332107,0.444467,0.307235,0.348200,0.000000,227.000000,197.000000,30.000000,34.000000,0.000000,0.000000:
0000
0000
0000
0000
,
0000
0000
0000
0000
,
0000
0000
0000
0000
,
0000
0000
0000
0000
,
0100
0010
1001
0000
,
0010
0001
1001
0000
,
1000
0001
1100
0000
,
0001
1000
0110
0000
,
0001
0001
1000
1000
,
0010
0010
0100
0100
,
0001
1000
0001
1000
,
0100
0010
0001
1000
,
0100
0100
0100
0100
,
2002
3003
0001
1000
,
0010
0100
0100
0001
,
2200
3300
0001
1000
,
0100
0100
1000
0010
,
0202
0303
1000
0100
,
1000
0001
0100
0010
,
0220
0000
0330
0001
,
2000
0000
0002
3003
,
0100
0001
0100
0010
,
1000
0010
1000
0001
,
1000
0100
1000
0010
,
1000
0100
0010
0100
,
1001
1000
0001
0100
,
0010
1000
0001
1000
,
0100
0010
0100
1000
,
0001
0100
0010
1000
,
0120
0000
1030
0000
,
0001
0001
1000
1000
,
1002
0000
0103
0000
,
0010
0010
0100
0010
,
2001
0000
3100
0000
,
0010
0010
0100
0100
,
2100
0000
3010
0000
,
0001
0001
1100
0101
,
2002
3003
0100
0100
,
0010
1000
0001
0001
,
2000
0000
3002
0000
,
0203
0000
0320
0000
,
1030
0100
0010
0100
,
1000
0001
0100
0010
,
0200
0000
0302
0000
,
2003
0000
3200
0000
,
1300
0100
0001
0100
,
1000
0010
0100
0010
,
1000
0001
0100
0010
,
0100
0001
0010
0100
,
1000
1100
0001
0101
,
1000
1010
0001
0011
,
0100
1001
0010
1001
,
0100
0110
0001
1010
,
0022
0033
1000
0100
,
1000
0010
0100
0100
,
2002
3003
0001
0100
,
0010
0010
1000
0101
,
2200
3300
0010
0001
,
1000
1000
0001
0001
,
0220
0000
0330
0001
,
2000
0000
0002
3003
,
1000
0000
0000
0001
0000
0000
0100
0000
,
1001
0000
0000
0000
;

//---------------dance-single - C. Picardy----------------
#NOTES:
     dance-single:
     :
     Medium:
     7:
     0.462316,0.476215,0.256030,0.184341,0.174100,316.000000,291.000000,25.000000,18.000000,0.000000,0.000000,0.462316,0.476215,0.256030,0.184341,0.174100,316.000000,291.000000,25.000000,18.000000,0.000000,0.000000:
// measure 0
0000
0000
0000
0000
,  // measure 1
0000
0000
0000
0000
,  // measure 2
0000
0000
0000
0000
,  // measure 3
0000
0000
0000
0000
,  // measure 4
1000
0000
0000
1000
0000
0000
0010
0000
0100
0000
0000
0100
0000
0000
0001
0000
,  // measure 5
0010
0000
0000
0010
0000
0000
0100
0000
1000
0000
0000
1000
0000
0000
0010
0000
,  // measure 6
0001
0000
0000
0001
0000
0000
0010
0000
1000
0000
0000
1000
0000
0000
0001
0000
,  // measure 7
0100
0000
0000
0100
0000
0000
0001
0000
0010
0000
0000
0010
0000
0000
0100
0000
,  // measure 8
1000
0000
0000
0001
0000
0000
1000
0000
0001
0000
0000
1000
0000
0000
0100
0000
,  // measure 9
0010
0000
0000
0100
0000
0000
0010
0000
0100
0000
0000
1000
0000
0000
0001
0000
,  // measure 10
0100
0000
0000
0010
0000
0000
1000
0000
0001
0000
0000
1000
0000
0000
0100
0000
,  // measure 11
0010
0000
0000
0001
0000
0000
0100
0000
0010
0000
0000
1000
0000
0000
0010
0000
,  // measure 12
0100
1010
0011
1100
,  // measure 13
0101
0000
1000
0000
0010
0000
1000
0100
,  // measure 14
1000
0000
0001
0100
0010
0000
1000
0100
,  // measure 15
0010
0000
0100
0000
1000
0000
0010
0100
,  // measure 16
0001
0010
1100
0101
,  // measure 17
1001
0000
0100
0000
0010
0000
0001
0100
,  // measure 18
1000
0000
1000
0100
0001
0000
0001
0010
,  // measure 19
0200
0000
0010
0000
1300
0000
0001
0200
,  // measure 20
0000
0000
0310
2000
0000
3001
1000
0000
,  // measure 21
0110
0000
1000
0000
0001
0000
1000
0100
,  // measure 22
0010
0000
0010
0000
0100
0000
1000
0010
,  // measure 23
0100
0000
0001
0000
0011
0000
0010
0001
,  // measure 24
0100
0000
0010
0000
1000
0000
0100
1000
,  // measure 25
0010
0100
1010
0001
,  // measure 26
1000
0100
0010
0000
0011
0000
0100
0000
,  // measure 27
0010
0000
1000
0000
0001
0100
0010
0000
,  // measure 28
1000
0100
1001
1100
,  // measure 29
0102
0000
0000
0023
0000
0000
0000
0000
,  // measure 30
0001
0100
0001
0031
,  // measure 31
2100
0000
0000
3020
0000
0000
0000
0000
,  // measure 32
0100
0001
0001
1030
,  // measure 33
0012
0000
0000
0203
0000
0000
0000
0000
,  // measure 34
0010
0001
1000
0301
,  // measure 35
2010
0000
0000
3200
0000
0000
0000
0000
,  // measure 36
1300
0100
0010
0001
0100
0000
0010
0000
,  // measure 37
1001
0000
0100
0000
1000
0000
0001
1000
,  // measure 38
0000
1000
0001
0000
0010
0000
0100
1000
,  // measure 39
0020
0000
0100
0100
0000
0100
0130
0000
,  // measure 40
0002
0000
1000
1000
0000
1000
1003
0000
,  // measure 41
0110
0000
1000
0000
0001
0000
0010
0100
,  // measure 42
0000
1000
0010
0000
0100
0000
0001
0010
,  // measure 43
0200
0000
0010
0010
0000
0010
0310
0100
,  // measure 44
2000
0000
0001
0001
0000
0001
3001
0000
,  // measure 45
1000
0000
0000
1000
0000
0000
0001
0000
0100
0000
0000
0100
0000
0000
0001
0000
,  // measure 46
0010
0000
0000
0010
0000
0000
0100
0000
1000
0000
0000
1000
0000
0000
0100
0000
,  // measure 47
0001
0000
0000
0001
0000
0000
0100
0000
0010
0000
0000
0010
0000
0000
0001
0000
,  // measure 48
1000
0000
0000
1000
0000
0000
0010
0000
0100
0000
0000
0100
0000
0000
0001
0000
,  // measure 49
1000
0000
0000
0100
0000
0000
1000
0000
0001
0000
0000
0100
0000
0000
0010
0000
,  // measure 50
1000
0000
0000
0001
0000
0000
0010
0000
0100
0000
0000
1000
0000
0000
0100
0000
,  // measure 51
0010
0000
0000
0001
0000
0000
1000
0000
0010
0000
0000
0100
0000
0000
0001
0000
,  // measure 52
1000
0000
0000
0100
0000
0000
0010
0000
0001
0000
0000
1000
0000
0000
0010
0000
,  // measure 53
0100
0000
0001
0000
1100
0000
1000
0100
,  // measure 54
0001
0000
0001
0100
1000
0000
0010
0100
,  // measure 55
0001
0000
1000
0000
0100
0000
0010
0001
,  // measure 56
1000
0000
0010
1000
0001
0000
1100
0000
,  // measure 57
0101
0000
0010
0000
0100
0000
0010
0001
,  // measure 58
0100
0000
0010
1000
0100
0000
0100
1000
,  // measure 59
0020
0000
1000
0000
0100
0000
1030
2000
,  // measure 60
0000
0000
0001
0002
0000
0000
3003
0000
,  // measure 61
1001
0000
0000
1000
0000
0000
1001
0000
0000
0001
0000
0000
0100
0000
0010
0000
,  // measure 62
0110
0000
0000
0000
;

//---------------dance-single - C. Picardy----------------
#NOTES:
     dance-single:
     :
     Hard:
     9:
     0.623249,0.603206,0.235547,0.184341,0.348200,426.000000,403.000000,23.000000,18.000000,4.000000,0.000000,0.623249,0.603206,0.235547,0.184341,0.348200,426.000000,403.000000,23.000000,18.000000,4.000000,0.000000:
0000
0000
0000
0000
,
0000
0000
0000
0000
,
0000
0000
0000
0000
,
0000
0000
0000
0000
,
1000
0000
1000
0100
0000
0000
0010
0000
0001
0000
0001
1000
0000
0000
0010
0000
,
0100
0000
0100
0001
0000
0000
1000
0000
0100
0000
0100
1000
0000
0000
0001
0000
,
0100
0000
0100
1000
0000
0000
1000
0000
0100
0000
0100
0001
0000
0000
1000
0000
,
0100
0000
0100
0001
0000
0000
0100
0000
1000
0000
1000
0010
0000
0010
1000
0000
,
0001
0000
0100
0010
0000
0000
1000
0000
0010
0000
0100
0010
0000
0000
1000
0000
,
0100
0000
0010
0100
0000
0000
0010
0000
0001
0000
0010
0100
0000
0000
1000
0000
,
0010
0000
0100
0001
0000
0000
0010
0000
0100
0000
1000
0001
0000
0000
0100
0000
,
0010
0000
1000
0001
0000
0000
0010
0000
0100
0000
1000
0001
0000
0000
0100
0000
,
0101
1100
0110
0011
,
1001
0000
0001
0100
0010
0100
0001
0100
,
0010
1000
0100
1000
0010
1000
0100
0010
,
0001
0000
1100
0000
0101
0000
1000
0100
,
0010
0000
0100
0000
1000
0000
0100
0000
0010
0000
0100
0000
1000
0100
1000
0100
,
1000
0000
0101
0000
0011
0000
0001
0100
,
1000
0100
0001
0100
1000
0100
0001
0010
,
0200
0000
0001
0000
1000
0000
0310
0100
,
0002
0000
0000
0000
1000
0000
1003
0000
0000
0000
0001
0000
1000
0010
1000
0010
,
1000
0000
0000
1000
0100
0000
0000
0100
0010
0000
0000
0010
0100
0000
0010
0000
,
0001
0000
0000
0001
0100
0000
0000
0100
0010
0000
0000
0010
1000
0000
0010
0000
,
0100
0000
0000
0100
0001
0000
0000
0001
1000
0000
0000
1000
0100
0000
1000
0000
,
0010
0000
0000
0010
0100
0000
0000
0100
0001
0000
0000
0001
1000
0000
0100
1000
,
0100
0000
0000
0100
1000
0000
0000
1000
0010
0000
0000
0010
0001
0000
0010
0000
,
1000
0000
0000
1000
0100
0000
0000
0100
0001
0000
0000
0001
0100
0000
1000
0000
,
0010
0000
0000
0010
0001
0000
0000
0001
0010
0000
0000
0010
1000
0000
0100
0000
,
0010
0000
0000
0010
0001
0000
0000
0001
0010
0000
0000
0010
0100
0000
1000
0000
,
1002
0000
0100
0203
00M0
0000
M000
0000
,
0320
0001
1000
0130
,
1200
0000
0010
0320
0000
0000
0130
0000
,
1000
0100
0001
0100
1000
0000
1010
0000
,
0012
0000
0100
0203
M000
0000
00M0
0000
,
2300
0000
0200
3000
0002
0300
0020
0003
,
0200
0030
0001
0302
0000
0000
1003
0000
,
0010
0100
1000
0100
0010
0100
1000
0001
,
0100
0000
0001
0100
0010
1000
0010
0100
,
0000
0100
0001
0010
0100
0010
0001
1000
,
0010
0000
1000
0100
0000
1000
0010
0000
,
0101
0000
0100
0010
0000
0010
1000
0001
,
1001
0000
1000
0100
0001
0100
1000
0010
,
0000
0010
0001
0010
1000
0010
0100
0001
,
0010
0000
0100
0010
0000
0100
1000
0100
,
0001
0000
0100
0010
0000
0100
0010
0001
,
1000
0000
0001
1000
0000
0000
0010
0000
1000
0000
0010
1000
0000
0000
0100
0000
,
1000
0000
0100
1000
0000
0000
0001
0000
0100
0000
0001
0100
0000
0000
0001
0000
,
0010
0000
0001
1000
0000
0000
0010
0000
1000
0000
0001
1000
0000
0000
0100
0000
,
0010
0000
0100
1000
0000
0000
0001
0000
1000
0000
0100
0010
0000
0010
0100
0000
,
1000
0000
0010
0100
0000
0000
0001
0000
1000
0000
0100
0010
0000
0000
0100
0000
,
1000
0000
0001
0100
0000
0000
0010
0000
1000
0000
0001
0100
0000
0000
0010
0000
,
1000
0000
0100
0001
0000
0000
0100
0000
1000
0000
0010
0001
0000
0000
0010
0000
,
1000
0000
0010
0100
0000
0000
0001
0000
0010
0000
0100
0010
0000
0010
0100
0000
,
1100
0000
0001
0100
1000
0100
0001
0100
,
1000
0100
0001
0010
1000
0010
0100
0010
,
0001
0000
0110
0000
1001
0000
1000
0100
,
0010
0000
0100
0000
1000
0000
0010
0000
0100
0000
0001
0000
0010
0001
0010
0001
,
0010
0000
1001
0000
0110
0000
1000
0100
,
1000
0100
0010
0001
0010
0001
1000
0100
,
0020
0000
0001
0000
1000
0000
0130
0100
,
2000
0000
0001
3002
0000
0100
0103
0000
,
0010
0000
0000
0110
0000
0000
0100
0000
0000
0101
0000
0000
1000
0000
0100
0000
,
1001
0000
0000
0000
;
