#TITLE:Book of Love;
#SUBTITLE:;
#ARTIST:Hit'n'Hide;
#TITLETRANSLIT:;
#SUBTITLETRANSLIT:;
#ARTISTTRANSLIT:;
#GENRE:;
#CREDIT:;
#BANNER:bookoflovebn.png;
#BACKGROUND:bookoflovebg.png;
#LYRICSPATH:;
#CDTITLE:;
#MUSIC:bookoflove.ogg;
#OFFSET:-0.728829;
#SAMPLESTART:16.160004;
#SAMPLELENGTH:12.000000;
#SELECTABLE:YES;
#BPMS:0.000000=139.990005
;
#STOPS:
;
#BGCHANGES:;
#KEYSOUNDS:;
#ATTACKS:;

//---------------dance-single - C. Picardy----------------
#NOTES:
     dance-single:
     :
     Beginner:
     1:
     0.090711,0.115273,0.048844,0.000000,0.000000,60.000000,5.000000,0.000000,0.000000,0.000000,0.000000,0.090711,0.115273,0.048844,0.000000,0.000000,60.000000,5.000000,0.000000,0.000000,0.000000,0.000000:
0000
0000
0000
0000
,
0000
0000
0000
0000
,
0000
0000
0000
0000
,
0000
0000
0000
0000
,
0010
0000
0000
0000
,
0000
0000
0000
0000
,
0100
0000
0000
0000
,
0000
0000
0000
0000
,
1001
0000
0000
0000
,
0001
0000
0000
0000
,
0001
0000
0000
0000
,
1000
0000
0000
0000
,
1000
0000
0000
0000
,
0100
0000
0000
0000
,
0100
0000
0000
0000
,
0010
0000
0000
0000
,
0010
0000
0000
0000
,
1001
0000
0000
0000
,
0100
0000
0000
0000
,
0100
0000
0000
0000
,
0010
0000
0000
0000
,
0010
0000
0000
0000
,
1000
0000
0000
0000
,
1000
0000
0000
0000
,
0001
0000
0000
0000
,
0100
0000
0000
0000
,
0001
0000
0000
0000
,
1000
0000
0000
0000
,
0100
0000
0100
0000
,
0100
0000
0000
0000
,
0010
0000
0000
0000
,
0001
0000
0000
0000
,
1000
0000
1000
0000
,
1000
0000
0000
0000
,
0100
0000
0000
0000
,
0010
0000
0000
0000
,
0001
0000
0000
0000
,
1000
0000
0000
0000
,
0100
0000
0000
0000
,
0010
0000
0000
0000
,
0100
0000
0100
0000
,
1001
0000
0000
0000
,
0010
0000
0000
0000
,
0100
0000
0000
0000
,
0001
0000
0000
0000
,
1000
0000
0000
0000
,
0100
0000
0000
0000
,
0010
0000
0000
0000
,
0001
0000
0000
0000
,
1000
0000
0000
0000
,
1001
0000
0000
0000
,
0100
0000
0000
0000
,
0010
0000
0010
0000
,
0010
0000
0000
0000
,
0001
0000
0001
0000
,
0001
0000
0000
0000
,
1000
0000
1000
0000
,
1000
0000
0000
0000
,
0010
0000
0000
0000
,
1001
0000
0000
0000
;

//---------------dance-single - C. Picardy----------------
#NOTES:
     dance-single:
     :
     Easy:
     3:
     0.240035,0.230545,0.107458,0.058613,0.000000,155.000000,11.000000,6.000000,0.000000,0.000000,0.000000,0.240035,0.230545,0.107458,0.058613,0.000000,155.000000,11.000000,6.000000,0.000000,0.000000,0.000000:
0000
0000
0000
0000
,
0000
0000
0000
0000
,
0000
0000
0000
0000
,
0000
0000
0000
0000
,
0020
0000
0030
0000
,
1000
0000
0000
0000
,
0200
0000
0300
0000
,
0010
0000
0010
0010
,
1001
0000
0000
0000
,
0001
1000
0001
1000
,
0100
0010
0100
0010
,
0001
0010
0001
0010
,
0100
0000
1001
0000
,
0100
0010
0100
0010
,
1000
0001
1000
0001
,
1000
0100
1000
0100
,
0010
0000
0010
0110
,
0001
1000
0100
0000
,
0010
0000
0001
0000
,
0100
0010
1000
0000
,
0100
0000
0010
0000
,
0001
0010
0100
0000
,
1000
0000
0100
0000
,
0010
0001
1000
0000
,
0010
0000
0110
0000
,
0100
0000
1000
0000
,
0001
0000
0100
0000
,
0010
0000
1000
0000
,
0100
0100
1001
0000
,
0100
0000
0010
0000
,
0001
0000
1000
0000
,
0100
0000
0010
0000
,
0100
0100
1001
0000
,
0100
0010
0100
0010
,
1000
0002
0003
0000
,
1000
0100
0010
0001
,
0010
0000
0100
0100
,
0010
0001
0010
0001
,
0100
0020
0030
1000
,
0001
0100
0010
1000
,
1001
0000
0110
0000
,
2002
0000
0000
3003
,
1000
0001
1000
0001
,
0100
0010
0100
0100
,
0001
1000
0001
1000
,
0100
0010
0100
0100
,
1000
0010
1000
0010
,
0100
0001
0100
0100
,
0010
1000
0001
0000
,
0010
0000
1001
0000
,
0001
1000
0100
0000
,
0010
0000
0001
0000
,
0100
0010
1000
0000
,
0100
0000
0010
0000
,
0100
0010
0001
0000
,
0010
0000
0100
0000
,
1000
0100
0010
0000
,
0001
0010
0100
1000
,
0010
0000
0100
0000
,
1001
0000
0000
0000
;

//---------------dance-single - C. Picardy----------------
#NOTES:
     dance-single:
     :
     Medium:
     5:
     0.360053,0.374636,0.263759,0.107458,0.000000,220.000000,27.000000,11.000000,0.000000,0.000000,0.000000,0.360053,0.374636,0.263759,0.107458,0.000000,220.000000,27.000000,11.000000,0.000000,0.000000,0.000000:
0000
0000
0000
0000
,
0000
0000
0000
0000
,
0000
0000
0000
0000
,
0000
0000
0000
0000
,
0010
0001
1000
0000
,
0110
0000
0100
0100
,
1001
0000
0110
0000
,
0010
0000
0100
0000
0001
1000
0001
0000
,
0220
0330
2002
3003
,
0100
0000
0010
0000
0100
0010
0100
0000
,
1000
1000
0001
0001
,
0100
0000
0010
0000
0100
0000
0001
1000
,
0001
0000
0010
0000
0100
0010
0100
0000
,
1000
0000
0100
0000
0010
0001
0010
0000
,
0100
0100
1000
1000
,
0100
0000
0010
0000
0001
0000
0100
0010
,
1000
0100
0011
1100
,
0001
1000
0100
0010
,
0000
0001
0000
0001
1000
0000
1000
0000
,
0100
0010
0100
0010
,
0000
0100
1000
0000
1100
0000
0110
0000
,
0001
0100
0001
0100
,
0000
0010
0000
0010
0100
0000
0100
0000
,
0010
0000
1000
0000
0001
0000
1000
0100
,
0010
0000
0110
0100
,
1000
0001
0100
1000
,
0100
0010
1000
0100
,
0020
0000
0001
0000
0130
0000
1000
0100
,
0010
1001
0110
0000
,
0001
1000
0100
0010
,
0100
1000
0010
0100
,
0002
0000
0010
0000
1003
0000
0010
1000
,
0100
0110
1001
0000
,
0010
0100
0010
0100
,
0001
0000
1000
0001
0000
0000
1000
0000
,
0100
0100
0010
0010
,
0001
0000
0000
0000
0100
0010
0100
0000
,
0010
1000
0001
1000
,
0010
0000
1000
0100
0000
0000
0010
0000
,
0011
0000
1100
0000
,
0100
0010
0100
0000
0001
1000
0001
0000
,
0220
0000
0000
0330
,
0001
0010
0100
1000
,
0010
0000
1000
0001
0100
0000
0100
0000
,
0010
1000
0010
1000
,
0001
0000
0100
0000
0010
1000
0100
0000
,
0010
0100
0010
0001
,
1000
0000
0010
0100
0001
0000
0001
0000
,
1000
1000
0100
0010
,
0011
0100
1001
0101
,
2000
0010
0010
3001
,
0000
0100
0000
0100
0010
0000
1000
0000
,
0002
0010
1000
1003
,
0000
0010
0100
0000
1000
0000
1000
0000
,
0200
0010
1000
1300
,
0000
0001
0000
1000
0001
0000
1000
0000
,
0110
0100
0011
0100
,
1010
0000
1001
0000
0010
0100
1000
0000
,
0011
0000
0101
0000
,
1100
0000
0000
0000
;

//---------------dance-single - C. Picardy----------------
#NOTES:
     dance-single:
     :
     Hard:
     6:
     0.461928,0.403454,0.371217,0.146533,0.000000,278.000000,38.000000,15.000000,0.000000,0.000000,0.000000,0.461928,0.403454,0.371217,0.146533,0.000000,278.000000,38.000000,15.000000,0.000000,0.000000,0.000000:
0000
0000
0000
0000
,
0000
0000
0000
0000
,
0000
0000
0000
0000
,
0000
0000
0000
0000
,
0110
0000
1000
0000
,
0101
0000
0010
0010
,
0110
0000
1010
0000
,
0101
0000
0010
0000
1000
0001
0100
0010
,
0200
0000
0320
0000
,
1030
0001
0000
0001
1000
0100
0010
0000
,
0010
0010
0100
0100
1000
0000
0110
0000
,
0001
1000
0000
1000
0001
0000
1000
0010
,
0100
0001
0000
0001
0100
0010
0100
0000
,
0010
1000
0000
1000
0100
0010
0001
0000
,
1000
0100
0001
0100
1000
0000
1000
0000
,
0001
0100
0000
0100
0001
0000
0100
0010
,
0110
0100
1010
0101
,
1000
0100
0001
0000
0001
0100
1000
0000
,
1000
0100
0010
0000
0011
0000
1100
0000
,
0001
0100
1000
0000
1000
0100
0001
0000
,
0001
0100
0010
0000
1010
0000
0101
0000
,
0010
1000
0100
0000
0100
1000
0010
0000
,
0010
0100
0001
0000
0101
0000
1100
0000
,
0010
0001
0100
0000
0100
0001
0010
0000
,
0101
0010
1100
0010
,
0000
1000
0100
1000
0000
0001
0100
0001
,
0000
0000
1000
0001
0100
0000
0100
0000
,
0001
0000
0001
0001
0000
1000
1000
0100
,
0010
0110
1001
0100
,
0000
0010
1000
0100
0000
0010
0001
0100
,
0000
0000
0010
0100
0010
0000
1001
0000
,
0100
0000
0010
0010
0000
0001
0001
1000
,
0100
0011
1001
0000
,
0002
0203
2300
3200
,
0302
0000
1000
1003
0000
0000
0100
0010
,
0001
0010
0100
1000
0100
0010
0000
0001
,
1000
0000
1000
0000
0010
0100
0010
0000
,
2001
3100
0120
0031
,
0201
0000
0010
0310
0000
0000
1000
0001
,
0100
0010
0100
0001
1000
0001
0000
1000
,
1000
0100
0010
0000
0001
0100
0010
0000
,
2002
0000
0000
3003
,
0100
0010
0000
0100
0010
1000
0100
0000
,
0100
1000
0100
0010
0001
0000
1001
0000
,
0001
1000
0000
1000
0001
0000
0100
0010
,
0100
0001
0000
1000
0001
0001
1001
0000
,
1000
0100
0000
1000
0100
0010
0001
0000
,
0100
0010
1000
0100
0010
0000
0110
0000
,
0001
0010
0000
0010
0001
0000
0010
0100
,
1000
0001
0000
0100
0010
0010
0110
0000
,
2001
0010
0010
3100
,
0000
0010
0000
0100
0010
0000
0010
0000
,
0012
1000
0100
0103
,
0000
0100
0010
0100
0001
0000
0110
0000
,
1020
0001
0100
0130
,
0000
0001
0000
1000
1000
0000
1100
0000
,
0011
0000
0100
0000
1010
0000
0001
0100
,
0010
1000
0000
0100
0010
0010
0100
0000
,
1000
0100
0001
0000
0001
0100
1000
0000
,
0101
0000
0000
0000
;

//---------------dance-single - C. Picardy----------------
#NOTES:
     dance-single:
     :
     Challenge:
     9:
     0.693590,0.634000,0.400524,0.498212,0.219800,405.000000,41.000000,51.000000,15.000000,1.000000,1.000000,0.693590,0.634000,0.400524,0.498212,0.219800,405.000000,41.000000,51.000000,15.000000,1.000000,1.000000:
// measure 0
0000
0000
0000
0000
,  // measure 1
0000
0000
0000
0000
,  // measure 2
0000
0000
0000
0000
,  // measure 3
0000
0000
0000
0000
,  // measure 4
1001
0200
0320
0030
,  // measure 5
1001
1000
0000
0001
1000
0000
0100
0000
,  // measure 6
1001
0000
0100
0000
1001
0000
0010
0100
,  // measure 7
0001
0000
1000
0000
0100
0000
1000
0000
0100
0010
0100
0010
0001
1000
0001
1000
,  // measure 8
0001
0001
0002
0000
1003
1000
2000
0000
,  // measure 9
3001
0100
0000
0010
1000
0100
0001
0100
,  // measure 10
1000
0000
1000
0000
0010
0000
0010
0000
0220
0000
0000
0330
2020
0000
0000
3030
,  // measure 11
1000
0100
0000
0001
0100
0000
0010
0001
,  // measure 12
0100
0010
0000
1000
0001
0001
1100
0000
,  // measure 13
0010
0001
0000
0100
1000
0100
0010
1000
,  // measure 14
0100
0000
0100
0000
0010
0000
0010
0000
0022
0000
0000
0033
2002
0000
0000
3003
,  // measure 15
0100
0010
0000
1000
0001
0000
0100
0010
,  // measure 16
1000
0000
0001
0000
1000
0000
0001
0000
0100
0010
0100
0010
1000
0001
1000
0001
,  // measure 17
1000
0000
0100
0000
0010
0000
0100
0000
1000
0000
0001
0010
0001
0000
0100
0000
,  // measure 18
0010
0000
1000
0010
1000
0000
0001
0000
1000
0000
1000
0000
0010
0000
0010
0000
,  // measure 19
0100
0000
0001
0000
0010
0000
0100
0000
1000
0000
0010
0100
0010
0000
1000
0000
,  // measure 20
0001
0000
0100
0001
0100
0000
0010
0000
0100
0000
0100
0000
0001
0000
0001
0000
,  // measure 21
1001
0000
1000
0000
0010
0000
0100
0000
0001
0000
0100
0010
0100
0000
0010
0000
,  // measure 22
1000
0000
0100
1000
0100
0000
0010
0000
0001
0000
0001
0000
0010
0000
0010
0000
,  // measure 23
1100
0000
1000
0001
0101
0000
0100
0010
,  // measure 24
0110
0000
1000
0000
1001
0000
0100
0000
0010
0000
0100
0010
0100
0000
0010
0000
,  // measure 25
0000
1000
0100
0010
0000
0001
0010
0100
,  // measure 26
1000
0100
1000
0100
1000
0000
0001
0000
0010
0001
0010
0001
0010
0000
0100
0000
,  // measure 27
2000
0000
3100
0200
0000
0310
0001
0100
,  // measure 28
0220
0000
0000
0330
2020
0000
0000
3030
2002
0000
0000
0000
3003
0000
M00M
0000
,  // measure 29
0000
0010
0100
0001
0000
0100
0010
1000
,  // measure 30
0001
0100
0001
0100
0001
0000
1000
0000
0010
1000
0010
1000
0010
0000
1000
0000
,  // measure 31
1001
0000
1000
1000
1010
0000
0100
0010
,  // measure 32
0110
0000
0100
0000
0101
0000
1000
0000
0001
1000
0001
1000
0100
1000
0100
1000
,  // measure 33
0020
0000
0200
0030
20M0
0300
0M02
3000
,  // measure 34
M020
0003
100M
2000
0000
0030
30M1
0100
,  // measure 35
1000
0100
0001
1000
0200
0020
0000
0001
,  // measure 36
0330
0000
0000
0000
1000
0100
1001
0000
,  // measure 37
0202
0000
0000
0303
0220
0000
0000
0330
2020
0000
0000
3030
2002
0000
0000
3003
,  // measure 38
2200
0000
0000
3300
0020
0000
MM02
0000
0000
0000
0033
0000
0100
0000
0010
0000
,  // measure 39
0110
0000
1000
0001
1001
0000
0100
0010
,  // measure 40
1000
0000
1000
0000
1001
0000
0000
0000
0100
0010
0100
0010
1000
0001
1000
0001
,  // measure 41
0200
0000
M00M
0000
M04M
0000
M00M
0330
,  // measure 42
1000
0001
0100
0001
1000
1000
0100
0100
,  // measure 43
0010
0000
0001
0000
0100
0000
0010
0000
0220
0000
0000
0330
2020
0000
0000
3030
,  // measure 44
0001
0100
1000
0100
0010
1000
0001
0100
,  // measure 45
0010
0010
1000
0100
0010
0010
0011
0000
,  // measure 46
1000
0100
0001
0100
1000
1000
0010
0010
,  // measure 47
0001
0000
0010
0000
1000
0000
0100
0000
2002
0000
0000
3003
0202
0000
0000
0303
,  // measure 48
0010
0001
0100
0010
0100
0001
0010
0100
,  // measure 49
1000
0000
0001
0000
1000
0000
0001
0000
1000
0100
1000
0100
0010
0001
0010
0001
,  // measure 50
1000
0000
0010
1000
0010
0000
0100
0000
0001
0000
1000
0001
1000
0000
0100
0000
,  // measure 51
1000
0000
0001
1000
0001
0000
0100
0000
0010
0000
0010
0000
1000
0000
1000
0000
,  // measure 52
0001
0000
0100
0001
0100
0000
0001
0000
0010
0000
0100
0010
0100
0000
0010
0000
,  // measure 53
0001
0000
1000
0100
1000
0000
0001
0000
0010
0000
0010
0000
0100
0000
0100
0000
,  // measure 54
1000
0000
0100
0001
0100
0000
1000
0000
0010
0000
0001
0010
0001
0000
1000
0000
,  // measure 55
0100
0000
0010
1000
0010
0000
0100
0000
0001
0000
0001
0000
1000
0000
1000
0000
,  // measure 56
1100
0000
0010
0000
0101
0000
1000
0001
,  // measure 57
1001
0000
0000
0000
1100
0000
0000
0000
0110
0000
0010
0100
0010
0000
0001
0000
,  // measure 58
0200
0001
0301
0000
2000
0100
3100
0000
,  // measure 59
0011
0000
0000
0000
;
