#TITLE:Blue (Da Ba Dee);
#SUBTITLE:;
#ARTIST:Eiffel 65;
#TITLETRANSLIT:;
#SUBTITLETRANSLIT:;
#ARTISTTRANSLIT:;
#GENRE:;
#CREDIT:;
#BANNER:bluedabadeebn.png;
#BACKGROUND:bluedabadeebg.png;
#LYRICSPATH:;
#CDTITLE:;
#MUSIC:bluedabadee.ogg;
#OFFSET:-0.572097;
#SAMPLESTART:93.829933;
#SAMPLELENGTH:15.000011;
#SELECTABLE:YES;
#BPMS:0.000000=127.980011
;
#STOPS:
;
#BGCHANGES:;
#KEYSOUNDS:;
#ATTACKS:;

//---------------dance-single - C. Picardy----------------
#NOTES:
     dance-single:
     :
     Beginner:
     1:
     0.084829,0.104510,0.031670,0.000000,0.000000,71.000000,4.000000,0.000000,0.000000,0.000000,0.000000,0.084829,0.104510,0.031670,0.000000,0.000000,71.000000,4.000000,0.000000,0.000000,0.000000,0.000000:
0000
0000
0000
0000
,
0000
0000
0000
0000
,
0000
0000
0000
0000
,
0000
0000
0000
0000
,
1000
0000
0000
0000
,
0000
0000
0000
0000
,
0001
0000
0000
0000
,
0000
0000
0000
0000
,
1000
0000
0000
0000
,
1000
0000
0000
0000
,
0001
0000
0000
0000
,
0001
0000
0000
0000
,
0100
0000
0000
0000
,
0100
0000
0000
0000
,
0010
0000
0000
0000
,
0010
0000
0000
0000
,
0100
0000
0100
0000
,
0100
0000
0000
0000
,
0010
0000
0010
0000
,
0010
0000
0000
0000
,
1000
0000
1000
0000
,
1000
0000
0000
0000
,
0001
0000
0001
0000
,
0001
0000
0000
0000
,
0010
0000
0000
0000
,
0010
0000
0000
0000
,
1001
0000
0000
0000
,
1000
0000
0000
0000
,
0001
0000
0000
0000
,
0100
0000
0000
0000
,
0010
0000
0000
0000
,
1000
0000
0000
0000
,
0001
0000
0000
0000
,
0100
0000
0000
0000
,
0110
0000
0000
0000
,
1000
0000
0000
0000
,
0001
0000
0000
0000
,
0100
0000
0000
0000
,
0010
0000
0000
0000
,
1000
0000
0000
0000
,
0001
0000
0000
0000
,
0100
0000
0000
0000
,
1001
0000
1000
0000
,
1000
0000
0000
0000
,
0001
0000
0001
0000
,
0001
0000
0000
0000
,
0100
0000
0100
0000
,
0100
0000
0000
0000
,
0010
0000
0010
0000
,
0010
0000
0000
0000
,
1001
0000
0100
0000
,
0010
0000
0000
0000
,
0001
0000
1000
0000
,
0001
0000
0000
0000
,
0010
0000
0100
0000
,
0010
0000
0000
0000
,
1000
0000
0001
0000
,
1000
0000
0000
0000
,
0010
0000
0000
0000
,
0000
0000
0000
0000
,
0100
0000
0000
0000
,
0000
0000
0000
0000
,
0001
0000
0000
0000
,
0000
0000
0000
0000
,
1000
0000
0000
0000
,
0100
0000
0100
0000
,
0100
0000
0000
0000
;

//---------------dance-single - C. Picardy----------------
#NOTES:
     dance-single:
     :
     Easy:
     3:
     0.242046,0.261274,0.055422,0.071257,0.000000,198.000000,7.000000,9.000000,0.000000,0.000000,0.000000,0.242046,0.261274,0.055422,0.071257,0.000000,198.000000,7.000000,9.000000,0.000000,0.000000,0.000000:
0000
0000
0000
0000
,
0000
0000
0000
0000
,
0000
0000
0000
0000
,
0000
0000
0000
0000
,
1000
0000
0001
0000
,
1000
0000
0100
0000
,
0010
0000
0100
0000
,
1000
0000
0002
0003
,
1001
0010
1000
1000
,
1000
0000
0001
0100
,
0010
1000
0001
0001
,
0001
0000
1000
0100
,
0010
0001
0100
0100
,
0100
0000
0010
1000
,
0001
0100
0010
0010
,
0010
0000
0200
0300
,
1001
0001
1000
0001
,
0100
0010
0100
0010
,
1000
0010
1000
0010
,
1000
0100
1000
0100
,
0010
0100
1000
0001
,
0010
0100
1000
0001
,
0100
0010
1000
0001
,
1000
1000
2000
0000
,
3001
0001
1000
1000
,
0010
0010
0220
0000
,
0330
0001
0100
0010
,
1000
1000
0000
0001
,
0000
1000
0100
0000
,
1000
0001
0001
0100
,
0000
1000
0001
0100
,
0010
0010
0000
1000
,
0000
0001
1000
0000
,
0001
0001
1000
0100
,
0110
0100
1000
0001
,
0100
0200
0300
0010
,
1000
0010
0010
0000
,
1000
0001
0010
0100
,
0100
1000
0100
0010
,
0001
1000
0000
0010
,
0100
0010
0010
0000
,
2002
0000
0000
3003
,
0010
0000
0100
0000
,
0001
0000
1000
1000
,
0010
0000
0100
0000
,
0010
0000
0100
0100
,
0010
0000
1000
0000
,
0100
0000
0010
0010
,
0001
0000
1000
0000
,
0010
0000
0100
0010
,
1001
1000
0001
1000
,
0100
0010
0100
0010
,
0001
0010
0001
0010
,
0100
1000
0100
1000
,
0001
0010
0100
1000
,
0001
0010
0100
1000
,
0001
0100
0010
1000
,
0001
0100
0020
1030
,
0001
0000
0100
0100
,
0000
0010
1000
1000
,
0001
0000
0010
0010
,
0000
0100
1000
0100
,
1000
0000
0010
0010
,
0000
0001
1000
1000
,
0010
0100
0001
0000
,
1000
0000
0100
0000
,
1001
0000
0000
0000
;

//---------------dance-single - C. Picardy----------------
#NOTES:
     dance-single:
     :
     Medium:
     5:
     0.316696,0.287402,0.087091,0.039587,0.000000,264.000000,11.000000,5.000000,0.000000,0.000000,0.000000,0.316696,0.287402,0.087091,0.039587,0.000000,264.000000,11.000000,5.000000,0.000000,0.000000,0.000000:
// measure 0
0000
0000
0000
0000
,  // measure 1
0000
0000
0000
0000
,  // measure 2
0000
0000
0000
0000
,  // measure 3
0000
0001
0001
0100
,  // measure 4
0010
1000
1000
0001
,  // measure 5
0100
0010
0010
1000
,  // measure 6
0001
0010
0100
1000
,  // measure 7
0001
0000
0000
1000
0001
0000
0100
0000
,  // measure 8
1001
0100
0010
1000
,  // measure 9
0001
0000
1000
0000
0100
0000
0010
0001
,  // measure 10
0010
0100
1000
0001
,  // measure 11
0100
0000
0010
0000
1000
0000
0001
0100
,  // measure 12
0001
1000
0100
0010
,  // measure 13
0100
0000
1000
0000
0010
0000
1000
0010
,  // measure 14
1000
0000
0001
0000
0100
0000
0001
2000
,  // measure 15
0000
0000
0000
0001
3001
0000
0001
0000
,  // measure 16
1000
0000
0010
0000
1000
0000
0001
0100
,  // measure 17
0000
0010
1000
0001
,  // measure 18
0010
0000
0100
0000
1000
0000
0100
0010
,  // measure 19
0000
0001
1000
0010
,  // measure 20
0100
0000
0001
0000
1000
0000
0010
1000
,  // measure 21
0000
0100
0010
0001
,  // measure 22
0100
0000
0010
0000
1000
0000
0001
1000
,  // measure 23
0000
0001
0000
1000
0000
0001
0000
0000
,  // measure 24
1000
1001
0001
1001
,  // measure 25
0100
0000
0110
0000
0000
0010
0100
0000
,  // measure 26
1001
1000
0010
0100
,  // measure 27
0001
1000
0001
0000
0000
0100
0100
0000
,  // measure 28
0000
0001
1000
0100
,  // measure 29
0010
0000
0001
1000
0000
0010
0010
0000
,  // measure 30
0000
0100
0010
1000
,  // measure 31
0001
0100
0010
0000
0000
1000
1000
0000
,  // measure 32
0000
0001
2000
0000
,  // measure 33
3010
0000
0100
0000
0001
1000
1000
0000
,  // measure 34
0101
0010
1000
0001
,  // measure 35
1000
0100
1000
0000
0000
0010
0010
0000
,  // measure 36
0001
0100
0010
1000
,  // measure 37
0001
0000
1000
0100
0000
1000
0100
0000
,  // measure 38
0011
0100
0010
1000
,  // measure 39
0100
0010
0001
0000
0000
0100
0010
0000
,  // measure 40
1001
0010
0100
0010
,  // measure 41
0002
0000
0000
1000
1003
0000
0100
0000
,  // measure 42
0110
0000
1000
0000
0001
0000
0100
0010
,  // measure 43
0000
1000
0001
1000
,  // measure 44
0100
0000
0010
0000
0100
0000
1000
0001
,  // measure 45
0000
0010
0100
0010
,  // measure 46
0001
0000
1000
0000
0001
0000
0100
0010
,  // measure 47
0000
1000
0001
0100
,  // measure 48
0010
0000
1000
0000
0001
0000
0100
0010
,  // measure 49
0000
1000
0001
0010
,  // measure 50
1001
0000
0100
0000
0010
0000
1000
0010
,  // measure 51
1000
0000
0001
0000
0010
0000
0100
1000
,  // measure 52
0100
0000
0010
0000
0001
0000
0100
0001
,  // measure 53
0100
0000
0001
0000
1000
0000
0010
1000
,  // measure 54
0001
0000
0010
0000
0100
0000
1000
0100
,  // measure 55
0010
0000
0001
0000
1000
0000
0010
1000
,  // measure 56
0001
0000
0010
0000
0100
0000
1000
0002
,  // measure 57
0000
0000
0000
0100
0103
0000
0110
0000
,  // measure 58
0001
0000
1000
0000
0001
0000
0100
0010
,  // measure 59
0000
0100
0010
0000
1000
0000
0001
0000
,  // measure 60
1000
0000
0100
0000
1000
0000
0001
1000
,  // measure 61
0000
0001
1000
0000
0100
0000
0010
0000
,  // measure 62
0001
0000
0100
0000
0010
0000
1000
0010
,  // measure 63
0000
1000
0010
0000
0100
0000
0001
0000
,  // measure 64
0010
0000
0100
0000
1000
0000
0001
0020
,  // measure 65
0000
0000
0000
0000
,  // measure 66
0130
0000
0000
0000
;

//---------------dance-single - C. Picardy----------------
#NOTES:
     dance-single:
     :
     Hard:
     7:
     0.477306,0.418039,0.087091,0.055422,0.023752,404.000000,11.000000,7.000000,0.000000,0.000000,0.000000,0.477306,0.418039,0.087091,0.055422,0.023752,404.000000,11.000000,7.000000,0.000000,0.000000,0.000000:
0000
0000
0000
0000
,
0000
0000
0000
0000
,
0000
0000
0000
0000
,
0000
0000
1000
0100
0001
0000
0001
0100
,
1000
0000
0001
0000
0010
0001
0010
0100
,
0000
0000
0010
0000
0001
0000
0001
0100
,
1000
0000
1000
0100
0001
0000
2000
0002
,
0000
0000
3003
0000
0000
0000
0100
0010
0100
0000
0000
0000
0010
0000
0000
0000
,
1001
0000
0001
0100
0010
0100
0001
1000
,
0000
0000
0010
0100
0001
0000
0001
0100
,
0010
0000
0010
1000
0100
1000
0010
0100
,
0000
0000
0001
0010
0100
0000
0100
0010
,
0001
0000
1000
0100
0010
0001
0010
0100
,
0000
0000
0010
0100
1000
0000
0010
0100
,
0001
0000
1000
0001
0100
0010
2000
0002
,
0000
0000
3003
0000
0000
0000
0010
0100
0010
0000
0000
0000
1001
0000
0000
0000
,
0001
0100
1000
0100
0001
0100
0010
1000
,
0000
0001
0010
0100
1000
0100
0010
0001
,
1000
0100
0001
0100
1000
0100
0010
0001
,
0000
0010
0100
1000
0001
0010
0100
1000
,
0001
0010
1000
0010
0001
0010
0100
1000
,
0000
0010
0100
0001
0010
0100
1000
0001
,
0100
0001
0010
0001
0100
0010
1000
0001
,
0000
1000
0000
0001
0000
1000
0000
0000
,
0001
0101
1000
1100
,
0010
0000
0000
0000
1001
0000
0000
0000
0000
0000
0001
0000
0100
0010
0000
0010
,
0100
0001
0010
0001
0100
0001
0010
0001
,
0100
0010
1000
0000
0000
0001
0100
1000
,
0000
0100
0001
0010
0100
1000
0000
0001
,
1000
0100
0010
0001
0001
1000
1000
0100
,
0000
0010
0100
0010
0001
0010
0100
0010
,
0001
0001
1000
0000
0000
0100
1000
0001
,
0000
1000
0100
0010
0001
0001
0000
1000
,
0100
0100
1000
0001
0000
0010
0100
1000
,
0001
1000
0100
1000
0010
1000
0001
1000
,
0100
0010
0001
0000
0000
0100
0010
0000
,
1001
0000
1000
0001
0100
0010
0000
0010
,
0010
1000
0001
0100
0000
0010
0100
0000
,
1001
0000
0010
1000
0100
0010
0001
0010
,
0100
1000
0001
0000
0000
0010
0100
0000
,
1001
0000
0100
0001
0010
0010
0000
0100
,
0010
0000
0000
0000
0000
0000
0001
1000
0001
0000
0000
0000
0010
0000
0000
0000
,
1100
0000
0010
0100
1000
0100
0010
0001
,
0000
0000
1000
0100
0001
0000
0001
0100
,
1000
0000
0100
0010
0001
0100
0010
1000
,
0000
0000
0001
0100
1000
0000
1000
0100
,
0001
0000
0001
0100
0010
0100
0001
0010
,
0000
0000
0001
0010
1000
0000
1000
0010
,
0001
0000
0010
0100
1000
0001
0100
0020
,
0000
1000
0100
1030
,
0101
0000
0001
0100
0001
0100
0010
0100
,
0010
0100
0001
0100
0001
0100
0010
1000
,
0010
1000
0010
1000
0100
1000
0100
1000
,
0100
0010
0100
0010
0001
0010
0001
0010
,
0100
0010
0100
0010
0100
1000
0100
1000
,
0010
0100
0010
0100
0001
1000
0001
1000
,
0001
0010
0001
0010
0100
1000
0002
0020
,
0000
0000
0033
0000
0000
0000
0100
0010
0100
0000
0000
0000
1000
0000
0001
0000
,
0100
0010
1000
0100
0010
0010
0001
1000
,
0000
0010
0100
0001
1000
1000
0010
0100
,
0001
0001
1000
0100
0010
0010
0100
1000
,
0000
0001
0100
0010
1000
0010
0100
0010
,
1000
1000
0001
0010
0001
0001
0100
0010
,
0000
1000
0010
1000
0100
1000
0010
0100
,
0001
0001
0010
0100
1000
1000
0100
0010
,
0000
0001
0000
0100
0000
1000
0000
0001
,
1001
0000
0000
0000
;

//---------------dance-single - C. Picardy----------------
#NOTES:
     dance-single:
     :
     Challenge:
     9:
     0.688814,0.783823,0.253357,1.000000,0.091050,447.000000,32.000000,130.000000,24.000000,4.000000,0.000000,0.688814,0.783823,0.253357,1.000000,0.091050,447.000000,32.000000,130.000000,24.000000,4.000000,0.000000:
0000
0000
0000
0000
,
0000
0000
0000
0000
,
0000
0000
0000
0000
,
0000
0000
0001
0100
0020
0000
1030
0100
,
0020
0000
0031
0010
1000
0010
0001
2000
,
0000
0000
3001
0100
2000
0000
3100
0010
,
2000
0000
3100
0010
0001
1000
0020
0200
,
0000
0000
0000
0000
0330
0000
0001
1000
0001
0000
0000
0100
0010
0000
0100
0000
,
2001
0000
3001
1000
0100
0010
0002
0010
,
0013
0001
0100
0020
1000
1030
0001
0200
,
0010
0310
1000
0100
0020
0100
0130
2000
,
0001
3001
0100
0020
1000
1030
0001
0200
,
0010
0310
0100
0010
2000
0010
3010
0200
,
0001
0301
0100
0020
1000
1030
1000
0200
,
0001
0301
0200
1000
1300
0001
0100
2002
,
0000
0000
0000
0000
3003
0000
0100
0010
0100
0000
0000
0000
0010
0000
0100
0000
,
0001
0000
0100
0000
1000
0000
0100
0000
0002
0000
0200
0003
0020
0300
2000
0030
,
0000
3000
0010
0000
1000
0000
0100
0000
0001
0000
0100
0000
1000
0000
0100
0010
,
0001
0000
0010
0000
0100
0000
1000
0000
0020
0000
0200
0030
0002
0300
2000
0003
,
0000
3000
0001
0000
0100
0000
0010
1000
0001
0000
0010
0000
0100
0000
0010
0000
,
0001
0000
0100
0000
0010
0000
1000
0001
0200
0000
0020
0300
2000
0030
0002
3000
,
0000
0003
1000
0000
0010
0000
0100
0001
0100
0000
0010
0000
1000
0000
0001
0100
,
0001
0000
0010
0000
0100
0000
0010
0001
0020
0000
0200
0030
2000
0300
0002
0000
,
0000
3000
0200
0000
0003
0000
2000
0000
0300
0000
0002
0000
3000
0000
0010
0000
,
1003
M1M1
1000
M11M
,
0001
0000
0000
0000
11MM
0000
0000
0000
1000
0000
0001
0000
0100
0010
0000
0010
,
0100
0001
0010
0001
1000
0001
0010
0100
,
1000
1000
0002
0000
0003
1MM1
1MM1
1MM1
,
0000
0100
0010
0001
1000
1000
0000
0010
,
0100
0010
1000
0100
1000
1MM1
1MM1
1MM1
,
0000
0001
1000
0001
0100
0010
1000
0100
,
0010
0010
0002
0000
0003
11MM
11MM
11MM
,
0000
0001
0010
0001
1000
1001
0000
0100
,
0010
0100
1001
1001
0000
0110
0110
0000
,
1001
1000
0001
0100
0010
0100
0001
0010
,
0100
1000
0200
0000
0300
0110
0110
0000
,
0011
0001
0100
0010
1000
1000
0000
0001
,
0100
0000
1000
0000
0100
0000
0002
0000
0000
0003
1010
0000
1010
0000
0000
0000
,
1001
0100
0010
1000
0100
0010
0100
1000
,
0001
0100
0020
0000
0030
0101
0101
0000
,
1100
0100
0010
0001
1000
1000
0000
0002
,
2000
0000
0000
0000
3003
0000
0100
0010
0100
0000
0000
0001
1000
0000
0100
0000
,
2002
0000
0000
3003
0100
0000
0010
0000
2000
0000
0001
0000
3001
0000
0020
0000
,
0100
0130
0010
0200
1000
1300
0010
0200
,
0001
0301
0010
0200
1000
1300
0001
0200
,
0010
0310
1000
0100
0002
0100
0103
2000
,
0010
3010
0002
0010
0013
2000
0001
3002
,
1000
1003
0001
0200
1000
1300
0100
0020
,
1000
1030
0002
0100
0103
0010
1000
0001
,
0200
0000
0002
0000
1000
0303
0010
0000
,
1001
0000
0100
0010
1000
0001
0010
0100
,
2000
0000
0000
3010
0100
0000
0001
0000
2000
0000
0000
3010
0100
0000
0001
0000
,
0020
0000
0000
0130
0010
0000
0001
0000
1000
0000
0100
0000
0010
0000
0100
0000
,
2000
0000
0000
3001
0010
0000
0001
0000
0200
0000
0000
0310
1000
0000
0001
0000
,
0200
0000
0000
0310
1000
0000
0100
0000
0010
0000
0100
0000
1000
0000
0001
0000
,
0020
0000
0000
0031
0100
0000
0001
0000
0020
0000
0000
0130
0010
0000
0100
0000
,
2000
0000
0000
3001
0100
0000
0010
0000
1000
0000
0100
0000
0020
0000
0200
0000
,
0000
0000
0000
0000
0330
0000
1000
0001
1000
0000
0000
0000
0010
0000
0100
0000
,
2000
0000
0200
3000
0002
0300
0200
0003
2000
0300
0020
3000
0002
0030
0020
0003
,
0000
0000
2030
0000
0002
3000
0200
0003
2000
0300
0200
3000
0002
0300
0200
0003
,
2000
0300
0200
3000
0020
0300
2000
0030
0200
3000
0020
0300
2000
0030
0020
3000
,
0000
0000
0032
0000
0200
0003
0002
0300
0020
0003
2000
0030
0020
3000
0002
0030
,
2000
0003
0020
3000
0002
0030
0020
0003
2000
0030
0002
3000
0200
0003
2000
0300
,
0000
0000
3200
0000
0020
0300
2000
0030
0200
3000
0002
0300
0200
0003
2000
0300
,
0020
3000
0200
0030
0002
0300
2000
0003
0020
3000
0200
0030
0002
0300
0200
0000
,
0000
1000
0000
0010
0000
1000
0303
0001
,
1001
0000
0000
0000
;
