#TITLE:Blaue Augen;
#SUBTITLE:;
#ARTIST:Blümchen;
#TITLETRANSLIT:;
#SUBTITLETRANSLIT:;
#ARTISTTRANSLIT:;
#GENRE:;
#CREDIT:;
#BANNER:blaueaugenbn.png;
#BACKGROUND:blaueaugenbg.png;
#LYRICSPATH:;
#CDTITLE:;
#MUSIC:blaueaugen.ogg;
#OFFSET:-0.171435;
#SAMPLESTART:54.829403;
#SAMPLELENGTH:10.400005;
#SELECTABLE:YES;
#DISPLAYBPM:180.000000;
#BPMS:0.000000=180.009995
,112.000000=720.039978
,116.000000=180.009995
;
#STOPS:112.000000=0.249000,
113.000000=0.249000,
114.000000=0.249000,
115.000000=0.249000
;
#BGCHANGES:;
#KEYSOUNDS:;
#ATTACKS:;

//---------------dance-single - C. Picardy----------------
#NOTES:
     dance-single:
     :
     Beginner:
     1:
     0.112562,0.110646,0.050294,0.000000,0.000000,88.000000,6.000000,0.000000,0.000000,0.000000,0.000000,0.112562,0.110646,0.050294,0.000000,0.000000,88.000000,6.000000,0.000000,0.000000,0.000000,0.000000:
0000
0000
0000
0000
,
0000
0000
0000
0000
,
0000
0000
0000
0000
,
0000
0000
0000
0000
,
0010
0000
0000
0000
,
0010
0000
0000
0000
,
0100
0000
0100
0000
,
0100
0000
0000
0000
,
1001
0000
0000
0000
,
1000
0000
0000
0000
,
1000
0000
0000
0000
,
0001
0000
0000
0000
,
0001
0000
0000
0000
,
0100
0000
0000
0000
,
0100
0000
0000
0000
,
0010
0000
0000
0000
,
0010
0000
0000
0000
,
1000
0000
0000
0000
,
0000
0000
0000
0000
,
0001
0000
0000
0000
,
0000
0000
0000
0000
,
0100
0000
0000
0000
,
0000
0000
0000
0000
,
0010
0000
0000
0000
,
0000
0000
0000
0000
,
1000
0000
0000
0000
,
1000
0000
0000
0000
,
0001
0000
0000
0000
,
0001
0000
0000
0000
,
0100
0000
0000
0000
,
0100
0000
0000
0000
,
0010
0000
0000
0000
,
0010
0000
0000
0000
,
1000
0000
0000
0000
,
1000
0000
0000
0000
,
0001
0000
0000
0000
,
0001
0000
0000
0000
,
0100
0000
0100
0000
,
0100
0000
0000
0000
,
0010
0000
0010
0000
,
0010
0000
0000
0000
,
1000
0000
0000
0000
,
0001
0000
0000
0000
,
1000
0000
0000
0000
,
0001
0000
0000
0000
,
0100
0000
0000
0000
,
0010
0000
0000
0000
,
0100
0000
0000
0000
,
0010
0000
0000
0000
,
1000
0000
1000
0000
,
1000
0000
0000
0000
,
0010
0000
0000
0000
,
0100
0000
0000
0000
,
0001
0000
0001
0000
,
0001
0000
0000
0000
,
1000
0000
0000
0000
,
0100
0000
0000
0000
,
0110
0000
0000
0000
,
0001
0000
0000
0000
,
0110
0000
0000
0000
,
1000
0000
0000
0000
,
0110
0000
0000
0000
,
0001
0000
0000
0000
,
1001
0000
0000
0000
,
1001
0000
0000
0000
,
0100
0000
0000
0000
,
0010
0000
0000
0000
,
1000
0000
0000
0000
,
0001
0000
0000
0000
,
0010
0000
0000
0000
,
0100
0000
0000
0000
,
1000
0000
0000
0000
,
0001
0000
0000
0000
,
0100
0000
0100
0000
,
0100
0000
0000
0000
,
0010
0000
0000
0000
,
0100
0000
0000
0000
,
0010
0000
0010
0000
,
0010
0000
0000
0000
,
1000
0000
0000
0000
,
0001
0000
0000
0000
,
1000
0000
0000
0000
,
0100
0000
0000
0000
,
0010
0000
0000
0000
,
0001
0000
0000
0000
,
1000
0000
0000
0000
,
0010
0000
0000
0000
,
0100
0000
0000
0000
,
0010
0000
0000
0000
;

//---------------dance-single - C. Picardy----------------
#NOTES:
     dance-single:
     :
     Easy:
     3:
     0.269431,0.295057,0.108970,0.067058,0.000000,204.000000,13.000000,8.000000,0.000000,0.000000,0.000000,0.269431,0.295057,0.108970,0.067058,0.000000,204.000000,13.000000,8.000000,0.000000,0.000000,0.000000:
0000
0000
0000
0000
,
0000
0000
0000
0000
,
0000
0000
0000
0000
,
0000
0000
0000
0000
,
1001
0000
0000
0000
,
0110
0000
0000
0000
,
1001
0000
0110
0000
,
1000
0001
0100
0010
,
2002
0000
0000
3003
,
1000
0001
1000
0000
,
0010
0000
0100
0000
,
0001
1000
0001
0000
,
0010
0000
0100
0000
,
1000
0100
1000
0000
,
0001
0000
0010
0000
,
0100
0000
1000
0000
,
0001
0100
0010
0000
,
1000
0000
0001
0000
,
0110
0000
0000
0000
,
0100
0000
0001
0000
,
1000
0000
0000
0000
,
0010
0000
0100
0000
,
0100
0000
0000
0000
,
0001
0000
1000
0000
,
0100
0000
0000
0100
,
1000
1000
0001
0000
,
0100
0000
0010
0000
,
1000
0001
1000
0000
,
2000
0000
0000
0000
,
3000
0000
0010
0000
,
0100
0001
1000
0000
,
0100
0000
0100
0000
,
1000
0010
0100
0000
,
0001
0001
1000
0000
,
0100
0000
0010
0000
,
0001
1000
0100
0000
,
0010
0000
0001
0100
,
1001
0000
0110
0000
,
1001
0000
0110
0000
,
1000
0000
0001
0000
,
1000
0001
1000
0000
,
0010
0100
0010
0100
,
0001
1000
0001
1000
,
0100
0000
0010
0000
,
0100
0000
1000
1000
,
0001
0100
0001
0100
,
0010
1000
0010
0000
,
1000
0000
0001
0000
,
0010
0010
0200
0300
,
1000
0001
0100
0010
,
1000
1000
0001
0000
,
1000
0000
0100
0000
,
0010
0001
0001
0010
,
0100
1000
0100
0000
,
1000
1000
0001
0000
,
0100
0000
0010
0000
,
1000
0001
0100
0010
,
1000
0000
0100
0000
,
0010
0000
0100
0000
,
1000
0000
0001
0000
,
0100
0000
0010
0000
,
1000
0000
0001
0000
,
1000
0000
0100
0010
,
1001
0000
0000
0100
,
1001
0000
0000
0010
,
1001
1000
0001
0000
,
0100
0100
0010
0000
,
1000
0000
0001
0000
,
1000
0000
0100
0100
,
0010
0001
0010
0000
,
0100
0100
1000
0000
,
0001
0000
0100
0000
,
0010
0010
0010
0000
,
1000
0001
0100
0000
,
0010
1000
0001
0000
,
0100
0000
0010
0000
,
1000
0000
0001
0001
,
1000
0100
1000
0100
,
0010
0010
0001
0000
,
0100
0000
0010
0000
,
0100
0010
0100
0010
,
2000
0000
0000
3000
,
0002
0000
0000
0003
,
0200
0000
0300
0000
,
0020
0000
0030
0000
,
1000
0000
0000
0001
,
0100
0000
0000
0010
,
1000
0000
0000
0100
,
0010
0000
0000
0000
;

//---------------dance-single - C. Picardy----------------
#NOTES:
     dance-single:
     :
     Hard:
     7:
     0.498148,0.516350,0.150881,0.092205,0.000000,387.000000,18.000000,11.000000,0.000000,0.000000,0.000000,0.498148,0.516350,0.150881,0.092205,0.000000,387.000000,18.000000,11.000000,0.000000,0.000000,0.000000:
0000
0000
0000
0000
,
0000
0000
0000
0000
,
0000
0000
0000
0000
,
0000
0000
0000
0000
0000
0000
0000
1000
,
0001
0100
0000
0010
0000
1000
0000
0001
,
0010
0100
0000
0010
0000
0001
0000
1000
,
0100
0001
0000
0001
0100
1000
0000
0001
,
1001
0000
0110
0000
0001
0010
0100
1000
,
2002
0000
0000
3003
,
1000
0001
0000
0100
0000
0100
0000
0010
,
0000
0010
0000
1000
0000
0100
0000
0010
,
0001
0100
0000
0010
0000
0010
0000
0100
,
0000
0100
0000
0010
0000
1000
0000
0001
,
0100
0010
0000
1000
0000
0001
0000
0010
,
0000
0100
0000
0010
0000
0001
0000
1000
,
0100
0010
0000
0001
1000
0000
0000
0000
,
0110
0100
0101
1000
,
0001
0100
0010
0000
1000
1000
0000
2000
,
0000
0001
0010
0010
,
3001
0000
1000
0100
0010
0001
0000
0002
,
0000
0000
0010
0000
0100
0000
1000
1000
,
1003
0000
1000
0001
0100
0010
0000
1000
,
0000
0001
0000
0000
0010
0000
0010
0100
,
1000
0000
0001
0100
0010
0000
1000
0001
,
0000
0000
1000
0000
1000
0000
0001
0100
,
1000
0000
0100
0000
0001
0001
0000
0001
,
0001
0000
1000
1000
0000
0001
0000
1000
,
0100
0000
0100
0000
0100
0100
0000
0000
,
2100
0010
0001
3100
,
0001
0000
0010
0001
0010
0000
0100
0000
,
1000
0000
0010
0000
0100
0000
0001
0010
,
0001
1000
0100
1000
,
0010
0000
0100
0000
0001
0000
1000
0100
,
1000
0001
0100
0010
,
1000
0000
0001
0000
0001
0000
1000
0100
,
0010
0001
1000
1000
,
0010
0000
0100
0000
0001
0000
0010
0100
,
1000
0000
1000
0000
1000
1000
0000
0001
,
0001
0000
0001
0001
0000
0100
0000
0100
,
0100
0000
0100
0000
0100
0100
0000
0010
,
0010
0000
0010
0010
0000
0000
0100
0000
,
1001
0000
0010
0100
0010
0000
0001
0000
,
1000
0000
0100
0000
0010
0100
1000
0002
,
0000
1003
1000
0100
,
0010
0001
0110
1100
,
0001
0000
0100
0010
0100
0000
0001
0000
,
1000
0000
0100
0000
0010
0100
0010
0001
,
0001
0000
0000
1100
0000
0000
0001
0000
,
1000
0001
0100
0020
0000
0000
0030
0000
,
1000
0000
0010
0100
0010
0000
1000
0000
,
0001
0000
0001
0000
0010
0000
0010
0020
,
0000
0130
0100
1000
,
0010
0000
0100
0010
1000
0000
0001
0000
,
1000
0100
1000
0000
0010
0000
0010
0000
,
0100
0000
0100
0000
0001
0000
1000
0001
,
0100
0000
0000
0010
0000
0000
1000
0000
,
0001
0010
0100
1000
,
1001
0000
1000
0001
0100
0010
1000
0001
,
0000
0001
0000
1000
0000
1000
0000
0010
,
0100
0000
0001
0010
0100
1000
0010
0100
,
0000
0100
0000
0010
0000
0010
0000
1000
,
0001
0000
1000
0100
0010
0001
0010
0100
,
0000
1000
0000
0001
0000
0010
0000
0100
,
1000
0000
0001
0001
,
0101
0000
0100
0110
,
1000
0001
0100
0010
1000
0000
0001
0000
,
0010
0100
1000
0100
0010
0001
0010
0100
,
0000
1000
1000
0001
,
0100
0000
0100
0010
1000
0000
0001
0000
,
1000
0100
0010
0100
1000
0000
0001
0000
,
1000
0100
1000
0100
0010
0001
0010
0001
,
0010
0000
0000
0100
0000
0000
1000
0000
,
0001
0100
0010
1000
0000
0000
0110
0000
,
0001
0100
0010
0100
0001
0000
0001
0000
,
1000
0000
1000
0000
0100
0000
0100
0020
,
0000
0031
0100
0010
,
1000
0000
0001
0010
0100
0000
0010
0000
,
0100
0010
0001
0010
0100
0000
0100
0000
,
0010
0000
0010
0000
0001
0000
1000
0001
,
0100
0000
0000
0100
0000
0000
0010
0000
,
1010
0110
0101
1001
,
2000
0000
0000
0001
,
3002
0000
0000
0100
,
0103
0000
0000
0010
0000
0000
1000
0000
,
0001
0010
0100
1000
0000
0001
1000
0100
,
0010
0000
0000
0001
0000
0000
0100
0000
,
0010
0000
0000
1000
0000
0000
0001
0000
,
1000
0000
0000
0001
0000
0000
0100
0000
,
0010
0000
0000
0000
;

//---------------dance-single - C. Picardy----------------
#NOTES:
     dance-single:
     :
     Medium:
     5:
     0.386783,0.405703,0.234704,0.108970,0.000000,282.000000,28.000000,13.000000,0.000000,0.000000,0.000000,0.386783,0.405703,0.234704,0.108970,0.000000,282.000000,28.000000,13.000000,0.000000,0.000000,0.000000:
0000
0000
0000
0000
,
0000
0000
0000
0000
,
0000
0000
0000
0000
,
0000
0000
0000
0000
,
1001
0000
0100
0000
,
1001
0000
0010
0000
,
1001
0000
0110
0000
,
1001
0000
0110
0000
0100
0010
0100
0000
,
2002
0000
0000
3003
,
0010
0000
0000
0100
0000
0100
0000
0010
,
0000
0010
0000
1000
0000
1000
0000
0000
,
0001
0000
0000
0010
0000
0010
0000
0001
,
0000
0001
0000
0100
0000
0100
0000
0000
,
1000
0000
0000
0001
0000
1000
0000
0001
,
0000
1000
0000
0010
0000
0100
0000
0000
,
0100
0000
0000
0010
0000
1000
0000
0001
,
0000
1000
0000
0100
0000
0000
0000
0000
,
0110
0000
0001
0001
,
0001
0000
1000
0100
,
0000
0010
0100
1000
,
1000
0001
0000
0100
,
0000
0010
1000
0001
,
0100
0100
0000
0010
,
1000
0000
0001
0000
0001
0000
1000
0001
,
0000
0100
0100
0010
,
1010
0000
0011
0000
,
1000
0100
1001
0010
,
0110
0000
1001
0000
,
0220
0000
0000
0330
,
0100
0010
0100
0000
,
0001
0001
1000
0000
,
0100
0010
0100
1000
,
0001
0000
0100
0100
,
0010
1000
0001
0010
,
0001
1000
0001
0000
,
1000
0010
0100
0100
,
0001
0000
1000
0100
,
0110
0000
0011
0000
,
0100
0010
1001
0010
,
1001
0000
0110
0000
,
1000
0001
1000
0001
,
0110
0100
0100
0010
,
1000
1000
0001
0001
,
2000
0000
3010
0100
,
0001
1000
0100
0100
,
0010
0100
0010
0100
,
1000
0001
1000
0100
,
0020
0000
0000
0031
0000
0000
0100
0000
,
0010
0000
0100
0020
0000
0000
0030
0000
,
1001
0100
0010
0100
,
0001
0001
1000
0010
,
0200
0000
0010
0010
,
0301
1000
0100
1100
,
0001
0010
0001
0001
,
1000
0100
0010
0100
,
2000
0000
0000
3001
0000
0000
0100
0000
,
0010
0100
0010
0100
,
1001
0000
1000
0000
1000
0000
0000
0010
,
0000
0100
0000
0010
0000
0100
0000
0000
,
1001
0000
0001
0000
0001
0000
0000
1000
,
0000
0001
0000
1000
0000
0001
0000
0000
,
0110
0000
0001
0000
1000
0000
0000
0001
,
0000
1000
0000
0100
0000
0010
0000
0000
,
1001
0000
0010
0010
,
1001
0000
0000
0110
,
0100
0010
0100
0000
0001
0000
1000
0000
,
0100
0000
0100
0000
0010
0000
0001
0020
,
0000
0130
0100
0100
,
0000
1000
0001
0001
,
0100
0010
0100
0000
0001
0000
1000
0000
,
0100
0000
0010
0000
0100
0000
1000
0002
,
0000
0000
0000
1003
0000
0000
0100
0000
,
0010
0000
0100
0020
0000
0000
0030
0000
,
0001
1000
0100
0000
0010
0000
0010
0000
,
0001
0000
1000
0000
0100
0000
0010
0200
,
0000
1300
1000
1000
,
0000
0001
0100
0010
,
1000
0001
0100
0000
0010
0000
0010
0000
,
1000
0000
0001
0000
0100
0000
0010
1000
,
0001
0000
0000
1000
0000
0000
0100
0000
,
0010
0001
0100
0010
,
1000
0000
0000
0001
,
0001
0000
0000
1000
,
1000
0000
0000
0100
0000
0000
0010
0000
,
0001
0000
0000
1000
0000
0000
0010
0000
,
0100
0000
0000
0100
0000
0000
0100
0000
,
0100
0000
0000
0001
0000
0000
0001
0000
,
0001
0000
0000
1000
0000
0000
1000
0000
,
1000
0000
0000
0000
;

//---------------dance-single - C. Picardy----------------
#NOTES:
     dance-single:
     :
     Challenge:
     9:
     0.779554,0.813712,0.595143,0.310145,0.163455,543.000000,71.000000,37.000000,25.000000,4.000000,0.000000,0.779554,0.813712,0.595143,0.310145,0.163455,543.000000,71.000000,37.000000,25.000000,4.000000,0.000000:
// measure 0
0000
0000
0000
0000
,  // measure 1
0000
0000
0000
0000
,  // measure 2
0000
0000
0000
0000
,  // measure 3
0000
0000
0000
0000
0000
0000
0000
1000
,  // measure 4
1010
0010
0000
0001
0000
0010
0000
0100
,  // measure 5
1100
1000
0000
0001
0000
0100
0000
0001
,  // measure 6
0011
0010
0000
0001
0101
0100
0000
0010
,  // measure 7
1010
0000
0001
0000
1001
0000
1000
0000
0001
0010
0100
1000
0001
0010
0100
1000
,  // measure 8
0002
MMM0
MMM0
MMM3
,  // measure 9
1010
1000
0001
0100
0001
1000
0010
0100
,  // measure 10
0001
0010
0100
0010
0001
1000
0100
1100
,  // measure 11
1001
0010
0001
1000
0100
1000
0010
0100
,  // measure 12
0001
0010
0100
0010
1000
0010
0001
0101
,  // measure 13
1001
1000
0010
0100
0010
1000
0100
0001
,  // measure 14
0100
0010
0100
1000
0010
0100
0010
1010
,  // measure 15
0110
0000
0001
0100
0101
0000
1000
0010
,  // measure 16
1010
0000
0011
0000
0110
0100
1001
1000
,  // measure 17
0002
0010
0010
0000
1000
0100
0000
0100
,  // measure 18
0003
1000
0001
0100
0010
1000
0100
1000
,  // measure 19
2000
0000
0010
0010
0001
0010
0000
0100
,  // measure 20
3000
0001
0001
1000
0100
0100
0010
0001
,  // measure 21
1002
0000
0010
1000
1000
0010
0000
0100
,  // measure 22
0003
1000
0001
0100
1000
0100
0001
0001
,  // measure 23
2000
0000
0010
0001
0010
0000
0100
0100
,  // measure 24
3000
0010
0010
1000
0001
0100
0001
1000
,  // measure 25
2100
0000
0010
0000
0001
0001
0000
0100
,  // measure 26
0100
0000
0010
0010
0000
3001
0000
1000
,  // measure 27
0001
0010
0100
1000
0001
0010
0100
1000
0001
0100
0010
1000
0001
0100
0010
0000
,  // measure 28
1M1M
M11M
M1M1
11MM
,  // measure 29
0001
0010
0100
0010
0002
0000
0103
0000
,  // measure 30
0010
0010
1000
0002
0000
0103
0100
0001
,  // measure 31
1000
0000
0100
0100
0010
0001
0010
0200
,  // measure 32
0000
1300
0100
0010
0001
1000
0010
0100
,  // measure 33
0101
0000
1000
0001
0100
0000
0010
0000
,  // measure 34
2000
0000
3001
0100
1000
0100
0010
1000
,  // measure 35
0001
0000
0000
1000
0100
0000
0010
0000
0100
0000
2000
0000
0000
0000
3001
0000
,  // measure 36
0000
0100
0100
0010
1000
0001
0001
0010
,  // measure 37
0110
0000
0001
0000
0100
0101
0000
1000
,  // measure 38
1010
0000
0100
0110
0000
0002
0000
1003
,  // measure 39
1001
0000
1100
0000
0010
0010
0000
0001
,  // measure 40
1000
0100
0010
0001
1000
0100
0010
0001
1000
0100
0010
0001
1000
0000
0000
0000
,  // measure 41
0010
0100
0001
0100
0010
0000
0101
0000
,  // measure 42
1000
0100
0001
0100
1000
0010
0001
0020
,  // measure 43
0000
0000
1000
1000
1030
0000
0001
0000
,  // measure 44
0100
0000
0010
0000
0020
0000
0000
0000
1030
0000
0000
0000
0001
0000
0100
0001
,  // measure 45
0100
0010
1000
0100
0010
0000
1100
0000
,  // measure 46
0001
0010
0100
0010
0001
0100
1000
0100
,  // measure 47
0002
0000
1000
1000
0000
0000
0103
0000
,  // measure 48
M11M
0000
0000
0000
M1M1
0000
0000
0000
1MM1
0000
0000
0000
11MM
0000
1000
0001
,  // measure 49
1000
0100
0010
0100
1000
0000
0101
0000
,  // measure 50
1010
0000
1100
0000
0101
0000
2010
0010
,  // measure 51
0010
0001
0100
0100
,  // measure 52
3010
0000
0000
0000
0001
0000
0001
0000
0101
0000
0000
0000
1001
0000
1000
0100
,  // measure 53
1000
0100
0001
0100
2000
0000
3001
0000
,  // measure 54
1010
0000
0110
0000
0101
0000
0010
0001
,  // measure 55
2001
0000
0000
0010
0000
0000
0001
0100
,  // measure 56
3100
0000
0000
0000
0110
0000
0000
0001
1000
0000
0001
0000
0100
0000
0010
0000
,  // measure 57
2000
0000
3001
0100
0010
0100
0001
1000
,  // measure 58
0100
1000
0100
0000
1000
0100
1000
0000
0001
1000
0001
0000
1000
0001
1000
0000
,  // measure 59
0200
0000
0310
0100
1000
0001
0010
0100
,  // measure 60
0000
0000
1100
0000
0000
0000
0101
0000
0000
0000
1001
0000
1000
0000
0001
0100
,  // measure 61
0002
0000
1003
0010
0100
0010
1000
0001
,  // measure 62
1000
0100
1000
0000
0001
0010
0001
0000
1000
0100
1000
0100
0010
0001
0010
0001
,  // measure 63
1000
0100
0010
0001
1000
0000
0010
0000
,  // measure 64
1010
1000
0000
0001
0100
0100
0101
0000
,  // measure 65
1000
0010
0001
0010
1000
0000
0100
0000
,  // measure 66
1000
0100
0001
0100
1000
0010
0001
0010
,  // measure 67
0200
0010
0001
1000
,  // measure 68
0001
0000
0001
0000
0301
0000
0000
0000
0101
0000
0000
0000
1000
0000
0010
0100
,  // measure 69
0010
0001
0010
1000
0100
0000
0010
0000
,  // measure 70
0001
0010
1000
0010
0001
0100
1000
0100
,  // measure 71
0110
0000
1000
1000
1001
0000
1100
0000
,  // measure 72
0011
0000
0010
0000
0110
0000
0100
0000
1100
0000
1000
0001
1000
0000
0001
0100
,  // measure 73
0001
0100
1000
0100
0010
0000
1000
0000
,  // measure 74
0101
0000
0010
0000
1100
0000
0001
0010
,  // measure 75
0021
0100
0001
1000
,  // measure 76
0130
0000
0000
0000
0001
0000
0100
0000
0010
0000
0000
0000
1000
0000
0001
0010
,  // measure 77
0001
0100
0010
1000
0100
0000
0010
0000
,  // measure 78
1100
0000
0001
0000
0101
0000
1000
0010
,  // measure 79
0220
0000
0330
0202
0000
0303
1001
0000
,  // measure 80
0110
0000
0000
0000
1010
0000
0000
0000
0001
0000
1000
0100
0010
0000
0001
0010
,  // measure 81
0100
1000
0001
0010
0200
0000
0310
0000
,  // measure 82
0200
0000
2300
0000
3002
0000
0013
0001
,  // measure 83
1000
0100
0010
0001
0000
0100
0010
1000
,  // measure 84
0100
0010
0001
0100
0000
0010
1000
0100
,  // measure 85
0020
0000
0000
0200
0000
0000
0001
0000
,  // measure 86
0001
0330
0000
0200
0000
0000
2000
0000
,  // measure 87
0010
0000
3300
0002
0000
0000
0200
0000
,  // measure 88
1000
0303
0000
0000
;
