#TITLE:Black UFO;
#SUBTITLE:;
#ARTIST:Lupin;
#TITLETRANSLIT:;
#SUBTITLETRANSLIT:;
#ARTISTTRANSLIT:;
#GENRE:;
#CREDIT:;
#BANNER:blackufobn.png;
#BACKGROUND:blackufobg.png;
#LYRICSPATH:;
#CDTITLE:;
#MUSIC:blackufo.ogg;
#OFFSET:0.002186;
#SAMPLESTART:79.570511;
#SAMPLELENGTH:11.879997;
#SELECTABLE:YES;
#BPMS:0.000000=162.000000
;
#STOPS:
;
#BGCHANGES:;
#KEYSOUNDS:;
#ATTACKS:;

//---------------dance-single - C. Picardy----------------
#NOTES:
     dance-single:
     :
     Beginner:
     1:
     0.099118,0.133197,0.042829,0.008566,0.000000,75.000000,5.000000,1.000000,0.000000,0.000000,0.000000,0.099118,0.133197,0.042829,0.008566,0.000000,75.000000,5.000000,1.000000,0.000000,0.000000,0.000000:
0000
0000
0000
0000
,
0000
0000
0000
0000
,
0000
0000
0000
0000
,
0000
0000
0000
0000
,
1000
0000
0000
0000
,
0000
0000
0000
0000
,
1000
0000
0000
0000
,
0000
0000
0000
0000
,
0001
0000
0000
0000
,
0000
0000
0000
0000
,
0001
0000
0000
0000
,
0000
0000
0000
0000
,
1000
0000
0000
0000
,
1000
0000
0000
0000
,
0001
0000
0000
0000
,
0001
0000
0000
0000
,
0100
0000
0000
0000
,
0100
0000
0000
0000
,
0010
0000
0000
0000
,
0010
0000
0000
0000
,
1001
0000
0000
0000
,
0000
0000
0000
0000
,
0100
0000
0000
0000
,
1000
0000
0000
0000
,
0001
0000
0000
0000
,
0010
0000
0000
0000
,
0100
0000
0000
0000
,
0010
0000
0000
0000
,
0001
0000
0000
0000
,
1000
0000
0000
0000
,
0100
0000
0100
0000
,
0000
0000
0000
0000
,
0010
0000
0010
0000
,
0000
0000
0000
0000
,
0001
0000
0001
0000
,
0001
0000
0000
0000
,
1000
0000
0000
0000
,
0001
0000
0000
0000
,
1001
0000
0000
0000
,
0100
0000
0000
0000
,
0010
0000
0000
0000
,
1000
0000
0000
0000
,
0001
0000
0000
0000
,
1000
0000
0000
0000
,
0100
0000
0100
0000
,
0100
0000
0000
0000
,
1001
0000
0000
0000
,
0001
0000
0000
0000
,
1000
0000
0000
0000
,
0001
0000
0000
0000
,
0100
0000
0000
0000
,
0010
0000
0000
0000
,
0200
0000
0000
0000
,
0300
0000
0000
0000
,
1001
0000
0000
0000
,
0010
0000
0000
0000
,
0100
0000
0000
0000
,
0001
0000
0000
0000
,
1000
0000
0000
0000
,
0001
0000
0000
0000
,
1000
0000
0000
0000
,
0100
0000
0000
0000
,
1001
0000
0000
0000
,
0010
0000
0000
0000
,
0100
0000
0000
0000
,
1000
0000
0000
0000
,
0001
0000
0000
0000
,
1000
0000
0000
0000
,
0010
0000
0000
0000
,
0100
0000
0000
0000
,
0001
0000
0001
0000
,
0001
0000
0000
0000
,
1000
0000
1000
0000
,
1000
0000
0000
0000
,
0100
0000
0100
0000
,
0100
0000
0000
0000
,
0010
0000
0010
0000
,
0010
0000
0000
0100
;

//---------------dance-single - C. Picardy----------------
#NOTES:
     dance-single:
     :
     Easy:
     4:
     0.343854,0.466191,0.274104,0.111355,0.000000,236.000000,32.000000,13.000000,0.000000,0.000000,0.000000,0.343854,0.466191,0.274104,0.111355,0.000000,236.000000,32.000000,13.000000,0.000000,0.000000,0.000000:
0000
0000
0000
0000
,
0000
0000
0000
0000
,
0000
0000
0000
0000
,
0000
0000
0000
0000
,
1000
1000
1000
0000
,
0001
0001
0001
0000
,
0100
0000
0010
0000
,
1000
0001
0100
0000
,
0010
1000
0010
0000
,
0100
0001
0100
0000
,
1001
0000
0110
0000
,
1001
0110
1001
0000
,
1000
0001
0100
0010
,
0100
0000
0001
0000
,
1000
0100
0010
0100
,
1000
0000
0010
0000
,
0100
0010
1000
0001
,
0010
0000
0100
0000
,
1001
0000
0110
0000
,
1001
0110
1001
0110
,
1001
0000
0000
0000
,
0000
0000
0000
0010
,
1001
0100
0010
0100
,
0001
1000
0001
1000
,
0100
0010
0100
0010
,
0001
1000
0001
1000
,
0110
1000
0001
0100
,
0010
1000
0001
0010
,
0100
1000
0001
0010
,
0100
1000
0001
0000
,
0010
0100
0010
0000
,
0001
0000
1000
0000
,
0010
0100
0001
0000
,
1000
0000
0100
0010
,
0001
0000
1000
0000
,
0010
0100
0001
1000
,
0100
0100
0010
0010
,
0001
0001
1000
0001
,
0110
0100
0100
0000
,
0001
1000
0100
0010
,
0001
0001
0001
0000
,
1000
0010
0100
0001
,
1000
1000
1000
0000
,
0001
0100
0010
1000
,
0001
0010
0100
1000
,
0010
0100
0010
0100
,
2002
3003
0010
0100
,
2002
3003
0100
0000
,
0010
0000
1000
0000
,
0001
0001
1000
0100
,
0022
0033
0202
0303
,
2002
3003
1000
0001
,
0120
0000
1000
0000
,
0100
1000
0130
0000
,
0001
0100
1001
0000
,
1000
0010
1001
0000
,
0100
0000
0010
0000
,
1000
0001
1000
0100
,
0110
0000
1100
0000
,
0010
0001
0110
0000
,
1000
0000
0001
0100
,
0010
1000
0001
0100
,
1001
0010
0010
0000
,
0100
1000
0001
0000
,
0100
0100
0010
0010
,
1000
0001
1000
0010
,
1001
0000
0110
0000
,
1000
0001
0110
0000
,
0001
0001
1000
1000
,
0100
0010
2002
3003
,
0001
1000
0001
1000
,
0001
0100
0001
0100
,
0001
0010
0100
1000
,
0001
0100
0010
1000
,
0001
0100
1000
0100
,
0001
0010
1000
0010
,
0001
0100
0010
1000
,
0100
0010
0001
1001
;

//---------------dance-single - C. Picardy----------------
#NOTES:
     dance-single:
     :
     Medium:
     6:
     0.447866,0.466191,0.274104,0.145618,0.004283,317.000000,32.000000,17.000000,0.000000,0.000000,0.000000,0.447866,0.466191,0.274104,0.145618,0.004283,317.000000,32.000000,17.000000,0.000000,0.000000,0.000000:
0000
0000
0000
0000
,
0000
0000
0000
0000
,
0000
0000
0000
0000
,
0000
0000
0000
0000
,
0010
0100
0010
0000
1001
0000
0000
0000
,
0100
0010
0100
0000
1001
0000
0000
0000
,
0100
0010
0100
0010
,
1000
0000
0001
1000
0000
0000
0100
0000
,
1000
0001
1000
0000
0110
0000
0000
0000
,
0001
1000
0001
0000
0110
0000
0100
0000
,
0101
0001
0101
1000
,
1100
0000
0010
0000
1010
0000
1000
0010
,
0100
0010
1000
0001
,
0010
0000
0100
0000
1000
0000
0001
0100
,
0010
1000
0100
0001
,
0100
0000
1000
0000
0010
0000
0100
0001
,
0010
0100
0010
0100
,
1000
0010
0001
0010
,
1010
0100
0011
0100
,
1001
0000
0110
0000
0001
0010
0100
1000
,
0002
0000
0000
0000
,
0000
0000
0003
1001
,
0100
0010
0100
0001
,
0010
0000
0100
0000
0010
0000
0001
0010
,
0100
1000
0010
0100
,
0010
0000
1000
0000
0100
0000
0010
0100
,
1000
0000
0010
0000
0100
0000
0001
0010
,
0001
0000
0100
0000
0010
0000
1000
0010
,
1000
1001
0100
0011
,
1001
0000
0101
0000
0220
0000
0000
0330
,
1000
0000
0001
1000
0000
0000
0100
0000
,
0010
0100
1000
0010
,
0100
0000
0010
0100
0000
0000
0001
0000
,
1000
0010
0100
0001
,
1000
0000
0001
1000
0000
0010
0000
0200
,
0000
0000
0001
0000
0301
0010
0100
0000
,
0100
0100
1000
1000
,
1001
0000
0011
0000
0100
0010
0100
0000
,
0001
0000
1000
0001
0100
0000
0000
0000
,
0010
1000
0001
1000
,
0100
0000
0010
0100
1000
0000
0000
0000
,
0001
0000
0100
0000
0010
0100
0100
0000
,
0001
0000
1000
0100
0000
0010
0000
0001
,
0000
1000
0001
0000
0100
0010
1000
0001
,
2000
0010
0100
3001
,
0010
0000
0100
0000
1000
0000
0001
0100
,
0020
0000
0000
0000
2030
0000
0000
3002
,
0000
0000
1003
0000
0100
0000
0010
0001
,
0100
0000
0000
0100
0010
0000
0000
0100
,
0010
0000
1000
0000
0001
0000
0100
0010
,
0200
0000
0000
0000
0320
0000
0000
0230
,
0000
0000
0000
0000
0301
0000
1000
0000
0100
0000
0000
0100
0000
0000
2000
0000
,
0002
0000
0000
3003
,
0001
1000
0000
0001
0000
1000
0001
0000
,
0110
1000
0001
0010
,
0100
0000
1000
0000
0001
0000
0010
0100
,
0010
0000
0100
0010
0000
0000
0001
0000
,
0100
0010
0100
0000
1001
0000
0100
0000
,
0001
1000
0100
0010
,
0001
0000
0001
0000
1000
0000
0001
0100
,
0010
0000
1000
0001
0000
0001
1000
0000
,
0010
0100
0010
0000
2002
0000
3003
0000
,
1000
0001
0100
0010
,
0100
0000
0001
0000
1000
0000
0001
0100
,
1000
0100
0010
1000
,
0001
0010
0100
0000
1001
0000
0100
0010
,
0100
0010
0001
0010
,
0001
0000
0100
0000
0010
0000
1000
0100
,
0001
0000
0001
0100
0000
0100
0010
0000
,
0001
1000
0001
0000
0220
0000
0330
0000
,
0001
0010
0100
0010
,
0001
0000
0100
0000
0010
0000
1000
0100
,
0001
0100
1000
0010
,
0100
0000
0001
0000
0010
0000
0001
0100
,
0010
1010
0001
0011
,
1000
0000
1100
0000
0101
0000
1000
0001
,
0100
0110
0001
0101
,
1001
0000
0010
0000
1000
0001
0100
0000
;

//---------------dance-single - C. Picardy----------------
#NOTES:
     dance-single:
     :
     Hard:
     8:
     0.578800,0.532790,0.299801,0.128486,0.012849,423.000000,35.000000,15.000000,0.000000,0.000000,0.000000,0.578800,0.532790,0.299801,0.128486,0.012849,423.000000,35.000000,15.000000,0.000000,0.000000,0.000000:
0000
0000
0000
0000
,
0000
0000
0000
0000
,
0000
0000
0000
0000
,
0000
0000
0000
0000
,
0001
0100
0010
0000
1001
0000
0100
0000
,
0010
1000
0100
0000
1001
0000
0100
0000
,
0010
0100
0001
1000
,
0100
0000
0010
0100
0000
0010
0100
0100
,
1000
0001
0100
0000
1010
0000
0100
0000
,
0010
0001
0100
0000
0011
0000
0001
0100
,
1000
0000
1000
0100
0001
0000
0001
0100
,
0010
0000
0100
0000
0010
0100
0010
0100
,
0020
0000
1000
0000
0130
0000
0001
1000
,
0000
1000
1000
0000
0001
0000
0010
0100
,
1000
0000
0010
0000
0100
0001
0000
0100
,
0000
0001
0001
0000
0110
0000
0001
0100
,
0010
1000
0001
0100
,
0001
0010
0001
1000
,
1100
0001
0101
1000
,
1001
0000
0110
0000
1000
0001
0100
0010
,
2000
0000
0000
3001
0000
0000
0000
0100
,
0100
0000
0010
0010
0000
0000
1001
0000
,
1000
0010
0100
0010
1000
0010
0100
0001
,
0010
0001
0100
0001
0010
0001
0100
0010
,
1000
0100
0010
0100
1000
0100
0010
0100
,
1000
0000
0110
0000
1001
0000
0010
0100
,
1000
0100
0001
0100
1000
0100
0001
0100
,
1000
0001
0100
0001
1000
0001
0010
0001
,
1000
0010
0001
0010
1000
0010
0100
0000
,
0101
0000
1100
0000
2002
0000
0000
3003
,
1000
0001
0100
0010
0000
0000
1000
0000
,
0001
0000
0010
0000
0100
0010
0001
0000
,
1000
0100
0010
0001
0000
0000
0010
0000
,
0100
1000
1000
0000
0001
0000
0100
0000
,
0001
0100
0010
1000
0000
0001
0000
1000
,
0000
0100
0010
0001
0010
0100
1000
0010
,
0200
0010
1000
0301
,
0101
0000
1100
0000
0001
1000
1001
0000
,
0001
0100
0010
1000
0000
0000
0001
1000
,
0000
0100
0010
0001
0010
0100
1000
0001
,
0100
0010
1000
0001
0000
0000
0100
0010
,
0000
1000
0001
0001
0100
0010
0010
1000
,
0001
0010
0100
1000
0000
0001
0000
0100
,
0000
0001
0100
0001
0100
0010
1000
0100
,
0020
0100
1000
0031
,
1000
0100
1000
0100
0010
0001
0010
0001
,
2000
0000
0000
0000
3200
0000
0000
0320
,
0000
0000
0031
0000
0001
0000
1000
0100
,
0010
0000
0000
0001
0000
0000
1000
0000
0100
0000
0000
0010
0000
0000
0001
0000
,
1000
0000
1000
0000
0010
0000
0010
0100
,
0002
0000
0000
0000
0023
0000
0000
0230
,
0000
0000
0000
0000
0300
0000
1000
0000
0001
0000
0000
0100
0000
0000
0100
0000
,
0020
0001
1000
0130
,
0001
1000
0000
0100
0000
1000
1001
0000
,
0110
0000
1000
0001
0100
0010
1000
0000
,
0100
0010
0001
0010
0100
0000
1000
1000
,
0001
0000
0100
0010
0000
0100
0010
1000
,
0001
0010
0100
0000
1001
0000
0001
0100
,
0010
0000
1000
0001
0100
0000
0010
0000
,
1000
0100
0010
0001
0000
1000
0100
0010
,
0001
0000
1000
0001
0000
0100
0010
1000
,
0001
0010
0100
0000
1001
0000
0110
0000
,
1000
0100
0010
0001
1000
0000
0110
0000
,
0001
0100
1000
0100
0001
0000
0110
0000
,
0001
0100
0010
0100
0001
0000
1000
0100
,
0010
0010
0100
0000
1001
0000
0010
0100
,
1000
0001
0100
0010
0100
0000
1001
0000
,
0010
0100
0010
0100
1000
0000
0101
0000
,
1001
0000
0010
0100
0000
0010
0100
0001
,
1000
0100
0010
0000
2002
0000
3003
0000
,
0001
0100
0010
0100
0001
0100
0010
0100
,
0001
1000
0100
1000
0010
1000
0100
1000
,
0001
0010
0100
0010
0001
0010
0100
0000
,
1100
0000
0101
0000
1001
0000
1000
0001
,
0010
0100
1000
0100
0010
0100
1000
0100
,
0010
0001
0100
0001
0010
0001
0100
0001
,
1000
0010
0100
0010
1000
0100
0010
0000
,
0010
0001
0010
0100
1000
1001
1001
0000
;

//---------------dance-single - C. Picardy----------------
#NOTES:
     dance-single:
     :
     Challenge:
     12:
     1.000000,1.000000,0.428288,0.231275,0.980778,775.000000,50.000000,27.000000,18.000000,8.000000,2.000000,1.000000,1.000000,0.428288,0.231275,0.980778,775.000000,50.000000,27.000000,18.000000,8.000000,2.000000:
// measure 0
0000
0000
0000
0000
,  // measure 1
0000
0000
0000
0000
,  // measure 2
0000
0000
0000
0000
,  // measure 3
0000
0000
0000
0000
,  // measure 4
0001
0100
0010
2000
0001
3002
0010
0013
,  // measure 5
0100
1000
0001
0200
0010
0310
1000
1000
,  // measure 6
0001
0000
0001
0000
1000
0000
0001
0100
0001
0100
0001
0100
0010
0100
0010
0000
,  // measure 7
1000
0010
1000
0000
0001
0000
0002
0000
0000
0000
1003
0000
1100
0000
1001
0000
,  // measure 8
0001
0100
1000
2000
0100
3200
0001
0302
,  // measure 9
1000
0103
0001
0002
0100
0103
0010
0001
,  // measure 10
1000
0010
0100
0001
1000
0100
0010
0001
,  // measure 11
1000
0000
1010
0000
0001
0000
1001
0000
1000
0100
1000
0100
0010
0001
0010
0001
,  // measure 12
0010
0000
0100
0000
1000
0000
0001
0010
0001
0000
1000
0000
0100
0000
0010
0001
,  // measure 13
0010
0000
0100
0000
1000
0000
0001
0100
0001
0000
1000
0000
0001
0000
1000
0010
,  // measure 14
1000
0000
0001
0000
0100
0000
0010
0100
0010
0000
1000
0000
0001
0000
1000
0100
,  // measure 15
1000
0000
0001
0000
0010
0000
0100
1000
0100
0000
0010
0000
0001
0000
1000
0010
,  // measure 16
0100
0000
0001
0000
1000
0000
0100
0010
0001
0000
1000
0000
0010
0000
0100
0001
,  // measure 17
1000
0000
0100
0000
0010
0000
0001
1000
0100
0000
0010
0000
0001
0000
1000
0000
,  // measure 18
0010
0100
0010
0100
0010
0100
0010
0100
0001
1000
0001
1000
0001
1000
0001
1000
,  // measure 19
0100
0010
0100
0010
0001
0010
0001
0010
0100
0010
0100
0010
0100
1000
0100
2000
,  // measure 20
0200
0000
0000
0001
0000
3300
0000
1000
,  // measure 21
0001
0100
0010
0100
0000
0000
1001
0000
,  // measure 22
1000
0100
1000
0100
0001
0100
0001
0100
0010
0100
0010
0100
0010
0001
0010
0001
,  // measure 23
0100
0001
0100
0001
0100
1000
0100
1000
0100
0001
0100
0001
0010
0100
0010
0100
,  // measure 24
1000
0100
0010
0001
1000
0100
0010
0001
1000
0001
0100
0010
1000
0001
0100
0010
,  // measure 25
1000
0010
0100
0001
1000
0010
0100
0001
0010
0100
1000
0001
0010
0100
1000
0001
,  // measure 26
0100
0001
0100
0001
0100
1000
0100
1000
0100
0010
0100
0010
0001
0010
0001
0010
,  // measure 27
1000
0010
1000
0010
1000
0100
1000
0100
0001
0100
0001
0100
0010
0001
0010
0001
,  // measure 28
1000
0010
0100
0001
1000
0010
0100
0001
1000
0100
0010
0001
1000
0100
0010
0001
,  // measure 29
0100
0000
0010
0000
1000
0000
0001
0000
0100
0000
0010
0000
1000
0000
0001
0000
4000
0400
0000
0000
0000
0000
0000
0000
0000
0000
0000
0000
0000
0000
3300
0000
,  // measure 30
1000
0000
0100
0000
0010
0000
0002
0000
0000
0000
1003
0000
0010
0000
0100
0001
,  // measure 31
1000
0000
0100
0000
0010
0000
0001
1000
0100
0000
0010
0000
0001
0000
1000
0000
,  // measure 32
0010
0000
0010
0000
0100
0000
0002
0000
0000
0000
1003
0000
0001
0000
0010
0100
,  // measure 33
1000
0000
1MM1
0000
1MM1
0000
1000
0000
0100
0000
0010
0100
1000
0000
0001
0000
,  // measure 34
0100
0010
0010
2000
0000
3001
0010
0001
,  // measure 35
0001
0000
1000
0100
0010
0000
0001
0000
1000
0000
1000
0000
0010
0100
0010
0100
,  // measure 36
0010
0020
1000
2030
0100
3200
0010
0320
,  // measure 37
0001
0000
0031
0000
0011
0000
1000
0001
0010
0000
0010
0000
0100
0010
0100
0010
,  // measure 38
0100
0000
1000
0000
0001
0000
0010
0100
1000
0000
0001
0000
0100
0000
0010
1000
,  // measure 39
0001
0000
0010
0000
0100
0000
0010
0001
1000
0000
0010
0000
0100
0000
0001
1000
,  // measure 40
0100
0000
0010
0000
0100
0000
1000
0001
0010
0000
0100
0000
1000
0000
0001
0100
,  // measure 41
0010
0000
1000
0000
0001
0000
1000
0100
0010
0000
M11M
0000
M11M
0000
M10M
0000
,  // measure 42
1001
0000
0100
0000
0010
0000
1000
0001
0100
0000
0010
0000
1000
0000
0001
0010
,  // measure 43
0100
0000
1000
0000
0001
0000
0100
0010
1000
0000
0001
0010
0100
0000
1000
0001
,  // measure 44
0100
0000
0200
0000
0010
0000
0320
0000
1000
0000
2030
0000
0001
0000
3000
0100
,  // measure 45
0001
0000
0101
0000
0001
0000
1001
0000
1000
0100
1000
0100
0010
0001
0010
0001
,  // measure 46
2000
0000
0100
0000
0002
3000
0100
0200
,  // measure 47
0000
0000
0010
0000
1000
0303
0001
0100
,  // measure 48
1001
0000
0000
1100
0000
0000
0110
0000
0011
0000
0000
1001
0000
0000
0101
0000
,  // measure 49
0110
0000
0000
0000
1001
0000
0000
0000
0010
0100
0010
0100
0010
0000
0100
0000
,  // measure 50
1002
0000
0010
0000
0200
0000
1000
1000
,  // measure 51
0000
0000
0303
0000
0001
0000
0100
0000
0110
0000
0000
0101
0000
0000
1001
0000
,  // measure 52
2200
0000
0010
0000
0001
0000
0011
3300
,  // measure 53
1MM1
1MM1
0000
M11M
0000
M11M
1001
0000
,  // measure 54
1000
0000
0001
0000
0100
0000
0010
1000
0001
0000
0010
0000
0100
0000
0010
0001
,  // measure 55
1000
0000
0010
0000
0100
0000
0001
1000
0100
0000
0010
0000
0100
0000
1000
0001
,  // measure 56
0010
0000
0100
0000
1000
0000
0001
0100
0010
0000
1000
0000
0001
0000
0010
0000
,  // measure 57
0100
1000
0100
0000
0010
0001
0010
0000
0001
1000
0001
0000
1000
0000
1100
0000
,  // measure 58
1001
0000
0100
0000
0001
0000
1000
0010
1000
0000
0001
0000
1000
0000
0001
0010
,  // measure 59
0001
0000
1000
0000
0001
0000
1000
0010
1000
0000
0001
0000
0100
0000
0010
1000
,  // measure 60
0010
0000
0100
0000
0001
0000
0010
0001
0010
0000
0100
0000
1000
0000
0001
0000
,  // measure 61
1001
0000
0101
0000
1001
0000
0001
0000
1000
0000
0100
0010
0001
0000
0011
0000
,  // measure 62
1000
0100
1000
0000
0100
1000
0100
0000
1000
0001
1000
0000
0001
1000
0001
0000
,  // measure 63
0100
0001
0100
0000
0001
0100
0001
0000
0100
0010
0100
0000
0010
0100
0010
0000
,  // measure 64
1000
0010
1000
0000
0001
1000
0001
0000
1000
0100
1000
0000
0001
0100
0001
0000
,  // measure 65
0010
0001
0010
0000
0100
1000
0100
0000
1001
0000
0000
0000
0110
0000
1010
0000
,  // measure 66
0100
0001
1000
0000
0100
0010
0001
0000
0010
0100
1000
0000
0001
0100
0010
0000
,  // measure 67
1000
0100
0010
0000
0001
0100
0010
0000
0100
0010
1000
0000
0100
0010
0001
0000
,  // measure 68
0010
0100
1000
0000
0001
0100
0010
0000
1000
0100
0010
0000
0001
0010
0100
0000
,  // measure 69
1100
1001
0101
1001
0000
0011
1001
0101
,  // measure 70
0001
0100
0001
0100
1000
0100
1000
0100
0010
0100
0010
0100
0010
0001
0010
0001
,  // measure 71
0010
1000
0010
1000
0100
0010
0100
0010
0100
0001
0100
0001
0100
0010
0100
0010
,  // measure 72
0001
0010
0100
1000
0001
0010
0100
1000
0001
0100
0010
1000
0001
0100
0010
1000
,  // measure 73
0001
0010
0001
0010
0100
1000
0001
0010
0100
1000
0100
1000
0010
0100
0001
0010
,  // measure 74
0100
1000
0100
1000
0100
0001
0100
0001
0100
0010
0100
0010
0001
0010
0001
0010
,  // measure 75
0001
0100
0001
0100
1000
0100
1000
0100
0010
0100
0010
0100
0001
0010
0001
0010
,  // measure 76
0001
0100
0010
1000
0001
0100
0010
1000
0010
0100
0001
1000
0010
0100
0001
1000
,  // measure 77
0001
0010
0100
0010
0001
0100
0010
1000
0100
0000
0101
0000
1100
0000
0000
0000
;
