#TITLE:Before the Rain;
#SUBTITLE:;
#ARTIST:Lagoona;
#TITLETRANSLIT:;
#SUBTITLETRANSLIT:;
#ARTISTTRANSLIT:;
#GENRE:;
#CREDIT:;
#BANNER:beforetherainbn.png;
#BACKGROUND:beforetherainbg.png;
#LYRICSPATH:;
#CDTITLE:;
#MUSIC:beforetherain.ogg;
#OFFSET:-0.393853;
#SAMPLESTART:28.509991;
#SAMPLELENGTH:12.000005;
#SELECTABLE:YES;
#BPMS:0.000000=144.979996
;
#STOPS:
;
#BGCHANGES:;
#KEYSOUNDS:;
#ATTACKS:;

//---------------dance-single - C. Picardy----------------
#NOTES:
     dance-single:
     :
     Beginner:
     1:
     0.105918,0.118253,0.103237,0.037541,0.000000,64.000000,11.000000,4.000000,0.000000,0.000000,0.000000,0.105918,0.118253,0.103237,0.037541,0.000000,64.000000,11.000000,4.000000,0.000000,0.000000,0.000000:
0000
0000
0000
0000
,
0000
0000
0000
0000
,
0000
0000
0000
0000
,
0000
0000
0000
0000
,
0010
0000
0000
0000
,
0000
0000
0000
0000
,
0100
0000
0000
0000
,
0000
0000
0000
0000
,
1000
0000
0000
0000
,
0001
0000
0000
0000
,
1000
0000
0000
0000
,
0001
0000
0000
0000
,
0100
0000
0000
0000
,
0010
0000
0000
0000
,
1000
0000
0000
0000
,
0001
0000
0000
0000
,
1001
0000
0000
0000
,
0100
0000
0100
0000
,
0000
0000
0000
0000
,
0010
0000
0010
0000
,
0000
0000
0000
0000
,
1000
0000
1000
0000
,
0000
0000
0000
0000
,
0001
0000
0001
0000
,
0000
0000
0000
0000
,
1001
0000
0000
0000
,
0000
0000
0000
0000
,
1000
0000
0000
0000
,
1000
0000
0000
0000
,
0001
0000
0000
0000
,
0001
0000
0000
0000
,
0010
0000
0000
0000
,
0010
0000
0000
0000
,
0100
0000
0000
0000
,
0100
0000
0000
0000
,
0002
0000
0003
0000
,
2000
0000
3000
0000
,
0020
0000
0030
0000
,
0200
0000
0300
0000
,
0001
0000
0000
0000
,
1000
0000
0000
0000
,
0010
0000
0000
0000
,
0100
0000
0000
0000
,
0001
0000
0001
0000
,
1000
0000
1000
0000
,
0001
0000
0001
0000
,
1000
0000
0000
0000
,
1001
0000
0000
0000
,
1001
0000
0000
0000
,
0110
0000
0000
0000
,
0110
0000
0000
0000
,
0001
0000
0001
0000
,
0001
0000
0000
0000
,
1000
0000
1000
0000
,
1000
0000
0000
0000
,
1001
0000
0000
0000
,
0110
0000
0000
0000
,
1001
0000
0000
0000
,
0110
0000
0000
0000
,
0010
0000
0010
0000
,
0010
0000
0000
0000
,
0100
0000
0100
0000
,
0100
0000
0000
0000
,
1001
0000
0000
0000
;

//---------------dance-single - C. Picardy----------------
#NOTES:
     dance-single:
     :
     Easy:
     3:
     0.230607,0.266070,0.150163,0.037541,0.000000,152.000000,16.000000,4.000000,0.000000,0.000000,0.000000,0.230607,0.266070,0.150163,0.037541,0.000000,152.000000,16.000000,4.000000,0.000000,0.000000,0.000000:
0000
0000
0000
0000
,
0000
0000
0000
0000
,
0000
0000
0000
0000
,
0000
0000
0000
0000
,
1000
0000
0000
0000
,
0010
0000
0000
0000
,
0001
0000
0000
0000
,
0100
0000
0000
0000
,
1000
0000
1000
0000
,
0001
0000
0001
0000
,
0100
0000
0100
0000
,
0010
0000
0010
0000
,
1000
0000
0010
0000
,
0100
0000
0001
0000
,
1000
0000
0100
0000
,
0010
0000
0001
0000
,
1001
0000
0000
0000
,
1000
1000
1000
0000
,
0001
0001
0001
0000
,
0100
0100
0100
0000
,
0010
0010
0010
0000
,
1000
0010
1000
0000
,
0001
0010
0001
0000
,
1000
0001
1000
0000
,
0010
0100
0010
0000
,
2002
0000
0000
3003
,
0010
0000
0001
1000
,
1001
0000
0100
0000
,
0010
0001
0100
0000
,
0010
0000
1000
0000
,
0100
1000
0010
0000
,
0100
0000
0110
0000
,
0001
0100
0010
0000
,
1000
0000
1001
0000
,
1000
0100
0010
0000
,
0011
0000
0100
0010
,
1000
0000
0101
0000
,
1000
0100
0001
0000
,
1010
0000
0100
0001
,
0010
0000
1100
0000
,
0001
0100
1000
0000
,
0110
0000
1000
0001
,
0010
0000
1001
0000
,
1000
0000
0010
0000
,
1000
0000
0001
0000
,
1001
0000
1001
0000
,
0100
0010
2002
3003
,
0100
0010
0100
0000
,
0001
1000
0001
0000
,
1000
0100
1000
0000
,
0001
0010
0001
0000
,
0100
0010
1000
0000
,
0100
0010
0001
0000
,
1000
0100
0001
0000
,
0001
0100
1000
0000
,
1001
0100
0100
0000
,
0010
0010
0100
0000
,
0001
0001
1000
0000
,
0100
0100
0010
0000
,
0100
0100
0010
0010
,
0001
0001
1000
1000
,
0010
0100
0010
0100
,
0001
1000
0001
1000
,
0110
0000
0000
0000
;

//---------------dance-single - C. Picardy----------------
#NOTES:
     dance-single:
     :
     Medium:
     5:
     0.355296,0.354760,0.178318,0.112622,0.056311,234.000000,19.000000,12.000000,0.000000,0.000000,0.000000,0.355296,0.354760,0.178318,0.112622,0.056311,234.000000,19.000000,12.000000,0.000000,0.000000,0.000000:
0000
0000
0000
0000
,
0000
0000
0000
0000
,
0000
0000
0000
0000
,
0000
0000
0000
0000
,
0001
0000
0010
0000
,
0100
0000
0010
0000
,
0001
0000
0100
0000
,
0010
0000
1000
0000
,
0000
0100
0000
1000
0000
0001
0000
0010
,
0000
0100
0000
1000
0000
0100
0000
0010
,
0000
0001
0000
1000
0000
0010
0000
0100
,
0000
0010
0000
1000
0000
0001
0000
0100
,
0000
0010
0000
1000
0000
0100
0000
0010
,
0000
0001
0000
0010
0000
0100
0000
1000
,
0000
0100
0000
0010
0000
0001
1000
0000
,
1001
0000
0000
0000
0110
0000
1000
0001
,
2000
0000
0000
3000
,
0010
0000
0100
0000
0001
0000
0100
0010
,
0100
0010
1000
0100
,
0010
0000
0100
0000
1000
0000
0010
0100
,
0010
1000
0100
0010
,
0001
0000
1000
0000
0010
0000
0100
0001
,
0100
0000
0010
0000
1000
0000
0100
1000
,
0100
0000
0010
0000
0001
0000
1000
0010
,
1000
0000
0100
0000
0010
0000
0001
1000
,
0002
0000
2003
0000
,
3200
0000
0010
0310
,
0001
0000
0000
0000
0010
0000
0000
0010
0000
0000
0000
0000
0100
0000
0000
0000
,
1000
0000
0000
0000
0001
0000
0000
0001
0000
0000
0000
0000
0100
0000
0000
0000
,
0010
0000
0000
0000
1000
0000
0000
1000
0000
0000
0000
0000
0001
0000
0000
0000
,
0010
0000
0000
0000
0100
0000
0000
0100
0000
0000
0000
0000
1000
0000
0000
0000
,
0100
0000
0000
0000
0010
0000
0000
0001
0000
0000
0000
0000
0100
0000
0001
0000
,
0100
0000
0000
0000
0010
0000
0000
1000
0000
0000
0000
0000
0001
0000
0100
0000
,
0010
0000
0000
0000
1000
0000
0000
0001
0000
0000
0000
0000
1000
0000
0100
0000
,
0010
0000
0000
0000
0100
0000
0000
1000
0000
0000
0000
0000
0010
0000
0000
0000
,
1001
0100
0010
1000
,
1100
0010
0100
0001
,
0110
1000
0001
0100
,
1010
0001
0100
1000
,
0101
0000
0000
0000
0100
0000
0000
0100
0000
0000
0000
0000
0010
0000
0000
0000
,
1010
0000
0000
0000
1000
0000
0000
1000
0000
0000
0000
0000
0001
0000
0000
0000
,
1001
0000
0000
0000
0001
0000
0000
0001
0000
0000
0000
0000
1000
0000
0000
0000
,
0110
0000
0000
0000
0010
0000
0000
0010
0000
0000
0000
0000
0000
0000
0000
0000
,
0000
0100
0000
0001
0000
0100
0000
0001
,
0000
1000
0000
0010
0000
1000
0000
0001
,
1000
0000
1000
0000
,
0110
1001
0110
1001
,
0200
0000
0010
0301
,
0020
0000
0001
0130
,
2000
0000
0010
3100
,
0002
0000
1000
0103
,
0020
0000
1000
0000
0100
0000
1030
1000
,
2000
0000
0100
0000
0010
0000
3001
0001
,
0002
0000
1000
0000
0010
0000
0103
0100
,
0200
0000
0010
0301
,
1001
0000
0100
0000
0010
0000
0100
0010
,
0100
0000
0001
0000
1000
0000
0001
1000
,
0001
0000
1000
0000
0100
0000
1000
0100
,
1000
0000
0100
0000
0010
0000
0001
0010
,
0001
0000
0101
0000
1000
0000
0010
1000
,
0010
0000
0100
0000
1001
0000
0100
0010
,
0001
0000
0100
0000
0110
0000
0010
1000
,
0001
0010
0100
1000
,
0110
0000
0000
0000
;

//---------------dance-single - C. Picardy----------------
#NOTES:
     dance-single:
     :
     Hard:
     7:
     0.457192,0.413886,0.178318,0.112622,0.244015,310.000000,19.000000,12.000000,0.000000,0.000000,0.000000,0.457192,0.413886,0.178318,0.112622,0.244015,310.000000,19.000000,12.000000,0.000000,0.000000,0.000000:
0000
0000
0000
0000
,
0000
0000
0000
0000
,
0000
0000
0000
0000
,
0000
0000
0000
0000
,
2000
0000
0000
3100
0010
0000
0000
0000
,
0002
0000
0000
0103
0010
0000
0000
0000
,
0020
0000
0000
1030
0100
0000
0000
0000
,
0020
0000
0000
0031
0100
0000
0000
0000
,
1000
0000
0000
0001
0000
0000
1000
0000
0000
0000
0000
0000
0100
0000
0000
0000
,
0010
0000
0000
0100
0000
0000
0010
0000
0000
0000
0000
0000
0001
0000
0000
0000
,
0100
0000
0000
0001
0000
0000
0100
0000
0000
0000
0000
0000
0010
0000
0000
0000
,
1000
0000
0000
0010
0000
0000
1000
0000
0000
0000
0000
0000
0001
0000
0000
0000
,
0010
0000
0000
0001
0000
0000
1000
0000
0000
0000
0000
0000
0010
0000
0000
0000
,
1000
0000
0000
0001
0000
0000
0100
0000
0000
0000
0000
0000
0010
0000
0000
0000
,
1000
0000
0000
0100
0000
0000
0010
0000
0000
0000
0000
0000
0001
0000
0000
0000
,
0101
0000
0000
0000
0000
0000
0000
0000
0100
0010
0000
0000
1000
0000
0000
0000
,
2002
0000
0000
3003
,
0100
0000
0000
1000
0000
0000
0100
0000
0000
1000
0000
0000
0100
0000
0010
0000
,
0001
0000
0000
0100
0000
0000
0001
0000
0000
0100
0000
0000
0001
0000
0100
0000
,
0010
0000
0000
0100
0000
0000
0010
0000
0000
0100
0000
0000
0010
0000
1000
0000
,
0100
0000
0000
0010
0000
0000
0100
0000
0000
0010
0000
0000
0100
0000
1000
0000
,
0001
0000
0000
0100
0000
0000
0010
0000
0000
1000
0000
0000
0100
0000
1000
0000
,
0010
0000
0000
0100
0000
0000
0001
0000
0000
1000
0000
0000
0010
0000
0100
0000
,
0001
0000
0000
1000
0000
0000
0100
0000
0000
1000
0000
0000
0100
0000
0010
0000
,
0100
0000
0000
0010
0000
0000
0001
0000
0000
0100
0000
0000
0010
0000
1000
0000
,
0202
0000
0000
0303
,
0011
0000
0101
1100
,
0001
0000
0000
0000
1000
0000
0000
1000
0000
0000
0100
0000
0010
0000
0001
0000
,
0100
0000
0000
0000
0010
0000
0000
0010
0000
0000
1000
0000
0001
0000
0100
0000
,
0010
0000
0000
0000
0100
0000
0000
0100
0000
0000
0001
0000
1000
0000
0100
0000
,
0010
0000
0000
0000
0001
0000
0000
0001
0000
0000
1000
0000
0100
0000
0010
0000
,
0001
0000
0000
0000
0010
0000
0000
0100
0000
0000
0100
0000
0010
0000
0100
0000
,
1000
0000
0000
0000
0001
0000
0000
0100
0000
0000
0001
0000
1000
0000
0001
0000
,
0010
0000
0000
0000
0100
0000
0000
0010
0000
0000
0001
0000
0010
0000
0001
0000
,
0100
0000
0000
0000
0010
0000
0000
0100
0000
0000
0010
0000
1000
0000
0100
0000
,
0010
0000
1100
0000
0001
0010
0100
0010
,
0001
0000
0110
0000
1000
0100
0010
0100
,
1000
0000
0011
0000
0100
0001
0010
0001
,
0100
0000
1010
0000
0100
1000
0010
1000
,
0100
0000
0101
0000
1000
0100
0001
0100
,
1000
0000
0011
0000
1000
0010
0001
0010
,
1000
0000
0110
0000
0001
0100
1000
0100
,
0001
0000
1100
0000
0001
0010
1000
0010
,
0001
0000
0000
0000
0100
0000
0000
0010
0000
0000
0000
0000
1000
0000
0000
0010
,
0000
0000
0000
0000
0100
0000
0000
0010
0000
0000
1000
0000
0001
0000
0000
0000
,
0110
0000
1001
0000
,
0100
0000
0000
0010
0100
0000
0010
0000
0100
0000
0000
0000
1001
0000
0000
0000
,
0020
0000
0031
0000
0100
0001
0010
0100
,
2000
0000
3010
0000
0100
0010
0001
0100
,
0020
0000
1030
0000
0100
1000
0010
0100
,
0002
0000
0103
0000
0010
1000
0001
0010
,
0100
0000
1000
0100
0010
0001
0010
0100
,
1000
0000
0100
0010
0001
0010
0100
1000
,
0001
0000
1000
0001
0100
0010
0100
0001
,
1000
0000
0100
0010
0001
0010
0100
0000
,
1001
0000
0000
0100
0000
0000
0010
0000
0000
0001
0000
0000
0010
0000
0100
0000
,
1000
0000
0000
0100
0000
0000
0010
0000
0000
0001
0000
0000
1000
0000
0100
0000
,
0010
0000
0000
0001
0000
0000
0100
0000
0000
0010
0000
0000
1000
0000
0010
0000
,
0100
0000
0000
0001
0000
0000
0010
0000
0000
0100
0000
0000
0010
0000
0100
0000
,
1000
0000
0000
0001
0000
0000
0100
0000
0000
0010
0000
0000
0100
0000
0010
0000
,
1000
0000
0000
0001
0000
0000
1000
0000
0000
0100
0000
0000
0010
0000
0001
0000
,
0100
0000
0000
0010
0000
0000
0100
0000
0000
0010
0000
0000
1000
0000
0001
0000
,
1000
0000
0000
0001
0000
0000
1000
0000
0000
0001
0000
0000
1000
0000
0100
0000
,
1100
0000
0000
0000
;

//---------------dance-single - C. Picardy----------------
#NOTES:
     dance-single:
     :
     Challenge:
     9:
     0.639533,0.650393,0.394177,0.037541,0.502107,431.000000,42.000000,4.000000,0.000000,0.000000,0.000000,0.639533,0.650393,0.394177,0.037541,0.502107,431.000000,42.000000,4.000000,0.000000,0.000000,0.000000:
// measure 0
0000
0000
0000
0000
,  // measure 1
0000
0000
0000
0000
,  // measure 2
0000
0000
0000
0000
,  // measure 3
0000
0000
0000
0000
,  // measure 4
0010
0000
0000
0100
0000
0000
1000
0000
0000
0001
0000
0000
1000
0000
0100
0000
,  // measure 5
0010
0000
0000
0001
0000
0000
1000
0000
0000
0010
0000
0000
0100
0000
0010
0000
,  // measure 6
1000
0000
0000
0001
0000
0000
0100
0000
0000
0010
0000
0000
0100
0000
0010
0000
,  // measure 7
0001
0000
0000
0010
0000
0000
1000
0000
0000
0100
0000
0000
0010
0000
0001
0000
,  // measure 8
1000
0000
0000
1000
0000
0000
0010
0000
0000
0000
1000
0000
0010
0000
0100
0000
,  // measure 9
0001
0000
0000
0001
0000
0000
1000
0000
0000
0000
0100
0000
0010
0000
0001
0000
,  // measure 10
0100
0000
0000
0100
0000
0000
0010
0000
0000
0000
1000
0000
0001
0000
0100
0000
,  // measure 11
0010
0000
0000
0010
0000
0000
1000
0000
0000
0000
0001
0000
0100
0000
0010
0000
,  // measure 12
1000
0000
0000
0100
0000
0000
0010
0000
0000
0000
0001
0000
1000
0000
0100
0000
,  // measure 13
0001
0000
0000
0100
0000
0000
1000
0000
0000
0000
0010
0000
0001
0000
0010
0000
,  // measure 14
1000
0000
0000
0100
0000
0000
0001
0000
0000
0000
1000
0000
0010
0000
0001
0000
,  // measure 15
0101
0000
0000
0000
0000
0000
0000
0000
0000
0100
0010
0000
1000
0000
0001
0000
,  // measure 16
2002
0000
0000
3003
,  // measure 17
0100
0000
0000
0110
0000
0000
0010
0000
0000
0110
0000
0000
0001
0000
0010
0000
,  // measure 18
0100
0000
0000
1100
0000
0000
1000
0000
0000
1100
0000
0000
0100
0000
0010
0000
,  // measure 19
0001
0000
0000
0011
0000
0000
0010
0000
0000
0011
0000
0000
1000
0000
0001
0000
,  // measure 20
0100
0000
0000
0101
0000
0000
0001
0000
0000
0101
0000
0000
1000
0000
0010
0000
,  // measure 21
0100
0000
0000
0101
0000
0000
1010
0000
0000
1100
0000
0000
0010
0000
0100
0000
,  // measure 22
1000
0000
0000
0101
0000
0000
0110
0000
0000
1010
0000
0000
0001
0000
0100
0000
,  // measure 23
0010
0000
0000
1010
0000
0000
0011
0000
0000
0110
0000
0000
1000
0000
0001
0000
,  // measure 24
0100
0000
0000
0110
0000
0000
0101
0000
0000
1001
0000
0000
1000
0000
0001
0000
,  // measure 25
2002
0000
0000
3003
1001
0000
1000
0100
,  // measure 26
1001
0000
0000
0000
0000
0000
0100
0000
0010
1000
0001
0000
1001
0000
0100
0000
,  // measure 27
1001
0000
0000
0000
0100
0000
0100
0010
0000
0000
0001
0000
0010
0000
0100
0000
,  // measure 28
1000
0000
0000
0000
0001
0000
0001
0100
0000
0000
0010
0000
1000
0000
0010
0000
,  // measure 29
0100
0000
0000
0000
0010
0000
0010
1000
0000
0000
0100
0000
0010
0000
0001
0000
,  // measure 30
1000
0000
0000
0000
0001
0000
0001
0010
0000
0000
0100
0000
1000
0000
0100
0000
,  // measure 31
0010
0000
0001
0000
0100
0000
0100
0010
0000
0010
1000
0000
0100
0000
0010
0000
,  // measure 32
0001
0000
1000
0000
0100
0000
0100
1000
0000
1000
0100
0000
0010
0000
0001
0000
,  // measure 33
0100
0000
0010
0000
1000
0000
1000
0001
0000
0001
1000
0000
0100
0000
0010
0000
,  // measure 34
0001
0000
0100
0000
1000
0000
0100
0001
0000
0001
1000
0000
0001
0000
1000
0000
,  // measure 35
0110
0000
0000
0000
0001
0000
0000
0001
1000
0000
0100
0000
0010
0000
0001
0000
,  // measure 36
0100
0000
0010
0000
1000
0000
0000
0100
0010
0000
0100
0000
1000
0000
0100
0000
,  // measure 37
0010
0000
0100
0000
1000
0000
0000
0100
0010
0000
0001
0000
0100
0000
0001
0000
,  // measure 38
0010
0000
0100
0000
1000
0000
0000
0100
0001
0000
0100
0000
1000
0000
0010
0000
,  // measure 39
0100
0000
0001
0000
0100
0001
0100
0000
0001
0100
0001
0000
1000
0000
0010
0000
,  // measure 40
1000
0000
0100
0000
1000
0100
1000
0000
0100
1000
0100
0000
0010
0000
0001
0000
,  // measure 41
1000
0000
0010
0000
0100
0010
0100
0000
0010
0100
0010
0000
1000
0000
0001
0000
,  // measure 42
0100
0000
0010
0000
1000
0001
1000
0000
0001
1000
0001
0000
1000
0000
0100
0000
,  // measure 43
1001
0000
0100
0000
0010
0000
0010
0001
0000
0000
0100
0000
0010
0000
0010
1000
,  // measure 44
0000
0000
0001
0000
0100
0000
0100
0010
0000
0000
1000
0000
0001
0000
0100
0000
,  // measure 45
1001
0000
0110
0000
,  // measure 46
1000
0000
0100
0010
0100
0010
0000
0000
0001
1000
0001
0000
1001
0000
1001
0000
,  // measure 47
0100
0000
0000
0010
0000
0000
1000
0000
0000
0100
0000
0000
0001
0000
0100
0000
,  // measure 48
0010
0000
0000
0001
0000
0000
0100
0000
0000
1000
0000
0000
0001
0000
0010
0000
,  // measure 49
1000
0000
0000
0001
0000
0000
0010
0000
0000
1000
0000
0000
0001
0000
0100
0000
,  // measure 50
0010
0000
0000
0100
0000
0000
1000
0000
0000
0001
0000
0000
0010
0000
0100
0000
,  // measure 51
0010
0000
0010
0001
0000
0001
0100
0000
0100
0010
0000
0000
1000
0000
0001
0000
,  // measure 52
0100
0000
0100
0010
0000
0010
1000
0000
1000
0010
0000
0000
0100
0000
0001
0000
,  // measure 53
1000
0000
1000
0100
0000
0100
1000
0000
1000
0100
0000
0000
0010
0000
0100
0000
,  // measure 54
0010
0000
0010
0100
0000
0100
1000
0000
1000
0001
0000
0000
1000
0000
0001
0000
,  // measure 55
0101
0000
0100
0010
0000
0010
1000
0000
1000
0001
0000
0000
1000
0000
0100
0000
,  // measure 56
1100
0000
0100
0010
0000
0010
0001
0000
0001
1000
0000
0000
0010
0000
1000
0000
,  // measure 57
1010
0000
0010
0100
0000
0100
0001
0000
0001
0100
0000
0000
0001
0000
0010
0000
,  // measure 58
0011
0000
0001
0100
0000
0100
0001
0000
0001
0010
0000
0000
0001
0000
0100
0000
,  // measure 59
0110
0000
0010
1000
0000
0000
0001
0100
0001
0100
0001
0000
1000
0000
0100
0000
,  // measure 60
0110
0000
0100
1000
0000
0000
0010
0100
0010
0100
0010
0000
0100
0000
0001
0000
,  // measure 61
0101
0000
0001
1000
0000
0000
0100
1000
0100
1000
0100
0000
1000
0000
0010
0000
,  // measure 62
0110
0000
0001
1000
0000
0000
0010
0100
0010
0100
0010
0000
1000
0000
0001
0000
,  // measure 63
0110
0000
0000
0000
;
