#VERSION:0.83;
#TITLE:Be My Lover;
#SUBTITLE:;
#ARTIST:La Bouche;
#TITLETRANSLIT:;
#SUBTITLETRANSLIT:;
#ARTISTTRANSLIT:;
#GENRE:;
#ORIGIN:;
#CREDIT:;
#BANNER:bemyloverbn.png;
#BACKGROUND:bemyloverbg.png;
#PREVIEWVID:;
#JACKET:;
#CDIMAGE:;
#DISCIMAGE:;
#LYRICSPATH:;
#CDTITLE:;
#MUSIC:bemylover.ogg;
#OFFSET:-1.246933;
#SAMPLESTART:64.150177;
#SAMPLELENGTH:12.000000;
#SELECTABLE:YES;
#BPMS:0.000=134.810;
#STOPS:;
#DELAYS:;
#WARPS:;
#TIMESIGNATURES:0.000=4=4;
#TICKCOUNTS:0.000=4;
#COMBOS:0.000=1;
#SPEEDS:0.000=1.000=0.000=0;
#SCROLLS:0.000=1.000;
#FAKES:;
#LABELS:0.000=Song Start;
#BGCHANGES:16.000=4K Geometric.mp4=1.000=1=0=1=SongBgWithMovieViz==CrossFade==,
32.000=flash=1.000=0=0=1=====,
32.250=4K Geometric.mp4=1.000=0=0=1=====,
56.000=flash=1.000=0=0=1=====,
56.250=4K Geometric.mp4=1.000=0=0=1=====,
76.000=4K Geometric.mp4=1.000=0=0=1=====,
80.000=flash=1.000=0=0=1=====,
80.250=4K Geometric.mp4=1.000=0=0=1=====,
108.000=bemyloverbg.png=1.000=0=0=1=====,
108.500=bemyloverbg.png=1.000=0=0=1====#808080=,
108.750=bemyloverbg.png=1.000=0=0=1====#FFFFFF80=,
109.000=bemyloverbg.png=1.000=0=0=1====#FF0000=,
109.250=bemyloverbg.png=1.000=0=0=1====#00FF00=,
109.500=bemyloverbg.png=1.000=0=0=1====#0000FF=,
109.750=bemyloverbg.png=1.000=0=0=1====#FFFF00=,
110.000=bemyloverbg.png=1.000=0=0=1====#00FFFF=,
110.500=bemyloverbg.png=1.000=0=0=1=StretchNormalRed====,
110.750=bemyloverbg.png=1.000=0=0=1=StretchNormalGreen====,
111.000=bemyloverbg.png=1.000=0=0=1=StretchNormalBlue====,
111.500=bemyloverbg.png=1.000=0=0=1====#FFFFFF=,
112.000=flash=1.000=0=0=1=====,
112.250=4K Geometric.mp4=1.000=0=0=0=StretchNoLoop====,
144.000=flash=1.000=0=0=1=====,
144.250=4K Geometric.mp4=1.000=0=0=1=====,
176.000=flash=1.000=0=0=1=====,
176.250=4K Geometric.mp4=1.000=0=0=1=====,
177.000=flash=1.000=0=0=1=====,
177.250=4K Geometric.mp4=1.000=0=0=1=====,
178.000=flash=1.000=0=0=1=====,
178.250=4K Geometric.mp4=1.000=0=0=1=====,
184.000=flash=1.000=0=0=1=====,
184.250=4K Geometric.mp4=1.000=0=0=1=====,
185.000=flash=1.000=0=0=1=====,
185.250=4K Geometric.mp4=1.000=0=0=1=====,
186.000=flash=1.000=0=0=1=====,
186.250=4K Geometric.mp4=1.000=0=0=1=====,
192.000=flash=1.000=0=0=1=====,
192.250=4K Geometric.mp4=1.000=0=0=1=====,
193.000=flash=1.000=0=0=1=====,
193.250=4K Geometric.mp4=1.000=0=0=1=====,
194.000=flash=1.000=0=0=1=====,
194.250=4K Geometric.mp4=1.000=0=0=1=====,
200.000=flash=1.000=0=0=1=====,
200.250=4K Geometric.mp4=1.000=0=0=1=====,
201.000=flash=1.000=0=0=1=====,
201.250=4K Geometric.mp4=1.000=0=0=1=====,
202.000=flash=1.000=0=0=1=====,
202.250=4K Geometric.mp4=1.000=0=0=1=====,
204.000=4K Geometric.mp4=1.000=1=0=1=SongBgWithMovieViz==CrossFade==,
208.000=flash=1.000=0=0=1=====,
208.250=4K Geometric.mp4=1.000=0=0=0=StretchNoLoop====,
240.000=4K Geometric.mp4=1.000=0=0=1=SongBgWithMovieViz====,
244.000=flash=1.000=0=0=1=====,
244.250=bemyloverbg.png=1.000=0=0=1=====,
99999=-nosongbg-=1.000=0=0=0 // don't automatically add -songbackground-
;
#KEYSOUNDS:;
#ATTACKS:
;

//---------------dance-single - C. Picardy----------------
#NOTEDATA:;
#CHARTNAME:;
#STEPSTYPE:dance-single;
#DESCRIPTION:C. Picardy;
#CHARTSTYLE:;
#DIFFICULTY:Beginner;
#METER:1;
#RADARVALUES:0.089428,0.132253,0.070535,0.000000,0.000000,71.000000,63.000000,8.000000,0.000000,0.000000,0.000000,0.000000,0.000000,0.000000,0.089428,0.132253,0.070535,0.000000,0.000000,71.000000,63.000000,8.000000,0.000000,0.000000,0.000000,0.000000,0.000000,0.000000;
#CREDIT:C. Picardy;
#NOTES:
0000
0000
0000
0000
,
0000
0000
0000
0000
,
0000
0000
0000
0000
,
0000
0000
0000
0000
,
1001
0000
0000
0000
,
0100
0000
0000
0000
,
0010
0000
0000
0000
,
1000
0000
0000
0000
,
0001
0000
0001
0000
,
1000
0000
1000
0000
,
0001
0000
0000
0000
,
1000
0000
0000
0000
,
0010
0000
0000
0000
,
0100
0000
0000
0000
,
0001
0000
0001
0000
,
0001
0000
0000
0000
,
1000
0000
1000
0000
,
1000
0000
0000
0000
,
1001
0000
0000
0000
,
0010
0000
0000
0000
,
0100
0000
0100
0000
,
0100
0000
0000
0000
,
0010
0000
0010
0000
,
0010
0000
0000
0000
,
1000
0000
0000
0000
,
0001
0000
0000
0000
,
1000
0000
0000
0000
,
0001
0000
0000
0000
,
1001
0000
0000
0000
,
0100
0000
0000
0000
,
0010
0000
0000
0000
,
0100
0000
0000
0000
,
1000
0000
0000
0000
,
0001
0000
0000
0000
,
1000
0000
1000
0000
,
0000
0000
0000
0000
,
0100
0000
0000
0000
,
0110
0000
0000
0000
,
0001
0000
0000
0000
,
1001
0000
0000
0000
,
1000
0000
0000
0000
,
0110
0000
0000
0000
,
0001
0000
0000
0000
,
1000
0000
0000
0000
,
0100
0000
0100
0000
,
0000
0000
0000
0000
,
0010
0000
0010
0000
,
0000
0000
0000
0000
,
0001
0000
0001
0000
,
0000
0000
0000
0000
,
1000
0000
1000
0000
,
0000
0000
0000
0000
,
1001
0000
0000
0000
,
0100
0000
0000
0000
,
0010
0000
0000
0000
,
1000
0000
0000
0000
,
0110
0000
0000
0000
,
0001
0000
0000
0000
,
1000
0000
0000
0000
,
0100
0000
0000
0000
,
0010
0000
0000
0000
;

//---------------dance-single - C. Picardy----------------
#NOTEDATA:;
#CHARTNAME:;
#STEPSTYPE:dance-single;
#DESCRIPTION:C. Picardy;
#CHARTSTYLE:;
#DIFFICULTY:Easy;
#METER:3;
#RADARVALUES:0.234277,0.264506,0.141070,0.158704,0.000000,186.000000,170.000000,16.000000,18.000000,0.000000,0.000000,0.000000,0.000000,0.000000,0.234277,0.264506,0.141070,0.158704,0.000000,186.000000,170.000000,16.000000,18.000000,0.000000,0.000000,0.000000,0.000000,0.000000;
#CREDIT:C. Picardy;
#NOTES:
0000
0000
0000
0000
,
0000
0000
0000
0000
,
0000
0000
0000
0000
,
0000
0000
0000
0000
,
1001
0000
0000
0000
,
0100
0000
0000
0000
,
0010
0000
0000
0000
,
0200
0000
0000
0300
,
1000
0001
1000
0001
,
0100
0010
0100
0000
,
0001
0000
1000
1000
,
0100
0000
0010
0010
,
0001
0000
0100
0100
,
0020
0000
0000
0030
,
1000
0010
1000
0000
,
0001
1000
0001
0000
,
0100
0100
0010
0000
,
1000
1000
0001
0001
,
1000
0100
0010
0000
,
0002
0000
2000
3003
,
0100
1000
0100
1000
,
0001
0010
0001
0000
,
0100
0010
1000
0001
,
0010
0010
0100
0100
,
1000
0001
1000
0001
,
0100
0010
0100
0010
,
1000
0100
1000
0000
,
0010
0100
2002
3003
,
0001
0000
0010
0000
,
0001
0000
0100
0100
,
0010
0000
1000
0000
,
0010
0000
0100
0100
,
1001
0000
0010
0010
,
1001
0000
0010
0100
,
0110
0000
1001
0000
,
0100
0000
0010
0010
,
1000
0001
1000
1000
,
0001
0100
0010
0010
,
1000
0001
0100
0100
,
0010
1000
0001
0001
,
1001
0000
0101
0000
,
1100
0000
0001
1000
,
0220
0000
0330
0000
,
1000
0100
0010
0001
,
0100
0010
2002
3003
,
0000
0010
1000
0001
,
0100
0010
2002
3003
,
0000
1000
0001
0100
,
0001
1000
0220
0330
,
0000
0001
1000
0100
,
1000
0001
0220
0330
,
2002
0000
0000
3003
,
1000
0001
1000
0001
,
0100
0010
0100
0010
,
1000
0100
1000
0100
,
0010
0001
0010
0001
,
1000
0100
0010
0010
,
0001
0100
0010
0010
,
1000
0001
0100
0100
,
0001
1000
0010
0100
,
1001
0000
0000
0000
;

//---------------dance-single - C. Picardy----------------
#NOTEDATA:;
#CHARTNAME:;
#STEPSTYPE:dance-single;
#DESCRIPTION:C. Picardy;
#CHARTSTYLE:;
#DIFFICULTY:Medium;
#METER:5;
#RADARVALUES:0.314888,0.349589,0.176337,0.185154,0.004408,250.000000,230.000000,20.000000,21.000000,0.000000,0.000000,0.000000,0.000000,0.000000,0.314888,0.349589,0.176337,0.185154,0.004408,250.000000,230.000000,20.000000,21.000000,0.000000,0.000000,0.000000,0.000000,0.000000;
#CREDIT:C. Picardy;
#NOTES:
0000
0000
0000
0000
,
0000
0000
0000
0000
,
0000
0000
0000
0000
,
0000
0000
0000
0000
,
1001
1000
0000
0100
,
0000
0010
0000
0001
,
1000
0000
0100
0010
0000
0000
0000
0000
,
0100
0100
0010
0100
,
1001
0100
0010
1000
,
1001
0100
0010
1000
,
0001
0000
0001
0000
0001
0000
0001
0100
,
0010
0000
0010
0000
0010
0000
0010
1000
,
0100
0000
0100
0000
0100
0000
0100
1000
,
0002
0000
0000
1003
,
0100
0010
0001
0100
,
0010
0000
1000
0000
0001
0100
0000
0000
,
0010
1000
0100
0010
,
0001
0000
1000
0000
0100
0000
0010
0100
,
1000
1000
1000
1000
,
0002
0000
0000
1000
0000
1000
1003
0000
,
0100
0010
0001
0100
,
0010
0000
1000
0100
0010
0000
0000
0000
,
0001
1000
0100
0010
,
0100
0000
1000
0000
0001
0000
1000
0100
,
0010
0000
0010
0000
0010
0000
0010
0001
,
0100
0000
0100
0000
0100
0000
0100
0010
,
1000
0000
1000
0000
1000
0001
0000
0000
,
1010
0101
2002
3003
,
1000
0000
0001
1000
0000
0000
0100
0000
,
0010
0001
1000
0100
,
0010
0000
0001
1000
0000
0000
0010
0000
,
0100
0000
0001
0000
1000
0000
0100
0010
,
0000
0000
0001
0000
1000
0000
0010
0100
,
0000
0001
1000
0100
,
0020
0000
0000
0130
0000
0000
0000
0000
,
1000
0000
0001
0000
0100
0000
0010
2000
,
0001
0000
0001
0000
0001
0000
3001
0200
,
0010
0000
0010
0000
0010
0000
0310
2000
,
0100
0000
0100
0000
0100
0000
3100
0020
,
0001
0001
0001
0031
,
1000
0000
0001
0000
0100
0000
0001
1000
,
0000
0100
0010
0010
,
0001
0000
1000
0100
0000
0000
0000
0000
,
1000
0000
0000
0000
0001
0000
0000
0000
0100
0000
0000
0010
0100
0000
0000
0000
,
1001
1100
0220
0330
,
0001
0000
1000
0000
0010
0100
0010
0000
,
1010
0101
2002
3003
,
1000
0000
0100
0000
0010
0001
0010
0000
,
1100
0101
2020
3030
,
0100
0000
0010
0000
1000
0010
1000
0000
,
0011
0101
2200
3300
,
2002
0000
0000
3003
,
1000
0000
0001
0000
0100
0000
0010
1000
,
0100
0000
0010
0000
0001
0000
0010
0100
,
1000
0000
0001
0000
0100
0000
0010
1000
,
0001
0000
0010
0000
0100
0000
0010
0001
,
0100
0000
0100
0000
0100
0000
0100
0010
,
1000
0000
1000
0000
1000
0000
1000
0100
,
0010
0000
0010
0000
0010
0000
0010
0001
,
0100
0010
1000
0001
,
0220
0000
0000
0000
,
0330
0000
0000
0000
;

//---------------dance-single - C. Picardy----------------
#NOTEDATA:;
#CHARTNAME:;
#STEPSTYPE:dance-single;
#DESCRIPTION:C. Picardy;
#CHARTSTYLE:;
#DIFFICULTY:Hard;
#METER:8;
#RADARVALUES:0.477370,0.573978,0.255689,0.185154,0.198379,379.000000,350.000000,29.000000,21.000000,0.000000,0.000000,0.000000,0.000000,0.000000,0.477370,0.573978,0.255689,0.185154,0.198379,379.000000,350.000000,29.000000,21.000000,0.000000,0.000000,0.000000,0.000000,0.000000;
#CREDIT:C. Picardy;
#NOTES:
0000
0000
0000
0000
,
0000
0000
0000
0000
,
0000
0000
0000
0000
,
0000
0000
0000
0000
,
0012
0000
0203
0000
,
0320
0000
0000
0000
0000
0000
0000
0000
1030
0000
0000
0100
0000
0000
0010
0000
,
0001
0000
2000
0002
0000
0000
3003
0000
,
1000
0001
1000
0001
,
1100
0000
0011
0000
1000
0100
0010
0001
,
0100
0000
1001
0000
0010
1000
0100
0010
,
0001
0000
1000
0000
0100
0000
1000
0000
0001
0000
1000
0001
0000
1000
0001
0000
,
1000
0000
0001
0000
0100
0000
0010
0000
0100
0000
0010
0100
0000
0010
0100
0000
,
0001
0000
0100
0000
0010
0000
0100
0000
0001
0000
1000
0100
0000
1000
0100
0000
,
2000
0000
0000
0000
0010
0000
0000
0000
0001
3000
0000
0000
1001
0000
0000
0000
,
1000
0100
0010
0100
1000
0000
0010
0000
,
0100
0001
0100
0010
1000
1000
0000
1000
,
0001
0010
0100
1000
0001
0000
0100
0010
,
1000
0100
0010
0001
0010
0100
0010
0100
,
1000
0000
0101
0000
0001
0010
0100
0000
,
1000
0000
0000
0000
0001
0000
0000
0100
0000
0000
0001
0000
1001
0000
0000
0000
,
0001
0100
1000
0100
0001
0100
1000
0100
,
0001
0100
1000
0100
0001
0000
1000
0000
,
1000
0100
0001
0100
1000
0100
0001
0100
,
1000
0100
1000
0100
0010
0001
0100
0010
,
1000
0000
1001
0000
1000
0100
0010
0001
,
0100
0000
1001
0000
0010
0100
1000
0001
,
0100
0000
1001
0000
0100
0010
0000
0000
,
1000
0000
0001
1000
0001
1000
0001
1000
0001
0000
1000
0000
0001
0000
0000
0000
,
0110
0000
1000
0000
0010
1000
0100
0010
,
0001
0000
1000
0000
0100
0010
0100
0010
,
0001
0000
0100
0000
0010
1000
0010
1000
,
1000
0000
0100
0000
0010
0001
0001
2000
,
0000
0000
3001
0010
0100
1000
0001
0200
,
0000
0000
0000
0000
0310
0000
1000
0000
0100
0000
0000
0010
0000
0000
0001
0000
,
1000
0000
0200
0020
0000
0000
0330
0000
,
0001
0000
0101
0000
0110
0000
1000
0001
,
0100
0000
0010
0000
0100
0001
0000
0100
0001
0000
0100
0001
0000
0100
0001
0000
,
0010
0000
0100
0000
1000
0100
0000
1000
0100
0000
1000
0100
0000
1000
0100
0000
,
0010
0000
0001
0000
1000
0001
0000
1000
0001
0000
1000
0001
0000
1000
0001
0000
,
0010
0000
0100
0000
0010
0100
0000
0010
0100
0000
0010
0100
0000
0010
0200
0000
,
0000
0000
1300
1000
0001
0100
0010
2000
,
0000
0000
0000
0000
3001
0000
0001
0000
0100
0000
0000
0010
0000
0000
1000
0000
,
0001
0000
0000
0000
0200
0000
0020
0000
0000
0000
0000
0330
0000
0000
0000
0000
,
0110
0000
0000
0000
0100
0000
0000
0000
1001
0000
0000
1000
0001
1000
0001
0000
,
1001
0000
0110
0000
1000
0002
0000
1000
,
0000
1000
1003
0100
0010
0000
0010
0000
,
1100
0000
0101
0000
0010
2000
0000
0001
,
0000
0001
3001
0010
0100
0000
0010
0000
,
0011
0000
1010
0000
1000
0200
0000
0010
,
0000
1000
1300
0001
0100
0000
0100
0000
,
0011
0000
1100
0000
0010
0100
0000
2002
,
0000
0000
0000
3003
,
0001
0000
0100
0000
0010
0000
0100
0000
0001
0000
0100
0010
0000
0100
0010
0000
,
1000
0000
0100
0000
0010
0000
0100
0000
1000
0000
0100
0010
0000
0100
0010
0000
,
0001
0000
0010
0000
0100
0000
1000
0000
0001
0000
0100
0001
0000
0100
0001
0000
,
0000
0000
1000
0000
0000
0100
0000
0000
0010
0000
0000
0001
0000
0000
1000
0000
,
0010
0000
0100
0000
0001
0000
0100
0000
0010
0000
1000
0001
0000
1000
0001
0000
,
0010
0000
0100
0000
1000
0000
0100
0000
0010
0000
0001
1000
0000
0001
1000
0000
,
0100
0000
0010
0000
0000
0001
0000
0000
0100
0000
0000
0010
0000
0000
1000
0000
,
1010
1100
0101
0110
,
2002
0000
0000
0000
,
0000
0000
0000
0000
,
3003
0000
0000
0000
;

//---------------dance-single - C. Picardy----------------
#NOTEDATA:;
#CHARTNAME:;
#STEPSTYPE:dance-single;
#DESCRIPTION:C. Picardy;
#CHARTSTYLE:;
#DIFFICULTY:Challenge;
#METER:9;
#RADARVALUES:0.604585,0.765304,0.264506,0.476111,0.480519,480.000000,450.000000,30.000000,54.000000,23.000000,10.000000,0.000000,0.000000,0.000000,0.604585,0.765304,0.264506,0.476111,0.480519,480.000000,450.000000,30.000000,54.000000,23.000000,10.000000,0.000000,0.000000,0.000000;
#CREDIT:C. Picardy;
#NOTES:
// measure 0
0000
0000
0000
0000
,  // measure 1
0000
0000
0000
0000
,  // measure 2
0000
0000
0000
0000
,  // measure 3
0000
0000
0000
0000
,  // measure 4
1001
0000
0010
0100
1000
0100
0010
0002
,  // measure 5
0000
0000
0000
0000
0013
0000
0100
0000
1000
0000
0000
0100
0000
0000
0010
0000
,  // measure 6
0002
0000
0103
0020
0000
0000
0030
0000
,  // measure 7
1000
0100
0010
0001
0010
0100
1000
0000
,  // measure 8
0101
0000
1000
0100
1000
0000
0001
0100
0001
0000
1000
0100
1000
0000
0001
0000
,  // measure 9
0010
0000
0001
0010
0001
0000
1000
0010
1000
0000
0001
0010
0001
0000
1000
0000
,  // measure 10
1100
0000
0100
0000
0010
0001
0000
0001
0100
0000
0100
0010
0000
0010
1000
0000
,  // measure 11
1001
0000
0001
0000
0100
0010
0000
0010
1000
0000
1000
0100
0000
0100
0010
0000
,  // measure 12
0011
0000
1000
0000
0001
0010
0000
0010
0100
0000
0100
1000
0000
1000
0002
0000
,  // measure 13
0000
0000
1000
0000
0000
0100
0000
0000
0010
0000
0000
1000
0003
0000
0001
0100
,  // measure 14
0010
1000
0001
0100
1000
0100
0010
0001
,  // measure 15
1000
0100
0010
1000
0100
0011
0000
1000
,  // measure 16
0100
0001
0100
1000
0001
0010
0100
1000
,  // measure 17
0001
0100
0010
1000
0100
0001
0100
0010
,  // measure 18
MM11
0000
11MM
0000
MM11
0001
0100
0000
,  // measure 19
1010
0000
0000
0000
0100
0000
0000
0011
0000
0100
0010
0000
1001
0000
0000
0000
,  // measure 20
1000
0100
1000
0000
0001
0000
0010
0000
0100
1000
0100
0000
0010
0000
0001
0000
,  // measure 21
1000
0010
1000
0000
0001
0000
0100
0000
0010
0100
0010
0000
0100
0000
0001
0000
,  // measure 22
1000
0100
0010
0000
0001
0000
1000
0000
0100
0010
0001
0000
1000
0000
0010
0000
,  // measure 23
0100
0001
1000
0000
0100
0000
0010
0000
0100
1000
0001
0000
0100
0000
0010
0000
,  // measure 24
1000
0000
0100
0010
0001
0000
0010
0100
1000
0000
0001
0010
0100
0000
1000
0000
,  // measure 25
0010
0000
0100
0010
1000
0000
0001
1000
0010
0000
1000
0100
0010
0000
0001
0000
,  // measure 26
1000
0000
0100
0010
0001
0000
0100
0010
1000
0000
2002
0000
0000
0000
3003
0000
,  // measure 27
0001
0000
1000
0100
0010
0001
0010
0100
1000
0000
0001
1000
0100
0000
0100
0000
,  // measure 28
0010
0000
0001
0000
1000
0000
0010
0000
0100
0000
0001
0000
1000
0000
0010
0100
,  // measure 29
0001
0000
1000
0000
0001
0000
0010
0000
0100
0000
1000
0000
0001
0000
0010
0100
,  // measure 30
1000
0000
0001
0000
0100
0000
0001
0000
0010
0000
0100
0000
1000
0000
0001
0010
,  // measure 31
0100
1000
0010
0100
0010
1000
0001
0200
,  // measure 32
0000
0000
0000
0000
0320
0000
0200
0030
0002
0300
0020
0003
0200
0030
2000
0300
,  // measure 33
0000
0000
0000
0000
3100
0000
0010
0000
0002
0000
0000
2003
0000
0000
3010
0000
,  // measure 34
0200
0000
0302
2000
0000
0000
3003
0000
,  // measure 35
01MM
0000
M010
0000
11MM
0000
0001
0101
,  // measure 36
1000
0000
0001
0000
1000
0010
0000
0010
1000
0000
0001
0100
0000
0100
0001
0000
,  // measure 37
1000
0000
0100
0000
0010
0001
0000
0001
0010
0000
0100
1000
0000
1000
0100
0000
,  // measure 38
0010
0000
0001
0000
0100
0010
0000
0010
0100
0000
0001
1000
0000
1000
0001
0000
,  // measure 39
0000
0000
0100
0000
0010
0100
0000
0100
0001
0000
1000
0010
0000
0010
2000
0000
,  // measure 40
0000
0000
0000
0000
3002
0000
0200
0003
2000
0300
0200
3000
0020
0300
2000
0030
,  // measure 41
0000
0000
0000
3000
2000
0000
0020
3000
0002
0030
0000
0023
0000
0000
2030
0000
,  // measure 42
0002
3000
0010
0020
0000
0000
0033
0000
,  // measure 43
11MM
0000
0000
0000
M1M1
0000
0000
0000
11MM
0000
0000
0001
1000
0001
1000
0000
,  // measure 44
2200
0000
0010
0300
0100
0200
0000
0001
,  // measure 45
3300
0000
1000
0001
0200
0000
0001
0000
0002
0000
0000
0000
0010
0000
0303
0000
,  // measure 46
2002
0000
0010
0003
0001
0002
0000
0010
,  // measure 47
3003
0000
0100
1000
0010
0000
2000
0000
0002
0000
0000
0000
0010
0000
3003
0000
,  // measure 48
0002
0000
0200
0000
0010
0010
0000
1000
,  // measure 49
0303
0000
0010
0100
0001
0000
2000
0000
0200
0000
0000
0000
0010
0000
3300
0000
,  // measure 50
2002
0000
0000
3003
0202
0000
0000
0303
0020
0000
2000
0030
0000
3000
1001
0000
,  // measure 51
0000
0000
0100
0010
0100
0000
0010
0000
0100
0010
0100
0010
0100
0010
0100
0010
,  // measure 52
0100
0000
0001
0000
1000
0100
0000
0100
1000
0000
1000
0010
0000
0010
0100
0000
,  // measure 53
0101
0000
1000
0000
0100
0010
0000
0010
0001
0000
0001
1000
0000
1000
0010
0000
,  // measure 54
0110
0000
1000
0000
0001
0100
0000
0100
0001
0000
0001
0010
0000
0010
0100
0000
,  // measure 55
0000
0000
0011
0000
0000
1MM0
0000
0000
M11M
0000
0000
MM01
0000
0000
1000
0000
,  // measure 56
1100
0000
0010
0000
0001
0100
0000
0100
0010
0000
0010
1000
0000
1000
0001
0000
,  // measure 57
1001
0000
1000
0000
0100
0010
0000
0010
0100
0000
0100
1000
0000
1000
0010
0000
,  // measure 58
0110
0000
0100
0000
0001
0100
0000
0100
1000
0000
1000
0100
0000
0100
0010
0000
,  // measure 59
1000
0100
1000
0100
0010
0100
0010
0100
0010
0001
0010
0001
0010
0100
1000
0002
,  // measure 60
0020
0000
0000
0000
,  // measure 61
0000
0000
0000
0000
,  // measure 62
0033
0000
0000
0000
;
