#TITLE:Badlands;
#SUBTITLE:;
#ARTIST:Kenichiro Fukui (Einhander);
#TITLETRANSLIT:;
#SUBTITLETRANSLIT:;
#ARTISTTRANSLIT:;
#GENRE:;
#CREDIT:;
#BANNER:badlandsbn.png;
#BACKGROUND:badlandsbg.png;
#LYRICSPATH:;
#CDTITLE:;
#MUSIC:badlands.ogg;
#OFFSET:-0.008836;
#SAMPLESTART:25.609325;
#SAMPLELENGTH:12.000000;
#SELECTABLE:YES;
#BPMS:0.000000=149.970001
;
#STOPS:
;
#BGCHANGES:;
#KEYSOUNDS:;
#ATTACKS:;

//---------------dance-single - C. Picardy----------------
#NOTES:
     dance-single:
     :
     Beginner:
     1:
     0.101491,0.092443,0.051357,0.017119,0.000000,75.000000,6.000000,2.000000,0.000000,0.000000,0.000000,0.101491,0.092443,0.051357,0.017119,0.000000,75.000000,6.000000,2.000000,0.000000,0.000000,0.000000:
// measure 0
0000
0000
0000
0000
,  // measure 1
0000
0000
0000
0000
,  // measure 2
0000
0000
0000
0000
,  // measure 3
0000
0000
0000
0000
,  // measure 4
2000
0000
3000
0000
,  // measure 5
0001
0000
0000
0000
,  // measure 6
2000
0000
3000
0000
,  // measure 7
0001
0000
0000
0000
,  // measure 8
0100
0000
0000
0000
,  // measure 9
0100
0000
0000
0000
,  // measure 10
0010
0000
0000
0000
,  // measure 11
0010
0000
0000
0000
,  // measure 12
1000
0000
0000
0000
,  // measure 13
1000
0000
0000
0000
,  // measure 14
0001
0000
0000
0000
,  // measure 15
0001
0000
0000
0000
,  // measure 16
1000
0000
1000
0000
,  // measure 17
1000
0000
0000
0000
,  // measure 18
0001
0000
0001
0000
,  // measure 19
0001
0000
0000
0000
,  // measure 20
0100
0000
0100
0000
,  // measure 21
0100
0000
0000
0000
,  // measure 22
0010
0000
0010
0000
,  // measure 23
0010
0000
0000
0000
,  // measure 24
1001
0000
0000
0000
,  // measure 25
0100
0000
0000
0000
,  // measure 26
0010
0000
0000
0000
,  // measure 27
1000
0000
0000
0000
,  // measure 28
1001
0000
0000
0000
,  // measure 29
0010
0000
0000
0000
,  // measure 30
0100
0000
0000
0000
,  // measure 31
0001
0000
0000
0000
,  // measure 32
0110
0000
0000
0000
,  // measure 33
0100
0000
0000
0000
,  // measure 34
0010
0000
0000
0000
,  // measure 35
1000
0000
0000
0000
,  // measure 36
0001
0000
0000
0000
,  // measure 37
0100
0000
0000
0000
,  // measure 38
0010
0000
0000
0000
,  // measure 39
0100
0000
0000
0000
,  // measure 40
1001
0000
0000
0000
,  // measure 41
0001
0000
0000
0000
,  // measure 42
0100
0000
0000
0000
,  // measure 43
1000
0000
0000
0000
,  // measure 44
0010
0000
0000
0000
,  // measure 45
0001
0000
0000
0000
,  // measure 46
1000
0000
0000
0000
,  // measure 47
0100
0000
0000
0000
,  // measure 48
0001
0000
0000
0000
,  // measure 49
0010
0000
0000
0000
,  // measure 50
1000
0000
0000
0000
,  // measure 51
0100
0000
0000
0000
,  // measure 52
0001
0000
0000
0000
,  // measure 53
1000
0000
0000
0000
,  // measure 54
0010
0000
0000
0000
,  // measure 55
0100
0000
0000
0000
,  // measure 56
0001
0000
0000
0000
,  // measure 57
1001
0000
0000
0000
,  // measure 58
0100
0000
0000
0000
,  // measure 59
0010
0000
0000
0000
,  // measure 60
1000
0000
0000
0000
,  // measure 61
0001
0000
0000
0000
,  // measure 62
1000
0000
1000
0000
,  // measure 63
1000
0000
0000
0000
,  // measure 64
0001
0000
0001
0000
,  // measure 65
0001
0000
0000
0000
,  // measure 66
1000
0000
0000
0000
,  // measure 67
0010
0000
0000
0000
,  // measure 68
0100
0000
0000
0000
,  // measure 69
0010
0000
0000
0000
,  // measure 70
0100
0000
0000
0000
,  // measure 71
1001
0000
0000
0000
,  // measure 72
0010
0000
0000
0000
;

//---------------dance-single - C. Picardy----------------
#NOTES:
     dance-single:
     :
     Easy:
     4:
     0.306920,0.404758,0.171190,0.436535,0.000000,180.000000,20.000000,51.000000,0.000000,0.000000,0.000000,0.306920,0.404758,0.171190,0.436535,0.000000,180.000000,20.000000,51.000000,0.000000,0.000000,0.000000:
0000
0000
0000
0000
,
0000
0000
0000
0000
,
0000
0000
0000
0000
,
0000
0000
0000
0000
,
2002
0000
3003
0000
,
0100
0000
0010
0000
,
2002
0000
3003
0000
,
1000
0000
0001
0000
,
0110
0000
0100
0000
,
0010
0000
0010
0000
,
1001
0000
1000
0000
,
0001
0000
0001
0000
,
0110
0100
0100
0000
,
1000
0000
0010
0000
,
1001
1000
1000
0000
,
0200
0000
0000
0300
,
1000
0100
1000
0100
,
1000
0001
1000
0001
,
0100
0001
0100
0001
,
0100
0010
0100
0010
,
1000
0010
0100
0010
,
1000
0100
0010
0100
,
1000
0001
0100
0001
,
1000
0001
0010
0100
,
2000
0000
3001
0001
,
0100
0000
0010
1000
,
0002
0000
0013
0010
,
0100
0000
1000
0001
,
0200
0000
0310
0010
,
1000
0000
0001
0100
,
0020
0000
1030
1000
,
0100
0000
0010
0100
,
1001
1000
0100
0000
,
0010
0010
0000
0001
,
1001
0001
0100
0000
,
0010
0010
0000
1000
,
1100
0001
0010
0000
,
0100
0100
0000
0010
,
0011
1000
0100
0000
,
2002
0000
0000
3003
,
0002
0003
2000
3000
,
0002
0003
0200
0300
,
0020
0030
0200
0300
,
0020
0030
2000
3000
,
0200
0300
0020
0030
,
0002
0003
0020
0030
,
0200
0300
2000
3000
,
0020
0030
0200
0300
,
0002
0000
0203
0000
,
0320
0000
0230
0000
,
0302
0000
2003
0000
,
3200
0000
0320
0000
,
0032
0000
2003
0000
,
3200
0000
2300
0000
,
3020
0000
0230
0000
,
0302
0000
1003
0000
,
2002
3003
2002
3003
,
0110
1000
0001
1000
,
0100
0010
0001
1000
,
0010
0100
0010
0100
,
0001
0100
0010
1000
,
2002
0000
3003
0000
,
0100
0010
1000
0001
,
0220
0000
0330
0000
,
0001
0010
0100
1000
,
1001
0001
0100
0000
,
0010
0000
1000
0000
,
1001
1000
0100
0000
,
0010
0000
0001
0000
,
1001
1000
0010
0000
,
0100
0000
0001
0000
,
1001
0001
0010
0000
,
0200
0000
0000
0300
;

//---------------dance-single - C. Picardy----------------
#NOTES:
     dance-single:
     :
     Medium:
     6:
     0.403520,0.497308,0.136952,0.231107,0.000000,287.000000,16.000000,27.000000,0.000000,0.000000,0.000000,0.403520,0.497308,0.136952,0.231107,0.000000,287.000000,16.000000,27.000000,0.000000,0.000000,0.000000:
0000
0000
0000
0000
,
0000
0000
0000
0000
,
0000
0000
0000
0000
,
1000
0000
0100
0000
,
0012
1000
1003
0000
,
0001
1000
0001
0000
1000
0001
1000
0000
,
2010
0001
3001
0000
,
0100
0010
0100
0000
0010
0100
0010
0000
,
1000
1000
0000
0001
0001
0000
0000
1100
,
0000
0000
0000
0011
0000
0000
0000
0100
,
0010
0010
0000
0100
0100
0000
0000
1010
,
0000
0000
0000
0101
0000
1000
0000
0000
,
0001
1000
0000
1000
0001
0000
0000
1100
,
0000
0000
0000
0101
0000
0000
0000
0010
,
0100
0010
0000
0100
0010
0000
0000
0001
,
0000
0000
0000
1000
0000
0100
0000
0010
,
0100
0001
1000
0100
,
1000
0000
0001
0000
0100
0000
0010
1000
,
0001
0010
0100
0010
,
0001
0000
0100
0000
0010
0000
1000
0001
,
0100
0010
0001
0010
,
1000
0000
0100
0000
0001
0000
0100
1000
,
0010
0100
0001
1000
,
0100
0000
0010
0000
0001
0010
0100
1000
,
0002
1000
0100
0100
,
0010
1000
0203
0310
,
2000
0010
0001
0001
,
0010
0100
0010
0010
,
3020
1000
0100
0100
,
0001
1000
2030
3001
,
0200
1000
0010
0010
,
0001
1000
1000
0001
,
0310
1000
0000
1000
0010
0000
0000
0000
,
0100
0010
0100
0000
0000
0001
0001
0000
,
1000
0100
0000
0100
1000
0000
0000
0000
,
0010
0100
0010
0000
0000
1000
1000
0000
,
0001
0100
0000
0100
0001
0000
0000
0000
,
1000
0100
0001
0000
0000
1000
1000
0000
,
0010
0100
0000
0100
0010
0000
0000
0000
,
2000
0000
0000
0002
0000
0000
3003
0000
,
0100
0000
0010
0000
0000
1000
0001
0100
,
0000
0010
0010
0000
0000
0000
1000
0000
,
0100
0100
1000
0000
0000
0001
0001
0000
,
1000
0000
0100
0000
0010
0001
0010
0000
,
0200
2300
3002
2003
,
3020
0130
0001
1000
,
0200
0320
0032
0203
,
0320
0032
0023
2030
,
3100
0000
0100
0000
0000
0010
0001
0000
,
0100
0000
0100
0000
0000
0010
1000
0000
,
0001
0000
0001
0000
0000
1000
0100
0000
,
0010
0100
0010
0001
,
1000
0000
1000
0000
0000
0010
0100
0000
,
0001
0000
0001
0000
0000
0010
0100
0000
,
1000
0000
1000
0000
0000
0001
1000
0000
,
0010
0100
0001
0000
,
2000
0010
3010
0000
0200
0001
0301
0000
,
1001
0010
0100
0001
,
1000
0000
0100
0000
0010
0000
0001
0100
,
0010
1000
0100
1000
,
0010
0000
0100
0000
0001
0000
1000
0100
,
0020
0001
0031
0000
,
1000
0100
1000
0000
0001
0010
0001
0000
,
0120
1000
1030
0000
,
0001
0100
1000
0000
1000
0100
0001
0000
,
0100
0010
0000
1000
0010
0000
0000
1010
,
0000
0000
0000
0011
0000
0000
0000
0100
,
0010
0001
0000
0100
0010
0000
0000
1100
,
0000
0000
0000
0101
0000
1000
0000
0001
,
0100
0010
0000
0010
1000
0000
0000
0110
,
0000
0000
0000
1001
0000
0000
0000
0001
,
1000
0100
0000
0100
0010
0000
0000
0001
,
0000
0000
0000
1000
0000
0001
0000
0000
;

//---------------dance-single - C. Picardy----------------
#NOTES:
     dance-single:
     :
     Challenge:
     11:
     0.875516,0.842096,0.385178,0.265345,0.984345,640.000000,45.000000,31.000000,50.000000,0.000000,7.000000,0.875516,0.842096,0.385178,0.265345,0.984345,640.000000,45.000000,31.000000,50.000000,0.000000,7.000000:
0000
0000
0000
0000
,
0000
0000
0000
0000
,
0001
1000
0001
1000
0000
0100
1000
0000
0000
0001
0010
0000
0100
0000
0100
0000
,
1000
0100
1000
0100
0000
0010
0001
0000
0000
0100
0010
0000
1000
0000
1000
0000
,
0202
0000
0000
0000
0000
0303
0010
0000
1000
0000
0001
0000
0100
0000
0010
1000
,
0001
0010
0100
1000
0001
0010
0100
1000
0001
0100
0010
1000
0001
0100
0010
1000
,
0002
0000
0000
0000
0000
0000
1003
0000
1000
0000
0100
0000
0010
0000
0100
1000
,
0001
0100
0010
1000
0001
0100
0010
1000
0001
0010
0100
1000
0004
0000
0000
0000
,
2003
0000
0000
0000
0000
0000
0000
0000
0000
3100
0000
0000
0000
0000
0000
0000
0110
0000
0000
0000
0000
0000
0000
0000
0011
0000
0000
0000
0000
0000
0000
0000
0000
0001
0000
0000
0100
0000
0000
0000
0000
0000
0010
0000
0000
0000
0000
0000
,
0000
1000
0001
0000
0100
0000
0010
0000
0000
1000
0001
0000
0100
0000
0010
0000
,
2000
0000
0000
0000
0000
0000
0000
0000
0000
3001
0000
0000
0000
0000
0000
0000
0011
0000
0000
0000
0000
0000
0000
0000
0110
0000
0000
0000
0000
0000
0000
0000
0000
0100
0000
0000
1000
0000
0000
0000
0000
0000
0001
0000
0000
0000
0000
0000
,
0000
0000
0000
0010
0100
0000
1000
0000
0000
0001
0100
0000
0010
0000
0110
0000
,
2000
0000
0000
0000
0000
0000
0000
0000
0000
3001
0000
0000
0000
0000
0000
0000
1010
0000
0000
0000
0000
0000
0000
0000
1001
0000
0000
0000
0000
0000
0000
0000
0000
0001
0000
0000
1000
0000
0000
0000
0000
0000
0100
0000
0000
0000
0000
0000
,
M000
0000
0000
0001
M100
0000
0010
0000
M000
0001
0100
0000
M010
0000
0001
0000
,
M020
0000
0000
0000
0000
0000
0000
0000
0000
1030
0000
0000
0000
0000
0000
0000
0101
0000
0000
0000
0000
0000
0000
0000
0110
0000
0000
0000
0000
0000
0000
0000
0000
1000
0000
0000
0100
0000
0000
0000
0000
0000
0002
0000
0000
0000
0000
0000
,
MMM0
0000
0000
0000
0000
0000
0000
0000
0000
0000
0000
0000
0000
0000
0000
0000
0000
0000
0200
0000
0000
0000
0000
0000
0000
0000
0000
0003
0000
0000
0020
0000
0000
0000
0000
0000
0000
0000
0000
0300
0001
0000
0000
0000
0000
0030
0000
0000
,
1001
0000
1000
0000
0010
1000
0000
0001
0000
1000
0100
0000
0010
0000
0001
1000
,
0000
1000
0100
0000
0010
0000
0100
1000
0000
0000
0001
0000
0100
0000
0010
0000
,
1010
0000
1000
0000
0100
1000
0000
0010
0000
0100
0001
0000
1000
0000
0100
0001
,
0000
0100
0010
0000
0001
0100
0000
1000
0000
0000
0100
0000
0101
0000
1001
0000
,
1100
0000
0010
0000
0100
0001
0000
0010
0000
0100
0010
0000
0001
0000
0100
0010
,
0000
1000
0001
0000
0100
0000
1000
0100
0000
0000
0010
0000
1000
0000
0100
0000
,
0110
0000
0001
0000
1000
0100
0000
0001
0000
0100
1000
0000
0001
0000
0100
0010
,
0000
0000
1000
0000
0001
0000
0000
0000
1000
0001
1000
0000
0000
0000
0100
0000
0000
0000
0000
0000
0010
0000
0000
0000
0011
0000
0000
0000
1001
0000
0000
0000
,
0100
0001
0100
0001
0100
0000
0010
1000
0010
1000
0010
1000
0010
0000
1000
0000
,
0100
1000
0100
1000
0100
0000
0010
0001
0010
0001
0010
0001
0010
0000
0100
0000
,
0010
0001
0010
0100
0010
0000
0001
0010
0100
0010
0001
0010
0100
0000
1000
0000
,
0001
0100
0010
0100
0001
0000
1000
0010
0100
0010
1000
0010
0100
0000
0001
0000
,
1000
0100
0010
0001
1000
0000
0001
0010
0100
1000
0100
0010
0001
0000
1000
0000
,
0001
0100
0010
1000
0001
0000
1000
0010
0100
0001
0100
0010
1000
0000
0001
0000
,
1000
0010
0100
0010
0001
0000
0010
0100
0010
0001
0010
0100
0010
0000
1000
0000
,
0100
0001
0100
0010
0100
0000
1000
0100
0010
0100
0001
0100
0010
0100
1000
0000
,
1MM1
0000
0000
0000
0000
0000
0000
0000
0000
M1M1
0000
0000
0000
0000
0000
0000
M11M
0000
0000
0000
0000
0000
0000
0000
2M2M
0000
0000
0000
0000
0000
0000
0000
0000
0000
0000
0000
3030
0000
0000
0000
0000
0000
0000
0000
0000
0000
0000
0000
,
0002
0000
0000
1000
0000
0000
0010
0000
0000
0100
0000
0000
1000
0000
1003
0000
,
M1M1
0000
0000
0000
0000
0000
0000
0000
0000
1MM1
0000
0000
0000
0000
0000
0000
11MM
0000
0000
0000
0000
0000
0000
0000
M22M
0000
0000
0000
0000
0000
0000
0000
0000
0000
0000
0000
0330
0000
0000
0000
0000
0000
0000
0000
0000
0000
0000
0000
,
0020
0000
0000
1000
0000
0000
0001
0000
0000
0100
0000
0000
0001
0000
0031
0000
,
11MM
0000
0000
0000
0000
0000
0000
0000
0000
M1M1
0000
0000
0000
0000
0000
0000
1MM1
0000
0000
0000
0000
0000
0000
0000
MM22
0000
0000
0000
0000
0000
0000
0000
0000
0000
0000
0000
0033
0000
0000
0000
0000
0000
0000
0000
0000
0000
0000
0000
,
0200
0000
0000
1000
0000
0000
0010
0000
0000
0001
0000
0000
0010
0000
0310
0000
,
1M1M
0000
0000
0000
0000
0000
0000
0000
0000
11MM
0000
0000
0000
0000
0000
0000
1MM1
0000
0000
0000
0000
0000
0000
0000
M2M2
0000
0000
0000
0000
0000
0000
0000
0000
0000
0000
0000
0303
0000
0000
0000
0000
0000
0001
0000
0000
0000
0000
0000
,
4000
0000
0000
0100
0000
0000
0010
3000
,
0001
0000
0100
0000
0010
0000
0100
0001
0000
0100
0010
0000
1000
0000
0100
0000
,
1000
0100
1000
0000
0100
0000
0010
0001
0000
0001
1000
0000
0001
0100
0001
0000
,
1000
0000
0100
0000
0010
0000
0100
1000
0000
0100
0010
0000
0100
0010
0100
0000
,
1000
0000
0001
0000
0100
0000
0100
0010
0000
0010
1000
0000
0001
0100
0001
0000
,
1000
0000
0001
0000
0100
0000
0001
1000
0000
0001
0100
0000
0010
1000
0001
0000
,
0010
0000
0100
0000
1000
0000
0001
0010
0000
0100
0010
0000
0100
1000
0001
0000
,
0100
0000
0010
0000
1000
0000
0010
0100
0000
0001
1000
0000
0010
0100
0001
0000
,
1000
0000
0100
0000
0010
0000
0100
1000
0000
0100
0010
0000
0100
0010
0001
0000
,
1000
0000
0100
0000
0001
0000
0100
0010
0000
0100
1000
0000
0001
0100
0001
0000
,
0010
0000
1000
0000
0010
0000
0001
0100
0000
1000
0100
0000
0010
0100
0010
0000
,
1000
0000
0010
0000
0001
0000
0010
1000
0000
1000
0100
0000
0001
0100
0001
0000
,
0100
0000
1000
0000
0010
0000
0100
0001
0000
0010
0100
0000
0010
1000
0010
0000
,
0001
0000
0010
0000
0100
0000
0010
1000
0000
0010
0100
0000
0010
0001
0010
0000
,
0100
0000
0010
0000
1000
0000
0010
0001
0000
0010
1000
0000
0010
0001
0010
0000
,
0100
0000
1000
0000
0001
0000
0100
1000
0000
0100
0010
0000
1000
0010
1000
0000
,
M001
01M0
M001
01M0
M001
01M0
M001
01M0
M001
00M0
0001
0000
1000
0000
1000
0000
,
4000
0400
0000
0000
0000
0000
0000
3300
0040
0004
0000
0000
0000
0000
0000
0033
,
1001
0000
1000
0100
0000
0010
0100
0000
1000
0100
1000
0100
1000
0000
0001
0010
,
0100
0000
0010
0001
0000
0001
0100
0000
0010
1000
0010
1000
0010
0000
1000
0001
,
1000
0000
1000
0100
0000
0100
0010
0000
0001
0010
0001
1000
0001
0000
0010
0100
,
1000
0000
0001
0100
0000
0010
1000
0000
0001
0100
0001
0100
0001
0000
1000
0000
,
0202
0000
0000
0000
0000
0303
0010
0000
1000
0000
0001
0000
0100
0000
0010
1000
,
0001
0010
0100
1000
0001
0010
0100
1000
0001
0100
0010
1000
0001
0100
0010
1000
,
0002
0000
0000
0000
0000
0003
1000
0000
1000
0000
0100
0000
0010
0000
0100
1000
,
0001
0100
0010
1000
0001
0100
0010
1000
0100
0010
0001
1000
0400
0000
0000
0000
,
0320
0000
0000
0000
0000
0000
0000
0000
0000
0130
0000
0000
0000
0000
0000
0000
1100
0000
0000
0000
0000
0000
0000
0000
1001
0000
0000
0000
0000
0000
0000
0000
0000
0100
0000
0000
0010
0000
0000
0000
0000
0000
1000
0000
0000
0000
0000
0000
,
0000
0001
1000
0000
0100
0000
0010
0000
0000
0001
0010
0000
0001
0000
0100
0000
,
0020
0000
0000
0000
0000
0000
0000
0000
0000
1030
0000
0000
0000
0000
0000
0000
0101
0000
0000
0000
0000
0000
0000
0000
0110
0000
0000
0000
0000
0000
0000
0000
0000
1000
0000
0000
0001
0000
0000
0000
0000
0000
0010
0000
0000
0000
0000
0000
,
0000
0100
0010
0000
0001
0000
0100
0000
0000
0100
0010
0000
1000
0000
1001
0000
,
0002
0000
0000
0000
0000
0000
0000
0000
0000
0103
0000
0000
0000
0000
0000
0000
1001
0000
0000
0000
0000
0000
0000
0000
1100
0000
0000
0000
0000
0000
0000
0000
0000
0001
0000
0000
0010
0000
0000
0000
0000
0000
0100
0000
0000
0000
0000
0000
,
0000
0000
0000
0010
0001
0000
1000
0000
0000
0010
0100
0000
0001
0000
1000
0000
,
0200
0000
0000
0000
0000
0000
0000
0000
0000
0310
0000
0000
0000
0000
0000
0000
1001
0000
0000
0000
0000
0000
0000
0000
0110
0000
0000
0000
0000
0000
0000
0000
0000
0000
0000
0000
0000
0000
0000
0000
0000
0000
2000
0000
0000
0000
0000
0000
,
0000
0000
0000
0000
0000
0000
0000
0000
0000
3002
0000
0000
0000
0000
0000
0203
0000
0000
0000
0000
0010
0300
0000
0000
;

//---------------dance-single - C. Picardy----------------
#NOTES:
     dance-single:
     :
     Hard:
     9:
     0.551478,0.560916,0.162631,0.213988,0.291024,407.000000,19.000000,25.000000,8.000000,0.000000,0.000000,0.551478,0.560916,0.162631,0.213988,0.291024,407.000000,19.000000,25.000000,8.000000,0.000000,0.000000:
0000
0000
0000
0000
,
0000
0000
0000
0000
,
0001
0000
0000
0010
0000
0000
0001
0000
0000
0100
0000
0000
0010
0000
1000
0000
,
0100
0000
0000
0010
0000
0000
0100
0000
0000
1000
0000
0000
0001
0000
0100
0000
,
0020
0000
0000
1000
1030
0000
0000
0001
,
0100
0010
1000
0001
0010
0100
1000
0001
,
0200
0000
0000
0010
0310
0000
0000
1000
,
0100
0010
0001
0010
0100
1000
0001
0000
,
1000
0000
0000
0100
0000
0000
1000
0000
1001
0000
0000
0000
0100
0000
0010
0000
,
0000
0000
1000
0001
0000
0000
0000
0100
,
0010
0000
0000
1000
0000
0000
0001
0000
1001
0000
0000
0000
1000
0000
0100
0000
,
0000
0000
0010
0001
0000
0100
0000
0010
,
1000
0000
0000
0001
0000
0000
1000
0000
1100
0000
0000
0000
0001
0000
0011
0000
,
0000
0000
0100
0110
0000
0000
1000
0001
,
0101
0000
0000
1000
0000
0000
0001
0000
0011
0000
0000
0000
0000
0000
0200
0000
,
0000
0000
0000
0000
0000
0000
0010
0000
0000
0000
0001
0000
0000
1000
0300
0000
,
001M
0000
0100
0000
1000
0100
0000
0010
000M
0100
1000
0000
0100
0000
0010
0100
,
000M
1000
0100
0000
0010
0000
0100
1000
000M
0000
0100
0000
0010
0000
0001
0000
,
M100
0000
0010
0000
0100
0001
0000
0100
M000
0010
0100
0000
0001
0000
0100
0010
,
M000
0100
0001
0000
0010
0100
0000
0010
M000
0000
0001
0000
0010
0000
0100
0000
,
1000
0000
0001
0000
0100
0001
0000
1000
0000
0100
1000
0000
0001
0000
0100
0001
,
0000
1000
0100
0000
1000
0000
0001
1000
0000
0000
0010
0000
0100
0000
0001
0000
,
1000
0000
0100
0000
0001
0100
0000
1000
0000
0010
0001
0000
0010
0000
1000
0001
,
0000
0100
1000
0000
0100
0010
0000
1000
0000
0000
0001
0000
0100
0000
0010
0000
,
2000
0000
0000
0000
0001
0000
0000
3100
1000
0000
0001
0000
0010
0000
0001
0000
,
0200
0000
0000
0000
0010
0000
0000
0301
1000
0000
0100
0000
0010
0000
0100
0000
,
2000
0000
0000
0000
0010
0000
0000
3001
0100
0000
0010
0000
1000
0000
0100
0000
,
0020
0000
0000
0000
0001
0000
0000
0130
0010
0000
0001
0000
0100
0000
0010
0000
,
2000
0000
0000
0000
0010
0000
0000
3100
0010
0000
0100
0000
1000
0000
0100
0000
,
0002
0000
0000
0000
0100
0000
0000
0013
0001
0000
1000
0000
0001
0000
1000
0000
,
0020
0000
0000
0000
0100
0000
0000
0130
0010
0000
1000
0000
0001
0000
0010
0000
,
0200
0000
0000
0000
0010
0000
0000
0301
0010
0000
0001
0000
0100
0000
0000
0000
,
0010
0000
0000
1000
0000
0000
0001
0000
0101
0000
0000
0000
1000
0000
0000
0000
,
0100
0000
0000
0100
0000
0000
0100
0000
0000
0000
0010
0000
0010
0000
0000
0000
,
0001
0000
0000
1000
0000
0000
0010
0000
0110
0000
0000
0000
0001
0000
0000
0000
,
1000
0000
0000
1000
0000
0000
1000
0000
0000
0000
0001
0000
0001
0000
0000
0000
,
1000
0000
0000
0100
0000
0000
0010
0000
0011
0000
0000
0000
1000
0000
0000
0000
,
0010
0000
0000
0100
0000
0000
0001
0000
0000
0000
1000
0000
0010
0000
0000
0000
,
1000
0000
0000
0001
0000
0000
1000
0000
1100
0000
0000
0000
0010
0000
0000
0000
,
0100
0000
0000
0100
0000
0000
0202
0000
0000
0000
0000
0000
0303
0000
1000
0000
,
0010
0000
0100
0000
0001
0000
0010
0001
,
0010
0000
0100
0000
1000
0000
0010
1000
,
0010
0000
0100
0000
0001
0000
1000
0100
,
1000
0000
0010
0000
0100
0000
0001
0010
,
0100
0000
0010
0000
0001
0000
1000
0100
,
0001
0000
0100
0000
1000
0000
0010
0001
,
0010
0000
1000
0000
0001
0000
0001
0100
,
1000
0000
0100
0000
0010
0000
1000
0100
,
0020
0001
0100
1030
,
0002
0010
0100
1003
,
0200
0010
1000
0301
,
0020
0001
0100
1030
,
0002
0000
0010
0000
1000
1000
1003
0000
,
0200
0000
0010
0000
0001
0001
0301
0000
,
2000
0000
0010
0000
0001
0010
3001
0000
,
0002
0000
0010
0000
1000
0100
1003
0000
,
0001
0010
0100
1000
0001
0000
0000
0000
1000
0100
0010
0001
1000
0000
0000
0000
,
1100
0000
0000
1000
0000
0000
0001
0000
0000
0100
0000
0000
0010
0000
1000
0000
,
0100
0000
0000
0010
0000
0000
0001
0000
0000
0010
0000
0000
0001
0000
0100
0000
,
1000
0000
0000
0100
0000
0000
0001
0000
0000
1000
0000
0000
0100
0000
0010
0000
,
0001
0000
0000
1000
0000
0000
0001
0000
0000
1000
0000
0000
0100
0000
0010
0000
,
0002
0000
0000
1000
1003
0000
0000
0010
,
0100
0001
0010
0100
1000
0100
0010
0001
,
2000
0000
0000
0001
3001
0000
0000
0100
,
1000
0001
0100
0010
1000
0100
0010
0000
,
0001
0000
0000
1000
0000
0000
0010
0000
0100
0000
0000
0000
0001
0000
0101
0000
,
0000
0000
1000
1100
0000
0000
0000
0001
,
0010
0000
0000
0100
0000
0000
1000
0000
0001
0000
0000
0000
0010
0000
0011
0000
,
0000
0000
1000
1010
0000
0001
0000
1000
,
0100
0000
0000
0010
0000
0000
0100
0000
1100
0000
0000
0000
0001
0000
0100
0000
,
0000
0000
0010
1000
0000
0000
0000
1000
,
0001
0000
0000
0010
0000
0000
0100
0000
0110
0000
0000
0000
0000
0000
0020
0000
,
0000
0000
0000
0000
0000
0000
0230
0000
0000
0000
0001
0000
0000
1300
0000
0000
;
