#VERSION:0.83;
#TITLE:Baby Queen Seventeen;
#SUBTITLE:;
#ARTIST:Marko Polo;
#TITLETRANSLIT:;
#SUBTITLETRANSLIT:;
#ARTISTTRANSLIT:;
#GENRE:;
#ORIGIN:;
#CREDIT:;
#BANNER:babyqueenseventeenbn.png;
#BACKGROUND:babyqueenseventeenbg.png;
#PREVIEWVID:;
#JACKET:;
#CDIMAGE:;
#DISCIMAGE:;
#LYRICSPATH:;
#CDTITLE:;
#MUSIC:babyqueenseventeen.ogg;
#OFFSET:0.161000;
#SAMPLESTART:52.438435;
#SAMPLELENGTH:12.460011;
#SELECTABLE:YES;
#BPMS:0.000=155.100;
#STOPS:136.000=0.005;
#DELAYS:;
#WARPS:;
#TIMESIGNATURES:0.000=4=4;
#TICKCOUNTS:0.000=4;
#COMBOS:0.000=1;
#SPEEDS:0.000=1.000=0.000=0;
#SCROLLS:0.000=1.000;
#FAKES:;
#LABELS:0.000=Song Start;
#BGCHANGES:16.000=colorfulstreaks.mp4=1.400=0=0=1===FadeLeft==,
32.000=babyqueenseventeenbg.png=1.000=0=0=1====#FF0000=,
32.500=babyqueenseventeenbg.png=1.000=0=0=1====#00FF00=,
33.000=babyqueenseventeenbg.png=1.000=0=0=1====#0000FF=,
34.000=babyqueenseventeenbg.png=1.000=0=0=1====#FFFF00=,
34.500=babyqueenseventeenbg.png=1.000=0=0=1====#00FFFF=,
35.000=babyqueenseventeenbg.png=1.000=0=0=1====#FF00FF=,
36.000=babyqueenseventeenbg.png=1.000=0=0=1====#FF0000=,
36.500=babyqueenseventeenbg.png=1.000=0=0=1====#00FF00=,
37.000=flash=3.500=0=0=1=====,
37.250=babyqueenseventeenbg.png=1.000=0=0=1=====,
38.000=flash=3.500=0=0=1=====,
38.250=yellow flash=3.500=0=0=1=====,
38.500=flash=3.500=0=0=1====#FF0000=,
38.750=flash=3.500=0=0=1====#00FF00=,
39.000=flash=3.500=0=0=1====#0000FF=,
39.250=flash=3.500=0=0=1====#FFFF00=,
39.500=flash=3.500=0=0=1====#00FFFF=,
39.750=flash=3.500=0=0=1====#FF00FF=,
40.000=colorfulstreaks.mp4=1.000=0=1=1=StretchRewind==FadeCenterHorizontal==,
72.000=redmagmaplanet.mp4=1.000=0=1=1=StretchRewind==SlideUp==,
87.000=babyqueenseventeenbg.png=1.000=0=0=1=====,
88.000=redmagmaplanet.mp4=1.000=0=0=1=====,
103.000=babyqueenseventeenbg.png=1.000=0=0=1=====,
104.000=redmagmaplanet.mp4=1.000=0=0=1=====,
134.000=babyqueenseventeenbg.png=1.000=0=0=1=====,
134.500=babyqueenseventeenbg.png=1.000=0=0=1=Checkerboard1File2x2====,
135.000=babyqueenseventeenbg.png=1.000=0=0=1=====,
136.000=worldglobe.mp4=1.000=0=1=1=StretchRewind==SlideUp==,
168.000=colorfulstreaks.mp4=1.000=0=0=1===SlideDown==,
196.000=flash=3.500=0=0=1====#FF0000=,
196.250=colorfulstreaks.mp4=1.000=0=0=1=====,
196.500=flash=3.500=0=0=1====#00FF00=,
196.750=colorfulstreaks.mp4=1.000=0=0=1=====,
197.000=flash=3.500=0=0=1====#0000FF=,
197.250=colorfulstreaks.mp4=1.000=0=0=1=====,
198.000=flash=3.500=0=0=1====#FFFF00=,
198.250=colorfulstreaks.mp4=1.000=0=0=1=====,
198.500=flash=3.500=0=0=1====#00FFFF=,
198.750=colorfulstreaks.mp4=1.000=0=0=1=====,
199.000=flash=3.500=0=0=1====#FF00FF=,
199.250=colorfulstreaks.mp4=1.000=0=0=1=====,
200.000=redmagmaplanet.mp4=1.000=0=0=1===CrossFade_Fastest==,
232.000=redmagmaplanet.mp4=1.000=0=0=1=SongBgWithMovieViz==CrossFade_Fastest==,
234.000=redmagmaplanet.mp4=1.000=0=0=1===SlideLeft==,
236.000=redmagmaplanet.mp4=1.000=0=0=1=SongBgWithMovieViz==CrossFade_Fastest==,
238.000=redmagmaplanet.mp4=1.000=0=0=1===SlideRight==,
248.000=redmagmaplanet.mp4=1.000=0=0=1=SongBgWithMovieViz==CrossFade_Fastest==,
250.000=redmagmaplanet.mp4=1.000=0=0=1===SlideDown==,
252.000=redmagmaplanet.mp4=1.000=0=0=1=SongBgWithMovieViz==CrossFade_Fastest==,
254.000=redmagmaplanet.mp4=1.000=0=0=1===SlideUp==,
264.000=worldglobe.mp4=1.000=0=0=1===CrossFade_Fastest==,
295.000=babyqueenseventeenbg.png=1.000=0=0=1===CrossFade_Fastest==,
99999=-nosongbg-=1.000=0=0=0 // don't automatically add -songbackground-
;
#KEYSOUNDS:;
#ATTACKS:
;

//---------------dance-single - C. Picardy----------------
#NOTEDATA:;
#CHARTNAME:;
#STEPSTYPE:dance-single;
#DESCRIPTION:C. Picardy;
#CHARTSTYLE:;
#DIFFICULTY:Beginner;
#METER:1;
#RADARVALUES:0.122085,0.190976,0.139526,0.034881,0.000000,98.000000,82.000000,16.000000,4.000000,0.000000,0.000000,0.000000,0.000000,0.000000,0.122085,0.190976,0.139526,0.034881,0.000000,98.000000,82.000000,16.000000,4.000000,0.000000,0.000000,0.000000,0.000000,0.000000;
#CREDIT:C. Picardy;
#NOTES:
0000
0000
0000
0000
,
0000
0000
0000
0000
,
0000
0000
0000
0000
,
0000
0000
0000
0000
,
1000
0000
0000
0000
,
0001
0000
0000
0000
,
1000
0000
0000
0000
,
0001
0000
0000
0000
,
1001
0000
0000
0000
,
1001
0000
0000
0000
,
1000
0000
1000
0000
,
1000
0000
0000
0000
,
0001
0000
0001
0000
,
0001
0000
0000
0000
,
0100
0000
0100
0000
,
0100
0000
0000
0000
,
0010
0000
0010
0000
,
0010
0000
0000
0000
,
0001
0000
0000
0000
,
0010
0000
0000
0000
,
0100
0000
0000
0000
,
1000
0000
0000
0000
,
1001
0000
0000
0000
,
0100
0000
0000
0000
,
0010
0000
0000
0000
,
0100
0000
0000
0000
,
1001
0000
0000
0000
,
1000
0000
0000
0000
,
0001
0000
0000
0000
,
0010
0000
0000
0000
,
0100
0000
0000
0000
,
1000
0000
0000
0000
,
0010
0000
0000
0000
,
0100
0000
0000
0000
,
0001
0000
0001
0000
,
0001
0000
0000
0000
,
1000
0000
1000
0000
,
1000
0000
0000
0000
,
0010
0000
0010
0000
,
0010
0000
0000
0000
,
0100
0000
0100
0000
,
0100
0000
0000
0000
,
1000
0000
0001
0000
,
1000
0000
0000
0000
,
0001
0000
1000
0000
,
0001
0000
0000
0000
,
0100
0000
0010
0000
,
0100
0000
0000
0000
,
0010
0000
0100
0000
,
0010
0000
0000
0000
,
1001
0000
0000
0000
,
1001
0000
0000
0000
,
1001
0000
0000
0000
,
1001
0000
0000
0000
,
0110
0000
0000
0000
,
0110
0000
0000
0000
,
0110
0000
0000
0000
,
0110
0000
0000
0000
,
2000
0000
3000
0000
,
0002
0000
0003
0000
,
1000
0000
0000
0000
,
0001
0000
0000
0000
,
0200
0000
0300
0000
,
0020
0000
0030
0000
,
0100
0000
0000
0000
,
0010
0000
0000
0000
,
0001
0000
0000
0000
,
1001
0000
0000
0000
,
1000
0000
0000
0000
,
1001
0000
0000
0000
,
0010
0000
0000
0000
,
0110
0000
0000
0000
,
0100
0000
0000
0000
,
0110
0000
0000
0000
;

//---------------dance-single - C. Picardy----------------
#NOTEDATA:;
#CHARTNAME:;
#STEPSTYPE:dance-single;
#DESCRIPTION:C. Picardy;
#CHARTSTYLE:;
#DIFFICULTY:Easy;
#METER:4;
#RADARVALUES:0.317671,0.385876,0.252891,0.348815,0.000000,255.000000,226.000000,29.000000,40.000000,0.000000,0.000000,0.000000,0.000000,0.000000,0.317671,0.385876,0.252891,0.348815,0.000000,255.000000,226.000000,29.000000,40.000000,0.000000,0.000000,0.000000,0.000000,0.000000;
#CREDIT:C. Picardy;
#NOTES:
0000
0000
0000
0000
,
0000
0000
0000
0000
,
0000
0000
0000
0000
,
0000
0000
0000
0000
,
1000
0000
0010
0000
,
0100
0000
0001
0000
,
0010
0000
0100
0000
,
1000
0000
0010
0000
,
2002
0000
3003
0000
,
0220
0000
0330
0000
,
1000
1000
1000
0001
,
0100
0100
0100
0001
,
0010
0010
0010
0100
,
1000
1000
1000
0010
,
0100
0001
0001
1000
,
0100
0010
0010
0001
,
1000
0010
0010
1000
,
0001
0100
0100
0010
,
1001
0000
0100
0010
,
0100
0000
0001
1000
,
0001
0000
1000
0100
,
1000
0000
0010
0110
,
0100
0000
0001
1000
,
0100
0000
0010
0001
,
1000
0000
0010
0100
,
0001
0000
0100
0110
,
0010
0000
1000
1000
,
0001
0000
1000
1000
,
0100
0000
0010
0010
,
0100
0000
0010
0010
,
0001
0000
0100
0100
,
0010
0000
0100
0001
,
0001
0000
1000
0100
,
0100
0000
0010
0001
,
2002
3003
0220
0330
,
2002
3003
0220
0330
,
1000
1000
0001
0001
,
0100
0100
0010
0010
,
2020
3030
0022
0033
,
2200
3300
0202
0303
,
0100
0100
0010
0010
,
1000
1000
0001
0001
,
1000
0001
1000
0001
,
0100
0010
0100
0010
,
1000
1000
0100
0100
,
0010
0010
0001
0001
,
1000
0100
1000
0100
,
0010
0001
0010
0001
,
0100
0100
0010
0010
,
1000
1000
0001
0001
,
1000
0100
0220
0330
,
0001
0100
0220
0330
,
1000
0100
2002
3003
,
0010
0001
2002
3003
,
0001
0100
2020
3030
,
1000
0001
0022
0033
,
1000
0010
0220
0330
,
0001
0010
0220
0330
,
1000
1000
0002
0000
,
0013
0010
0200
0000
,
1300
0001
1000
0000
,
0010
0100
0010
0000
,
1000
1000
0200
0000
,
0310
0010
0002
0000
,
1003
0100
1000
0000
,
0001
0100
0001
0000
,
1000
0010
0100
1001
,
0010
0100
1000
1001
,
0100
0010
0100
1001
,
0010
0100
0010
1001
,
0010
0100
0001
0110
,
1000
0100
0010
0110
,
1000
0001
0100
0101
,
1000
0100
0010
0011
;

//---------------dance-single - C. Picardy----------------
#NOTEDATA:;
#CHARTNAME:;
#STEPSTYPE:dance-single;
#DESCRIPTION:C. Picardy;
#CHARTSTYLE:;
#DIFFICULTY:Medium;
#METER:6;
#RADARVALUES:0.472146,0.451715,0.305213,0.069763,0.000000,379.000000,344.000000,35.000000,8.000000,0.000000,0.000000,0.000000,0.000000,0.000000,0.472146,0.451715,0.305213,0.069763,0.000000,379.000000,344.000000,35.000000,8.000000,0.000000,0.000000,0.000000,0.000000,0.000000;
#CREDIT:C. Picardy;
#NOTES:
0000
0000
0000
0000
,
0000
0000
0000
0000
,
0000
0000
0000
0000
,
0000
0000
0000
0000
,
0010
0000
0100
0000
1000
0100
1000
0000
,
0010
0000
0100
0000
0001
0010
0001
0000
,
0100
0000
0010
0000
1000
0001
1000
0000
,
0100
0000
0010
0000
0100
0010
0100
0000
,
1000
1000
2000
0000
0000
0000
3000
0000
,
0001
0001
0002
0000
0000
0000
0003
0000
,
1001
0000
0010
0000
0100
0000
0010
1000
,
0100
0000
0010
0000
0001
0000
0100
0010
,
1000
0000
0100
0000
0010
0000
0001
0100
,
0010
0000
1000
0000
0100
0000
0010
0001
,
0100
0000
0010
0000
1001
0000
1000
0100
,
0010
0000
0001
0000
0101
0000
0010
1000
,
0100
0000
0010
0000
0011
0000
1000
0010
,
0100
0000
0001
0000
1100
0000
0001
0100
,
0010
0000
0010
0000
1000
0001
0000
1001
,
0000
0000
1000
0000
0100
0010
0000
0110
,
0000
0000
0001
0000
1000
0100
0000
1100
,
0000
0001
0100
0000
0100
0001
0100
0000
,
0010
0000
1000
0000
0100
1000
0000
1000
,
0000
0001
0100
0000
0100
0001
0000
0001
,
0000
0010
0100
0000
0100
0010
0000
0010
,
0000
0100
0010
0000
0001
1000
0001
0000
,
0110
0000
1000
0000
0100
0100
0100
0000
,
1000
0000
0001
0000
0100
0100
0100
0001
,
0100
0000
0001
0000
1000
1000
1000
0000
,
0100
0000
0010
0000
0001
0001
0001
0010
,
0001
0000
0100
0000
0010
0010
0010
0000
,
1000
0000
0100
0000
0010
0010
0010
0001
,
0010
0000
0100
0000
1000
1000
1000
0000
,
0010
0000
0100
0100
0100
0010
0100
0000
,
0001
0000
0011
0000
0001
0010
0001
0000
,
1000
0000
1010
0000
1000
0010
1000
0000
,
0100
0110
0001
0011
,
1000
0100
1000
0000
0001
0100
0001
0000
,
1000
0000
1100
0000
1000
0100
1000
0000
,
0001
0000
0101
0000
0100
0001
0100
0000
,
1000
0110
0001
0110
,
1000
0010
0100
0000
0001
0010
0100
0000
,
0010
0000
1001
0000
1000
0100
0010
0000
,
0100
0000
1001
0000
0001
0100
0010
0000
,
1000
0101
0010
1100
,
0001
0010
0001
0000
1000
0100
1000
0000
,
0001
0000
0110
0000
0010
0100
1000
0000
,
0001
0000
0110
0000
1000
0010
0100
0000
,
0001
1100
0010
0101
,
1000
1000
1000
0000
0001
0001
0001
0000
,
0010
0000
0100
0000
0010
0000
0001
0100
,
0010
0000
1000
0000
0100
0000
0010
0100
,
0010
0000
0001
0000
0100
0000
0010
1000
,
0010
0000
1000
0000
0100
0000
1000
0100
,
0001
0000
0100
0000
1000
0000
0001
0100
,
1000
0000
0100
0000
0001
0000
0010
0100
,
1000
0000
0010
0000
0100
0000
0001
0010
,
0100
1000
0010
1001
,
1000
1000
2000
0000
0010
0000
3001
0000
,
0001
0001
0002
0000
0100
0000
1003
0000
,
0100
0000
0010
0000
0001
0000
0100
0010
,
0100
0010
1000
1001
,
0010
0010
0020
0000
0100
0000
1030
0000
,
0100
0100
0200
0000
0001
0000
0310
0000
,
1000
0000
0100
0000
0010
0000
0001
0010
,
0001
0000
0100
0000
0010
0000
1000
0100
,
1000
0000
0010
0000
0101
0000
0100
0010
,
0100
0000
0010
0000
1001
0000
0010
0001
,
0010
0000
0100
0000
1100
0000
0010
0100
,
0010
0000
1000
0000
1010
0000
0001
0010
,
0100
0000
1000
0000
0110
0000
0001
0100
,
0010
0000
1000
0000
0110
0000
1000
0100
,
0010
0000
0001
0000
0101
0000
0010
0100
,
0001
0010
2200
0000
,
3300
0000
0000
0000
;

//---------------dance-single - C. Picardy----------------
#NOTEDATA:;
#CHARTNAME:;
#STEPSTYPE:dance-single;
#DESCRIPTION:C. Picardy;
#CHARTSTYLE:;
#DIFFICULTY:Challenge;
#METER:11;
#RADARVALUES:1.047691,1.064757,0.863317,0.244170,1.090047,841.000000,742.000000,99.000000,28.000000,92.000000,0.000000,0.000000,0.000000,0.000000,1.047691,1.064757,0.863317,0.244170,1.090047,841.000000,742.000000,99.000000,28.000000,92.000000,0.000000,0.000000,0.000000,0.000000;
#CREDIT:C. Picardy;
#NOTES:
0000
0000
0000
0000
,
0000
0000
0000
0000
,
0000
0000
0000
0000
,
0000
0000
0000
0000
,
1000
0000
0010
0000
0100
0000
0010
1000
0100
0000
0010
0000
0001
0000
0010
0000
,
0100
0000
0010
0000
0001
0000
1000
0100
0010
0100
1000
0000
0001
0000
0100
0000
,
0010
0000
0100
0000
0001
0000
1000
0100
0010
0000
0100
0000
1000
0000
0010
0000
,
0100
0000
0010
0000
1000
0000
0100
0010
0001
0000
1100
0000
0101
0000
0000
0000
,
1000
0001
1000
0001
1000
0001
1000
0001
0100
0010
0100
0010
0100
0010
0100
0010
,
1000
0100
1000
0100
0010
0001
0010
0001
1000
0010
0100
0001
1000
0010
0100
0001
,
1000
0100
0010
0000
1001
0000
M10M
0010
0000
1000
0001
0100
0010
1000
0100
0010
,
0001
0100
0010
0000
1001
0000
M10M
0010
0000
1000
0001
0010
0100
1000
0010
0100
,
0010
1000
0100
0000
0110
0000
0MM1
1000
0000
0010
0100
0001
0010
0100
1000
0010
,
0100
0001
0010
0000
0110
0000
0MM1
1000
0000
0001
0100
0010
1000
0100
0010
0001
,
0100
0010
0100
0000
1010
0000
M0M1
0100
0000
0010
1000
0100
0010
0100
1000
0010
,
0100
0001
0010
0000
0011
0000
10MM
0100
0000
0010
0100
1000
0001
0100
0010
0100
,
0001
0010
0100
0000
1100
0000
MM01
0010
0000
0100
0010
0001
0100
0010
1000
0100
,
0010
0001
1000
0000
0101
0000
1M0M
0010
0000
1000
0100
0010
0100
1000
0010
0100
,
0001
0000
1000
0000
0010
0000
1000
0010
1000
0000
0001
0000
0010
0000
0001
0010
,
0001
0000
1000
0000
0100
0000
1000
0100
1000
0000
0001
0000
0100
0000
0001
0100
,
0001
0000
0010
0000
0100
0000
0010
0100
0010
0000
0001
0000
1000
0000
0001
1000
,
0001
0000
1000
0100
1000
0100
1000
0000
0001
0010
0100
1000
1001
0000
M00M
0000
,
0010
0000
0100
0000
1000
0000
0100
0010
0001
0000
0010
0000
0100
0000
1000
0010
,
0100
0000
0001
0000
0100
0000
0010
1000
0001
0000
0010
0000
0100
0000
0010
0100
,
1000
0000
0100
0000
0010
0000
0001
0010
0100
0000
1000
0000
0010
0000
0100
0001
,
1000
0000
0001
0010
0001
0010
0001
0000
1000
0100
0010
0001
1001
0000
M00M
0000
,
2000
0010
0100
3100
0002
0010
0100
0103
,
0020
0100
1000
1030
0200
1000
0010
0310
,
0002
0010
1000
1003
2000
0010
0001
3001
,
0200
0000
0001
0000
0010
0000
0310
0000
1000
0010
0100
0000
0001
0010
0100
0000
,
2001
0100
0010
3100
0002
0100
0010
0103
,
0020
1000
0100
1030
0200
0010
1000
0310
,
0002
1000
0010
1003
2000
0001
0010
3001
,
0020
0100
0001
0130
1001
0010
1001
0000
,
1100
M100
1100
0000
0101
010M
0101
0000
,
1010
10M0
1010
0000
0011
001M
0011
0000
,
1000
0010
1000
0000
2010
0000
0000
0000
3100
0010
0100
0000
0210
0000
0000
0000
,
1300
0000
0100
0000
1000
0000
0000
0000
2100
0000
0000
0000
0000
0000
0000
0000
3001
0000
0100
0000
0001
0000
0000
0000
0102
0000
0000
0000
0000
0000
0000
0003
,
1010
10M0
1100
0000
0011
00M1
0101
0000
,
0110
01M0
0101
0000
1100
M100
0110
0000
,
0010
0100
1000
0000
2100
0000
0000
0000
3001
0100
0010
0000
0120
0000
0000
0000
,
1030
0000
0100
0000
0010
0000
0000
0000
0012
0000
0000
0000
0000
0000
0000
0000
0103
0000
0010
0000
1000
0000
0000
0000
2010
0000
0000
0000
0000
0000
0000
3000
,
0101
0101
1M1M
0000
1100
1100
MM11
0000
,
1010
1010
M1M1
0000
0011
0011
11MM
0000
,
1000
0100
0010
0000
2001
0000
0000
0000
3001
0100
0010
0000
1002
0000
0000
0000
,
0013
0000
0100
0000
1000
0000
0000
0000
2010
0000
0000
0000
0000
0000
0000
0000
3100
0000
0010
0000
0001
0000
0000
0000
0102
0000
0000
0000
0000
0000
0000
0003
,
1010
1010
11MM
0000
0011
0011
M1M1
0000
,
0110
0110
1MM1
0000
1001
1001
M11M
0000
,
0100
0000
0010
0000
0100
0000
0000
0000
2001
0000
0000
0000
0000
0000
0000
0000
3100
0000
0010
0000
0100
0000
0000
0000
1002
0000
0000
0000
0000
0000
0000
0003
,
1010
0011
1010
0000
1100
0101
1100
0000
,
0001
0100
0010
0000
1001
0000
M10M
0010
0000
1000
0100
0010
0001
0010
0100
1000
,
0001
0100
0010
0000
1010
0000
M0M1
0100
0000
0001
0100
0010
1000
0100
0010
0001
,
0100
0010
0100
0000
1001
0000
M01M
0100
0000
1000
0100
0010
0100
1000
0001
0010
,
0100
1000
0010
0000
0101
0000
1M0M
0010
0000
0100
0001
0010
0100
0010
0001
1000
,
0100
0010
0001
0000
1100
0000
MM01
0010
0000
0100
1000
0001
0100
0010
0100
0001
,
1000
0100
0010
0000
1001
0000
M10M
0010
0000
1000
0001
0010
0100
1000
0010
0100
,
0001
0010
0100
0000
0011
0000
10MM
0100
0000
0010
0100
1000
0010
0100
0010
1000
,
0100
0010
0001
0000
0101
0000
1M0M
0010
0000
1000
0100
0010
0001
0100
0010
0100
,
0001
1000
0100
0000
1001
0000
M10M
0010
0000
1000
0001
0010
0100
1000
0010
0100
,
0010
1000
0100
0000
1001
0000
M01M
0100
0000
0010
0100
1000
0010
0100
0001
0010
,
0100
1000
0010
0000
0101
0000
1M0M
0100
0000
0010
0100
0010
0001
0100
0010
1000
,
0100
0010
0100
0000
0011
0000
10MM
0010
0000
0100
0001
0100
0010
0100
0001
0010
,
0100
1000
0010
0000
0110
0000
1MM0
0001
0000
1000
0001
0100
0010
1000
0100
0010
,
0001
0100
0010
0000
0110
0000
0MM1
1000
0000
0100
0010
0001
0010
0100
0010
0001
,
0100
0010
1000
0000
1100
0000
MM01
0010
0000
0100
1000
0100
0010
0100
1000
0010
,
0100
0001
0010
0000
0011
0000
01MM
0010
0000
1000
0100
0010
0001
0010
0100
1000
,
0010
0100
0001
0000
1010
0000
M1M0
0001
0000
0100
1000
0010
0100
0010
0001
0010
,
1000
0100
0001
0000
0101
0M0M
0100
0010
0000
0001
0100
0010
0100
1000
0100
0010
,
0001
0010
0100
0000
1010
0000
M1M0
1000
0000
0100
0001
0010
0100
0010
1000
0001
,
0100
1000
0010
0000
0101
0000
0M1M
0100
0000
1000
0100
0001
0100
1000
0010
0001
,
0010
0100
0001
0000
0110
0000
1MM0
0100
0000
0001
0100
0010
0100
0001
1000
0010
,
0001
0100
1000
0000
1100
0000
MM01
0010
0000
0001
0010
1000
0100
0001
0100
1000
,
0010
0100
0001
0000
1100
0000
MM10
0001
0000
0001
0100
0010
0100
1000
0100
0010
,
1000
0100
0010
0000
0011
0000
10MM
0100
0000
0010
0100
1000
0001
0100
0010
0100
,
0001
0000
0000
0000
;

//---------------dance-single - C. Picardy----------------
#NOTEDATA:;
#CHARTNAME:;
#STEPSTYPE:dance-single;
#DESCRIPTION:C. Picardy;
#CHARTSTYLE:;
#DIFFICULTY:Hard;
#METER:9;
#RADARVALUES:0.677698,0.677573,0.279052,0.061043,0.209289,544.000000,512.000000,32.000000,7.000000,12.000000,0.000000,0.000000,0.000000,0.000000,0.677698,0.677573,0.279052,0.061043,0.209289,544.000000,512.000000,32.000000,7.000000,12.000000,0.000000,0.000000,0.000000,0.000000;
#CREDIT:C. Picardy;
#NOTES:
// measure 0
0000
0000
0000
0000
,  // measure 1
0000
0000
0000
0000
,  // measure 2
0000
0000
0000
0000
,  // measure 3
0000
0000
0000
0000
,  // measure 4
1000
0000
0100
0000
0010
0000
0000
0100
1000
0000
0100
0000
0010
0000
0000
0000
,  // measure 5
0001
0000
0100
0000
0010
0000
0000
0100
0001
0000
0100
0000
0010
0000
0000
0000
,  // measure 6
1000
0000
0010
0000
0100
0000
0000
0010
1000
0000
0100
0000
1000
0000
0000
0000
,  // measure 7
0001
0000
0010
0000
0100
0000
0000
1000
0100
0000
0010
0000
1001
0000
0000
0000
,  // measure 8
0010
0010
0020
0000
0130
0100
0200
0000
,  // measure 9
0310
0000
0010
0000
0020
0000
0000
0000
1030
0001
1000
0001
1000
0001
1000
0001
,  // measure 10
1000
0000
0100
0000
0010
0000
0100
1000
0000
0000
0001
0000
0100
0000
0010
0000
,  // measure 11
0100
0000
0001
0000
0010
0000
0100
0010
0000
0000
0100
0000
1000
0000
0100
0000
,  // measure 12
0010
0000
0001
0000
0010
0000
0100
1000
0000
0000
0001
0000
0100
0000
0010
0000
,  // measure 13
1000
0000
0010
0000
0100
0000
0001
1000
0000
0000
0001
0000
1MM1
0000
0000
0000
,  // measure 14
0001
0000
0100
0000
0010
0000
0100
0001
0000
0001
0100
0000
0010
0000
1000
0000
,  // measure 15
0100
0000
0010
0000
0100
0000
1000
0100
0000
0100
1000
0000
0010
0000
0100
0000
,  // measure 16
0001
0000
0100
0000
0010
0000
1000
0010
0000
0010
1000
0000
0100
0000
0010
0000
,  // measure 17
0001
0000
0010
0000
0100
0000
0010
0001
0000
0001
0010
0000
0100
0000
1000
0000
,  // measure 18
1MM1
0000
1000
0100
0010
0100
1000
0010
,  // measure 19
0000
0100
0001
0010
0001
0100
0010
0100
,  // measure 20
0000
0001
0100
0010
1000
0010
0100
0001
,  // measure 21
0000
1000
0100
0010
0001
0100
0110
0MM0
,  // measure 22
1000
0100
1000
0001
1000
0010
0100
0001
,  // measure 23
0000
1000
0010
0100
0010
1000
0100
0010
,  // measure 24
0000
0001
0010
0100
0010
0001
1000
0100
,  // measure 25
0000
1000
0100
0010
0100
1000
1001
M00M
,  // measure 26
0001
0100
0010
0100
0001
0100
0010
1000
,  // measure 27
0100
1000
0010
1000
0100
1000
0010
0100
,  // measure 28
0001
0010
0100
0010
0001
0010
0100
0010
,  // measure 29
0001
1000
0100
1000
0001
1000
0010
0100
,  // measure 30
0101
0000
1000
0100
0010
0100
1000
0100
,  // measure 31
0010
0001
0010
0100
0010
0001
0010
0100
,  // measure 32
1000
0010
0100
0010
1000
0010
0100
0010
,  // measure 33
1000
0100
0010
0001
0100
0100
1001
0000
,  // measure 34
1000
0100
1100
0000
0001
0100
0101
0000
,  // measure 35
0001
0010
0011
0000
1000
0010
1010
0000
,  // measure 36
1000
0100
0001
0000
0001
0100
1000
0000
,  // measure 37
1000
0010
0001
0000
0001
0010
1000
0000
,  // measure 38
0001
0100
0101
0000
1000
0100
1100
0000
,  // measure 39
1000
0001
1001
0000
0100
0010
0110
0000
,  // measure 40
0001
0100
1000
0000
1000
0100
0001
0000
,  // measure 41
0001
0010
1000
0000
1000
0010
0001
0000
,  // measure 42
1000
1000
1100
0000
0001
0001
0101
0000
,  // measure 43
1000
1000
1010
0000
0001
0001
0011
0000
,  // measure 44
1000
0010
0100
0000
0100
0010
1000
0000
,  // measure 45
0001
0010
0100
0000
0100
0010
0001
0000
,  // measure 46
1000
1000
1100
0000
0001
0001
0101
0000
,  // measure 47
0010
0010
0110
0000
1000
1000
1001
0000
,  // measure 48
0001
1000
0100
0000
1000
0001
0100
0000
,  // measure 49
0010
0010
1001
0000
0100
0100
1001
0000
,  // measure 50
1000
0000
0100
0000
0010
0000
0100
1000
0000
0000
0001
0000
0100
0000
0010
0000
,  // measure 51
0100
0000
0001
0000
0100
0000
0010
1000
0000
0000
0001
0000
0010
0000
0100
0000
,  // measure 52
0010
0000
0001
0000
0010
0000
0100
1000
0000
0000
0010
0000
1000
0000
0010
0000
,  // measure 53
0100
0000
0010
0000
1000
0000
0010
0100
0000
0000
0001
0000
0100
0000
0010
0000
,  // measure 54
1000
0000
0010
0000
0100
0000
0001
1000
0000
0000
1000
0000
0100
0000
0010
0000
,  // measure 55
0001
0000
0010
0000
0100
0000
1000
0001
0000
0000
0010
0000
0100
0000
0010
0000
,  // measure 56
0001
0000
0100
0000
0010
0000
0100
0010
0000
0000
0010
0000
1000
0000
0100
0000
,  // measure 57
0010
0000
0100
0000
1000
0000
0100
0010
0000
0000
0001
0000
1MM1
0000
0000
0000
,  // measure 58
1000
1000
2010
0000
0001
0000
3100
0000
,  // measure 59
0001
0001
0012
0000
1000
0000
0103
0000
,  // measure 60
0001
0000
0100
0000
0010
0000
0100
0010
0000
0000
1000
0000
0100
0000
0010
0000
,  // measure 61
0010
0000
0100
0000
1000
0000
0100
0010
0000
0000
0100
0000
M11M
0000
0000
0000
,  // measure 62
1000
1000
1200
0000
0010
0000
1300
0000
,  // measure 63
0001
0001
0201
0000
0010
0000
0301
0000
,  // measure 64
1000
0000
0010
0000
1000
0000
0010
1000
0000
0000
0010
0000
1000
0000
0100
0000
,  // measure 65
0010
0000
0001
0000
0010
0000
0001
0010
0000
0000
0001
0000
0010
0000
0100
0000
,  // measure 66
1000
0000
0100
0000
0010
0000
0001
0010
0000
0010
0100
0000
1000
0000
0100
0000
,  // measure 67
0010
0000
0100
0000
1000
0000
0001
0100
0000
0100
0010
0000
1000
0000
0010
0000
,  // measure 68
0100
0000
0010
0000
1000
0000
0100
0010
0000
0010
0001
0000
0100
0000
0010
0000
,  // measure 69
0100
0000
0001
0000
0010
0000
0100
1000
0000
1000
0100
0000
0010
0000
0100
0000
,  // measure 70
1000
0000
0010
0000
0100
0000
0001
1000
0000
1000
0001
0000
0010
0000
0100
0000
,  // measure 71
1000
0000
0001
0000
0100
0000
0010
0100
0000
0100
0010
0000
0100
0000
0001
0000
,  // measure 72
0010
0000
0100
0000
1000
0000
0001
0100
0000
0100
0001
0000
0010
0000
0100
0000
,  // measure 73
1000
0000
0001
0000
0100
0000
0010
1000
0000
1000
0100
0000
0010
0000
0001
0000
,  // measure 74
0011
0000
0000
0000
;
