#TITLE:Automatisch;
#SUBTITLE:;
#ARTIST:Blümchen;
#TITLETRANSLIT:;
#SUBTITLETRANSLIT:;
#ARTISTTRANSLIT:;
#GENRE:;
#CREDIT:;
#BANNER:automatischbn.png;
#BACKGROUND:automatischbg.png;
#LYRICSPATH:;
#CDTITLE:;
#MUSIC:automatisch.ogg;
#OFFSET:-0.006932;
#SAMPLESTART:83.469841;
#SAMPLELENGTH:13.800003;
#SELECTABLE:YES;
#BPMS:0.000000=138.009995
;
#STOPS:
;
#BGCHANGES:;
#KEYSOUNDS:;
#ATTACKS:;

//---------------dance-single - C. Picardy----------------
#NOTES:
     dance-single:
     :
     Beginner:
     1:
     0.094035,0.112842,0.023509,0.000000,0.000000,81.000000,3.000000,0.000000,0.000000,0.000000,0.000000,0.094035,0.112842,0.023509,0.000000,0.000000,81.000000,3.000000,0.000000,0.000000,0.000000,0.000000:
0000
0000
0000
0000
,
0000
0000
0000
0000
,
0000
0000
0000
0000
,
0000
0000
0000
0000
,
1000
0000
0000
0000
,
1000
0000
0000
0000
,
0001
0000
0000
0000
,
0001
0000
0000
0000
,
0100
0000
0000
0000
,
0100
0000
0000
0000
,
0010
0000
0000
0000
,
0010
0000
0000
0000
,
1000
0000
0000
0000
,
0001
0000
0000
0000
,
1000
0000
0000
0000
,
0001
0000
0000
0000
,
0100
0000
0000
0000
,
0010
0000
0000
0000
,
1000
0000
0000
0000
,
0001
0000
0000
0000
,
0100
0000
0000
0000
,
0010
0000
0000
0000
,
0001
0000
0000
0000
,
1000
0000
0000
0000
,
1001
0000
0000
0000
,
0100
0000
0100
0000
,
0100
0000
0000
0000
,
0010
0000
0010
0000
,
0010
0000
0000
0000
,
1000
0000
1000
0000
,
1000
0000
0000
0000
,
0001
0000
0001
0000
,
0001
0000
0000
0000
,
0000
0000
0000
0000
,
1000
0000
1000
0000
,
0000
0000
0001
0000
,
0100
0000
0100
0000
,
0100
0000
0000
0000
,
0010
0000
0010
0000
,
0000
0000
1000
0000
,
0100
0000
0000
0000
,
0010
0000
0000
0000
,
0100
0000
0100
0000
,
0000
0000
1000
0000
,
0001
0000
0000
0000
,
0001
0000
0000
0000
,
0100
0000
0100
0000
,
0000
0010
0000
0000
,
1000
0000
0000
0000
,
0001
0000
0000
0000
,
0100
0000
0000
0000
,
0010
0000
0000
0000
,
1000
0000
0000
0000
,
0001
0000
0000
0000
,
0010
0000
0000
0000
,
0100
0000
0000
0000
,
1001
0000
0000
0000
,
0010
0000
0000
0000
,
0100
0000
0000
0000
,
0001
0000
0000
0000
,
1001
0000
0000
0000
,
1000
0000
0000
0000
,
0010
0000
0000
0000
,
0100
0000
0000
0000
,
0001
0000
0000
0000
,
1000
0000
1000
0000
,
1000
0000
0000
0000
,
0001
0000
0001
0000
,
0001
0000
0000
0000
,
0100
0000
0100
0000
,
0100
0000
0000
0000
,
0010
0000
0010
0000
,
0010
0000
0000
0000
;

//---------------dance-single - C. Picardy----------------
#NOTES:
     dance-single:
     :
     Challenge:
     11:
     0.820568,0.736657,0.274269,0.360468,0.830643,652.000000,35.000000,46.000000,26.000000,12.000000,0.000000,0.820568,0.736657,0.274269,0.360468,0.830643,652.000000,35.000000,46.000000,26.000000,12.000000,0.000000:
0000
0000
0000
0000
,
0000
0000
0000
0000
,
0000
0000
0000
0000
,
0000
0000
0000
0000
,
1000
0100
1000
0100
1000
0000
0001
0000
0000
0000
0100
0001
0100
0001
0100
0001
,
1000
0001
1000
0001
1000
0010
1000
0010
1000
0000
0001
0000
1000
0001
1000
0000
,
0010
1000
0010
1000
0010
0000
0100
0000
0000
0000
0001
0010
0001
0000
1000
0000
,
0100
1000
0100
1000
0100
0000
0010
0000
0001
0000
0001
0000
0010
0001
0010
0000
,
0100
1000
0100
1000
0001
0100
0001
0000
0000
0000
1000
0000
0010
0000
1000
0001
,
1000
0001
1000
0001
0100
0001
0100
0001
0100
0000
0010
0000
1000
0010
1000
0000
,
0001
0100
0010
1000
0001
0010
0100
0000
0000
0000
1000
0000
0001
0000
1000
0000
,
0001
0100
0001
0100
0001
0000
1000
0000
0100
1000
0100
1000
0100
1000
0100
0000
,
1000
0100
0010
0001
0010
0100
0000
0000
1000
0000
0001
0100
0010
0100
0010
0100
,
0010
1000
0010
1000
0001
1000
0001
1000
0001
0000
1000
0000
0100
0010
0001
0000
,
1000
0100
0010
0001
1000
0010
0000
0000
0100
0000
0001
0000
1000
0000
0001
0000
,
0202
0000
0000
0303
0220
0000
0000
0330
2020
0000
0000
3030
2002
0000
0000
3003
,
1000
0001
0100
0010
1000
0001
0000
0000
M000
0M00
00M0
000M
0000
0000
1000
0100
,
0010
0100
0010
0100
1000
0100
1000
0100
0010
0001
0010
0001
1000
0100
0000
0000
,
0010
0100
1000
0100
0010
0001
0000
000M
00M0
0M00
M000
0000
0000
0001
0010
0001
,
0100
0010
0100
0001
1000
0001
1000
0100
0010
0001
0010
0001
0020
0000
0000
0000
,
0130
1000
0001
0100
0010
0100
0000
0000
M00M
0000
0MM0
0000
0000
0000
0010
1000
,
0001
0100
0010
0100
0001
1000
0100
0010
0100
1000
0001
0100
0010
0100
0000
0000
,
0001
1000
0100
0010
0100
1000
0000
0000
0MM0
0000
M00M
0000
0000
0001
1000
0100
,
1000
0100
1000
0100
0010
0001
0010
0001
1000
0001
1000
0001
0200
0000
0000
0000
,
0301
0010
0100
1000
0100
0010
0000
0000
0001
0000
1000
0000
0010
0000
0100
0001
,
1000
0010
0100
0001
1000
0010
0100
0001
1000
0100
0010
0001
1000
0100
0000
0000
,
0010
0100
1000
0001
0100
0010
0000
0000
1000
0000
0001
0000
0000
1000
0010
0100
,
0001
0010
0100
1000
0001
0010
0100
1000
0001
0100
0010
1000
0002
0000
0000
0000
,
0103
0010
1000
0001
0010
0100
0000
0000
1000
0000
0100
0000
0010
0000
0100
1000
,
0001
0100
0010
0100
0001
1000
0100
0010
0100
1000
0001
0100
0010
1000
0000
0000
,
0100
0010
0001
0100
0010
1000
0000
0000
0001
0000
0100
0000
0000
0010
1000
0001
,
0100
0010
1000
0100
0010
0100
1000
0001
0100
0010
1000
0001
0020
0000
0100
0000
,
0130
2000
0001
0001
0100
3100
0010
0001
,
0000
0000
1000
0000
0010
0000
0100
0000
0001
0100
0001
0100
0001
0000
1000
0000
,
2100
0000
0200
0000
0010
0010
3300
0100
,
1001
0000
0000
0000
0100
0000
0001
0000
0010
0000
0010
0000
0100
1000
0010
0000
,
0120
1000
1000
0001
0000
0130
0000
0001
,
0021
0000
0000
0000
0100
0000
1030
0000
0100
0010
0100
0010
0100
1000
0001
0000
,
1002
0000
0200
0000
1000
1000
0303
0001
,
1001
0000
0000
0000
1000
0000
0001
0000
0100
0000
0100
0000
0010
1000
0001
0000
,
2100
0000
0010
3010
0102
0000
1000
1003
,
0020
1000
1000
0100
0100
0001
0031
0000
,
0201
0000
0020
0000
1000
1000
0330
0001
,
0011
0000
0000
0000
0100
0000
0100
0000
0010
0000
0100
0000
1000
0100
0010
0000
,
0210
1000
1000
0010
0010
0001
0010
0301
,
0000
0000
1000
0000
0001
0000
0001
0000
0100
0001
0100
0001
0100
0001
0100
0000
,
2010
0000
0002
0000
0010
0010
3003
0100
,
1001
0000
0000
0000
2200
0000
0000
3300
2002
0000
0000
3003
0202
0000
0000
0303
,
0110
0000
1000
1001
0000
0100
0010
2000
,
0200
0000
0010
0000
0001
3300
1000
0100
,
1001
0000
0010
0010
0100
1000
0001
0200
,
0000
0000
0000
0000
0310
0000
1000
0000
0100
0000
0010
0000
0001
0100
0010
0000
,
0110
0000
1000
1010
0000
0001
1000
0002
,
0200
0000
0010
0000
1000
0303
0001
0100
,
1001
1000
0100
0010
0001
0001
0010
0200
,
0000
0000
0000
0000
1300
0000
1000
0000
0001
0000
0001
0000
0100
0001
0100
0000
,
0101
0000
0000
0000
0010
0000
1000
0000
0001
0100
0001
0100
0001
0000
1000
0000
,
0001
0010
0001
0010
0001
0000
1000
0000
0100
1000
0100
1000
0100
1000
0100
0000
,
0010
0000
0010
0000
0001
0000
1000
0100
1000
0100
1000
0000
0010
0000
0020
0000
,
0000
0000
0100
0000
0130
0000
0001
0000
0001
0000
1000
0000
0010
1000
0001
0000
,
1001
0000
0100
M11M
0000
M1M1
0000
11MM
,
0000
0000
M11M
0000
0000
0000
MM11
0000
0000
0000
1000
0000
0001
0100
0010
0000
,
2002
0000
0000
3003
0100
0000
0000
0000
0010
0000
0010
0000
1000
0001
0100
0000
,
2002
0000
0000
3003
0010
0000
0000
0000
1000
0000
1000
0000
0100
0010
0001
0000
,
0010
0100
1000
0001
0100
0010
0000
0000
1000
0000
0001
0000
0100
0000
0010
1000
,
0001
0010
0100
0010
0001
1000
0010
0100
0010
1000
0001
0010
0100
0010
0000
0000
,
0001
0100
0010
1000
0010
0100
0000
0000
0001
0000
1000
0000
0000
0010
0100
0001
,
0010
0100
0010
0100
1000
0001
0100
0010
1000
0100
0010
0001
2000
0000
0000
0000
,
3010
0100
0001
1000
0010
0100
0000
0000
0001
0000
1000
0000
0100
0000
0010
0100
,
1000
0001
0100
0010
1000
0100
0010
0100
1000
0001
0100
0010
1000
0001
0000
0000
,
0010
0100
0010
0001
0100
0010
0000
0000
1000
0000
0001
0000
0000
1000
0100
1000
,
0010
0100
0001
0010
0100
1000
0010
0100
0001
1000
0100
0010
0002
0000
0000
0000
,
0013
0100
1000
0100
0010
0001
0000
0000
0000
0000
0000
0000
0000
0000
0000
0000
;

//---------------dance-single - C. Picardy----------------
#NOTES:
     dance-single:
     :
     Easy:
     3:
     0.268672,0.282105,0.195906,0.101871,0.000000,202.000000,25.000000,13.000000,0.000000,0.000000,0.000000,0.268672,0.282105,0.195906,0.101871,0.000000,202.000000,25.000000,13.000000,0.000000,0.000000,0.000000:
0000
0000
0000
0000
,
0000
0000
0000
0000
,
0000
0000
0000
0000
,
0000
0000
0000
0000
,
1000
0001
0000
0100
,
0010
0010
1000
0000
,
0001
0000
0100
0000
,
0010
0000
1000
0000
,
1001
0000
0100
0000
,
0010
1000
1000
0001
,
0100
0000
0010
0000
,
0100
0000
1000
0000
,
0010
0010
0000
0100
,
0001
0001
1000
1000
,
0010
0100
0000
0000
,
1000
0001
1001
1001
,
0100
0100
0000
0000
,
0010
0000
1000
0000
,
0001
0001
0000
0000
,
1000
0000
0100
0000
,
0010
0100
0000
0000
,
0001
0000
1000
0000
,
0100
0010
0000
0000
,
0001
1000
0100
0010
,
0001
0001
1000
0000
,
0100
0010
0001
0100
,
0010
0010
1000
0000
,
0100
1000
0001
1000
,
0100
0100
0010
0000
,
0001
0010
0001
0100
,
0001
0001
0010
0000
,
0100
1000
0001
0100
,
0020
0000
2030
0000
,
3002
0000
0203
0000
,
0310
0010
0110
0000
,
0001
1000
1001
0000
,
1000
0001
0001
0000
,
1000
0100
1000
0001
,
0100
0100
1001
0000
,
0010
1000
0110
0000
,
0001
1000
0001
0100
,
0010
0100
0010
1000
,
0001
0001
1001
0000
,
0100
0010
1001
0000
,
0100
0100
0010
0000
,
1000
0000
0001
1000
,
0100
0100
1001
0000
,
0010
0100
1000
0001
,
0110
0000
1001
0000
,
0010
0100
1001
0000
,
0010
0000
0100
0000
,
0001
1000
0001
1000
,
0110
0000
1001
0000
,
1000
0001
0110
1000
,
1001
0100
0010
1000
,
0002
0000
1003
0100
,
0020
0000
0032
0000
,
2003
0000
3200
0000
,
2300
0000
3020
0000
,
0230
0000
0302
0000
,
1003
0000
1000
1000
,
0001
0000
0100
0010
,
1001
0000
0010
0100
,
1001
0000
0100
0100
,
1001
0100
0010
0000
,
1000
0001
0100
0010
,
1001
0010
0100
0000
,
0001
1000
0100
0010
,
0110
0001
1000
0000
,
0001
1000
0010
0100
,
0110
1000
0001
0000
,
0110
0010
1001
1000
,
0100
0000
0000
0000
;

//---------------dance-single - C. Picardy----------------
#NOTES:
     dance-single:
     :
     Hard:
     8:
     0.523910,0.452935,0.258596,0.117544,0.043099,420.000000,33.000000,15.000000,0.000000,2.000000,0.000000,0.523910,0.452935,0.258596,0.117544,0.043099,420.000000,33.000000,15.000000,0.000000,2.000000,0.000000:
0000
0000
0000
0000
,
0000
0000
0000
0000
,
0000
0000
0000
0000
,
0000
0000
0000
0000
,
0001
0000
1000
0001
0000
1000
0100
0010
,
0001
0000
0010
0100
1000
0000
0001
1000
,
0100
0000
0010
0010
0000
0001
0001
0010
,
0100
0000
0010
0100
1000
1000
1001
0000
,
0100
0010
1000
0001
0000
0100
0010
1000
,
0100
0000
0010
0010
0001
0000
0100
0100
,
0010
0000
1000
0010
0000
1000
0000
0010
,
1000
0000
0001
0001
1000
0000
0100
0000
,
1000
0100
0010
0001
0000
0010
0100
1000
,
0001
0001
0100
0010
1000
1000
0100
1000
,
0001
0010
0100
1000
0000
0001
0000
0100
,
0110
1010
1001
0101
,
1000
0010
0100
0000
0001
0000
0000
1000
,
0001
0100
0010
1000
0100
0010
0001
0000
,
1000
0100
0010
0000
1000
0000
0000
0010
,
0100
0001
1000
0100
0010
0001
0200
0000
,
0310
1000
0001
0000
0010
0000
0000
0100
,
1000
0100
0010
0100
1000
0100
0010
0000
,
0001
0100
0010
0000
0100
0000
0000
0001
,
0100
0110
1010
1001
,
0001
0000
0010
0000
0001
0100
0000
0000
0010
0000
0000
0000
1000
0000
0010
0000
,
0100
0000
0010
0000
1000
0000
0010
0000
0100
0000
0001
0000
1000
0001
0000
0000
,
1000
0000
0100
0000
0010
0100
0000
0000
1000
0000
0000
0000
0001
0000
1000
0000
,
0100
0010
0100
1000
0010
0100
0110
0000
,
0001
0000
0001
0000
0100
0010
0000
0000
1000
0000
0000
0000
0001
0000
0100
0000
,
1000
0000
0100
0000
0001
0000
0100
0000
1000
0000
0100
0000
0010
0100
0000
0000
,
0001
0000
0010
0000
0100
0010
0000
0000
0010
0000
0000
0000
0100
0000
0010
0000
,
0001
0010
0100
0010
1000
0010
0002
0000
,
1003
1000
0100
0010
0001
0001
0010
0100
,
0000
0010
0001
0100
0010
0000
1000
0000
,
0101
0000
1000
0000
0010
0010
0000
1001
,
1001
0000
0100
0010
1000
0001
0000
0100
,
0010
1000
0010
0100
0000
0001
0000
1000
,
0100
0000
0010
0010
0001
0000
0100
0010
,
1000
0000
0100
0000
0010
0010
0000
1001
,
1001
0000
0000
0000
1000
0000
0001
0000
0100
0000
0010
0000
0100
0010
0100
0000
,
0110
0000
0001
0001
1001
0000
0010
1000
,
0001
0001
1000
0100
0010
0010
0110
0000
,
0011
0000
0100
0000
0010
0010
0000
1010
,
1010
0000
0000
0000
0001
0000
1000
0000
0001
0000
0001
0000
1000
0100
1000
0000
,
1100
0100
0010
0100
1000
0001
0100
0010
,
0000
1000
0001
0100
0010
0000
1000
1000
,
0100
0000
0010
0000
0001
0001
0000
0110
,
0110
0101
1100
0101
,
1001
0000
1000
1100
0000
0001
0010
0100
,
2000
0000
0200
0000
0010
3300
0100
0000
,
1001
0000
0010
0100
1000
0001
0100
0020
,
0000
0000
1030
0001
0100
0010
1000
0000
,
0101
0000
1000
0001
0000
1000
0100
0010
,
0002
0000
0200
0000
0010
0303
1000
0001
,
0100
0100
0010
1000
0100
0010
0100
2000
,
0000
0000
3001
0010
0100
1000
0001
0100
,
0020
0000
1030
0010
0200
0000
0301
0010
,
0200
0000
0310
0001
0200
0000
0310
1000
,
0200
0000
0310
0100
2000
0000
3001
0100
,
0000
0010
0000
1000
0000
0001
0000
0100
,
0010
0000
0100
0010
0000
0010
0000
1000
,
0000
1000
0000
0001
0000
0001
1000
0000
,
0110
0000
0001
0000
1000
0100
0010
0001
,
1001
0000
0100
0000
0010
0010
0110
0000
,
0001
0010
0100
0000
1000
0000
0001
1000
,
0100
0010
0100
1000
0001
0100
0010
0000
,
1000
1000
0001
0000
0010
0000
0100
0010
,
0001
0010
0100
0010
0001
0100
0010
0000
,
1000
0000
0001
0000
0100
0001
0000
0000
0100
0000
0000
0000
0010
0000
1000
0000
,
0100
0000
1000
0000
0010
0000
0100
0000
0001
0000
1000
0000
0100
0010
0000
0000
,
0100
0000
1000
0000
0001
1000
0000
0000
0100
0000
0000
0000
0010
0000
0100
0000
,
1000
0100
0010
0100
1000
0010
0200
0000
,
0301
0100
0010
0000
0000
0000
0000
0000
;

//---------------dance-single - C. Picardy----------------
#NOTES:
     dance-single:
     :
     Medium:
     6:
     0.375021,0.339702,0.148889,0.078363,0.000000,306.000000,19.000000,10.000000,0.000000,0.000000,0.000000,0.375021,0.339702,0.148889,0.078363,0.000000,306.000000,19.000000,10.000000,0.000000,0.000000,0.000000:
// measure 0
0000
0000
0000
0000
,  // measure 1
0000
0000
0000
0000
,  // measure 2
0000
0000
0000
0000
,  // measure 3
0000
0000
0000
0000
,  // measure 4
1000
0000
0001
0001
0000
1000
1000
0000
,  // measure 5
0100
0000
0010
0000
0001
0000
0100
0100
,  // measure 6
0100
0000
0010
1000
0000
1000
0010
0000
,  // measure 7
0100
0000
0001
0000
1000
0000
0100
1000
,  // measure 8
0001
0100
0010
1000
,  // measure 9
0100
0000
1000
0000
0010
0000
1000
0001
,  // measure 10
0100
0001
1000
0100
,  // measure 11
0010
0000
0100
0000
1000
0000
0001
0100
,  // measure 12
0010
1000
0100
0010
,  // measure 13
0100
1000
0001
0010
,  // measure 14
0001
0100
0010
0000
0000
0000
1000
0000
,  // measure 15
1001
0101
0011
1100
,  // measure 16
0002
0000
1003
0000
0000
0000
0000
0010
,  // measure 17
0001
0100
0010
1000
,  // measure 18
0020
0000
0130
0000
0000
0000
0000
1000
,  // measure 19
0001
2000
0100
3100
,  // measure 20
0010
0000
0001
0000
0000
0000
0000
0010
,  // measure 21
0100
0001
1000
0100
,  // measure 22
0020
0000
0130
0000
0000
0000
0000
1000
,  // measure 23
0002
0010
1000
0103
,  // measure 24
0110
0101
1000
0010
,  // measure 25
0100
0000
0001
0000
0100
0010
0100
0000
,  // measure 26
1010
1010
0100
1000
,  // measure 27
0001
0000
0010
0100
1000
0002
0000
0003
,  // measure 28
1100
1100
0001
0010
,  // measure 29
0100
0000
0010
0000
0100
1000
0100
0000
,  // measure 30
0011
0011
1000
0001
,  // measure 31
0100
0000
0010
1000
0001
0200
0000
0000
,  // measure 32
0310
0000
1000
0000
0001
0001
0001
0001
,  // measure 33
0000
1000
1000
1000
1000
0000
1000
0000
,  // measure 34
0001
0000
0100
0000
0010
0100
0000
0010
,  // measure 35
0100
0000
0001
0010
0100
1000
0000
0000
,  // measure 36
0100
0000
0010
0001
0000
0010
0000
0000
,  // measure 37
0100
0000
0010
0010
0010
0000
0100
0100
,  // measure 38
0100
0000
1000
0000
0001
1000
0000
0001
,  // measure 39
1000
0000
0010
0100
0001
1000
0000
0000
,  // measure 40
0001
0000
1000
0100
1000
0000
0001
0100
,  // measure 41
0001
0100
0010
0100
,  // measure 42
0001
0000
0001
0000
1000
1000
0000
0001
,  // measure 43
0001
0000
1000
0100
0010
0001
0000
0000
,  // measure 44
1000
0100
1000
0010
,  // measure 45
0100
0000
0001
0100
1000
0000
0100
0000
,  // measure 46
0001
0000
0010
0000
0100
0100
0000
0010
,  // measure 47
0010
0011
1001
0101
,  // measure 48
0010
0000
1000
0001
0000
1000
0000
0000
,  // measure 49
0001
0000
1000
0000
0100
0000
0010
0100
,  // measure 50
1000
0000
0001
0000
0100
0000
0010
2000
,  // measure 51
0000
0001
0001
3100
,  // measure 52
0010
0000
0100
1000
0000
0001
0000
0000
,  // measure 53
0010
0000
0100
0000
1000
0000
0001
0010
,  // measure 54
0100
0000
1000
0000
0100
0000
0010
0002
,  // measure 55
0000
1000
0100
0013
,  // measure 56
0110
0100
1000
0001
,  // measure 57
0100
0010
1000
0001
,  // measure 58
1000
0000
0000
0100
0000
0010
0000
0200
,  // measure 59
0000
1000
0000
1300
,  // measure 60
0101
0000
0001
1000
0000
0001
0000
0100
,  // measure 61
0000
0010
0000
0100
0000
0001
0000
0000
,  // measure 62
1001
0000
0010
0000
0100
0010
0100
0000
,  // measure 63
1001
0000
0010
0000
0010
0100
0010
0000
,  // measure 64
1000
1000
1000
0000
0001
0000
0100
0000
,  // measure 65
0010
0000
1000
0000
0001
0001
0001
0000
,  // measure 66
1000
1000
1000
0000
0100
0000
0010
0000
,  // measure 67
0001
0000
0100
0000
0010
1000
0001
0000
,  // measure 68
0010
0010
0010
0000
0100
0000
1000
0000
,  // measure 69
0001
0000
1000
0000
0100
0100
0100
0000
,  // measure 70
1000
1000
1000
0000
0001
0000
0100
0000
,  // measure 71
0010
0000
1000
0000
0001
0001
0001
0000
,  // measure 72
0001
1000
0100
0000
0000
0000
0000
0000
;
