#TITLE:Automatic Lover;
#SUBTITLE:(Call for Love);
#ARTIST:Real McCoy;
#TITLETRANSLIT:;
#SUBTITLETRANSLIT:;
#ARTISTTRANSLIT:;
#GENRE:;
#CREDIT:;
#BANNER:automaticloverbn.png;
#BACKGROUND:automaticloverbg.png;
#LYRICSPATH:;
#CDTITLE:;
#MUSIC:automaticlover.ogg;
#OFFSET:0.007212;
#SAMPLESTART:82.039421;
#SAMPLELENGTH:15.500005;
#SELECTABLE:YES;
#BPMS:0.000000=132.990005
;
#STOPS:34.000000=0.451000,
181.000000=0.451000
;
#BGCHANGES:16.000=digitalblocks.mp4=1.000=1=0=1=SongBgWithMovieViz==CrossFade==,
33.000=flash=2.000=0=0=1====#0000FF=,
33.250=automaticloverbg.png=1.000=0=0=1=====,
35.000=digitalblocks.mp4=1.000=0=1=1=StretchRewind==CrossFade_Fastest==,
67.000=blinkingwave.mp4=1.000=0=1=1=StretchRewind==CrossFade_Fastest==,
99.000=flash=1.800=0=0=1====#00FF00=,
99.250=greenwireframe.mp4=1.000=0=1=1=StretchRewind====,
131.000=digitalblocks.mp4=1.000=0=1=1=StretchRewind==CrossFade_Fastest==,
147.000=greenwireframe.mp4=1.000=0=0=1===CrossFade_Fastest==,
179.000=greenwireframe.mp4=1.000=0=0=1=SongBgWithMovieViz==CrossFade_Fastest==,
180.000=flash=2.000=0=0=1====#0000FF=,
180.250=automaticloverbg.png=1.000=0=0=1=====,
182.000=blinkingwave.mp4=1.000=0=0=1===CrossFade_Fastest==,
214.000=digitalblocks.mp4=1.000=0=0=1===CrossFade_Fastest==,
230.000=digitalblocks.mp4=1.000=1=0=1=SongBgWithMovieViz==CrossFade==,
232.000=digitalblocks.mp4=1.000=0=0=1===CrossFade_Fastest==,
234.000=digitalblocks.mp4=1.000=1=0=1=SongBgWithMovieViz==CrossFade==,
236.000=digitalblocks.mp4=1.000=0=0=1===CrossFade_Fastest==,
238.000=digitalblocks.mp4=1.000=1=0=1=SongBgWithMovieViz==CrossFade==,
240.000=digitalblocks.mp4=1.000=0=0=1===CrossFade_Fastest==,
242.000=digitalblocks.mp4=1.000=1=0=1=SongBgWithMovieViz==CrossFade==,
244.000=automaticloverbg.png=1.000=1=0=1===CrossFade==,
99999=-nosongbg-=1.000=0=0=0 // don't automatically add -songbackground-
;
#KEYSOUNDS:;
#ATTACKS:;

//---------------dance-single - C. Picardy----------------
#NOTES:
     dance-single:
     :
     Beginner:
     1:
     0.085381,0.161905,0.071363,0.000000,0.000000,67.000000,59.000000,8.000000,0.000000,0.000000,0.000000,0.085381,0.161905,0.071363,0.000000,0.000000,67.000000,59.000000,8.000000,0.000000,0.000000,0.000000:
// measure 0
0000
0000
0000
0000
,  // measure 1
0000
0000
0000
0000
,  // measure 2
0000
0000
0000
0000
,  // measure 3
0000
0000
0000
0000
,  // measure 4
1000
0000
0000
0000
,  // measure 5
0000
0000
0000
0000
,  // measure 6
0001
0000
0000
0000
,  // measure 7
0000
0000
0000
0000
,  // measure 8
0000
0000
0000
0100
,  // measure 9
0000
0000
0000
0010
,  // measure 10
0000
0000
0000
0100
,  // measure 11
0000
0000
0000
0010
,  // measure 12
0000
0000
0000
1000
,  // measure 13
0000
0000
0000
0001
,  // measure 14
0000
0000
0000
1000
,  // measure 15
0000
0000
0000
0001
,  // measure 16
0000
0000
0000
1001
,  // measure 17
0000
0000
0000
1001
,  // measure 18
0000
0000
0000
0110
,  // measure 19
0000
0000
0000
0110
,  // measure 20
0000
0000
0000
1000
,  // measure 21
0000
1000
0000
1000
,  // measure 22
0000
0000
0000
0001
,  // measure 23
0000
0001
0000
0001
,  // measure 24
0000
0000
0000
0100
,  // measure 25
0000
0000
0000
0010
,  // measure 26
0000
0000
0000
0100
,  // measure 27
0000
0100
0000
0100
,  // measure 28
0000
0000
0000
1000
,  // measure 29
0000
0000
0000
0001
,  // measure 30
0000
0000
0000
0010
,  // measure 31
0000
0010
0000
0010
,  // measure 32
0000
0000
0000
0100
,  // measure 33
0000
0000
0000
1000
,  // measure 34
0000
0000
0000
0001
,  // measure 35
0000
0000
0000
0010
,  // measure 36
0000
0000
0000
1001
,  // measure 37
0000
0000
0000
0100
,  // measure 38
0000
0000
0000
0010
,  // measure 39
0000
0000
0000
1000
,  // measure 40
0000
0000
0000
0001
,  // measure 41
0000
0000
0000
0100
,  // measure 42
0000
0000
0000
0010
,  // measure 43
0000
0000
0000
1000
,  // measure 44
0000
0000
0000
1001
,  // measure 45
0000
0000
0100
0000
,  // measure 46
0000
0000
0010
0000
,  // measure 47
0000
0000
0100
0000
,  // measure 48
0000
0000
1000
0000
,  // measure 49
0000
0000
0001
0000
,  // measure 50
0000
0000
1000
0000
,  // measure 51
0000
0000
0100
0000
,  // measure 52
0000
0000
0010
0000
,  // measure 53
0000
0000
1001
0000
,  // measure 54
0000
0000
0010
0000
,  // measure 55
0000
0000
0100
0000
,  // measure 56
0000
0000
0001
0000
,  // measure 57
0000
0000
0110
0000
,  // measure 58
0000
0000
1000
0000
,  // measure 59
0000
0000
0010
0000
,  // measure 60
0000
0000
0100
0000
;

//---------------dance-single - C. Picardy----------------
#NOTES:
     dance-single:
     :
     Challenge:
     10:
     0.888214,0.877764,0.285452,0.178407,1.106126,697.000000,665.000000,32.000000,20.000000,13.000000,12.000000,0.888214,0.877764,0.285452,0.178407,1.106126,697.000000,665.000000,32.000000,20.000000,13.000000,12.000000:
0000
0000
0000
0000
,
0000
0000
0000
0000
,
0000
0000
0000
0000
,
0000
0000
0000
0000
,
1000
0100
0010
0001
1000
0010
1000
0100
0000
0010
0100
1000
0001
0100
0010
1000
,
0100
0010
0100
0010
0100
1000
0001
1000
0000
0001
0100
0010
1000
0010
0100
0001
,
1000
0100
1000
0100
1000
0010
0100
0001
0000
0010
0100
1000
0001
0100
0010
0100
,
0001
0010
0001
0010
0001
0100
0010
1000
0000
1000
0100
0010
0100
1000
0010
0100
,
0002
0000
0000
0000
2000
0000
0000
0000
0010
0000
3003
0000
1001
0000
1000
0001
,
0100
0000
0001
0100
0001
0000
0100
0001
0100
0000
0010
1000
0100
0000
0010
0100
,
1000
0000
0100
1000
0100
0000
1000
0100
1000
0000
0110
0000
0011
0000
0001
1000
,
0100
0000
0010
0100
1000
0000
0001
0100
0010
0000
1000
0100
0010
0000
0001
0010
,
0100
0000
1000
0010
0100
0000
0001
0100
0010
0000
1010
0000
0101
0000
0010
0100
,
1000
0000
0001
0100
0010
0000
1000
0100
0010
0000
0001
0010
0100
0000
0010
0001
,
1000
0000
0010
1000
0001
0000
0100
0001
1000
0000
0101
0000
0110
0000
1000
0100
,
0010
0000
0001
0010
0001
0000
1000
0100
1000
0000
0001
0100
0001
0000
1000
0010
,
1000
0000
2000
0000
0M01
0000
3001
0000
M1M1
0000
1000
0100
0020
0000
0100
0000
,
0130
0000
1000
0100
10MM
0100
1000
0000
0001
0000
0201
0000
0010
0000
0310
0000
,
1000
0000
0001
0010
MM01
0010
0001
0000
1000
0000
1100
0000
0120
0000
0001
0000
,
0031
0000
0100
0010
M10M
0010
0100
0000
0010
0000
1010
0000
0200
0000
0001
0000
,
0301
0000
1000
0100
10MM
0100
1000
0000
0001
0010
0100
1000
0001
0000
0100
0010
,
0100
0000
0101
0000
1000
0010
1000
0000
1100
0000
0110
0000
0001
0010
0100
0000
,
1100
0000
0001
0010
0100
0010
0001
0000
0101
0000
0110
0000
1000
0010
0100
0000
,
1010
0000
0001
1000
0100
0010
0100
0000
1100
0000
0110
0000
0001
0010
0001
0010
,
0001
0010
0001
0010
0100
1000
0100
1000
0100
1000
0100
1000
0001
0000
0100
0010
,
0100
0000
0001
0100
0001
0000
1000
0000
0010
1000
0010
1000
0010
0000
0100
0000
,
0001
0010
0001
0010
0001
0000
1000
0000
1000
0100
1000
0100
1000
0000
0001
0100
,
0000
0100
0010
0000
1010
0000
0100
0001
0000
0001
0010
0000
0110
0000
1000
0001
,
0100
0000
0010
1000
0001
0000
1000
0100
0010
0001
0010
0100
1000
0000
0001
0100
,
0001
0000
1000
0100
1000
0000
0001
0010
0100
1000
0100
0010
0001
0000
1000
0010
,
1000
0000
0001
0100
0001
0000
1000
0010
0100
0001
0100
0010
1000
0000
0100
0010
,
0100
0000
1000
0100
1000
0000
0100
0010
0001
0010
0100
1000
0001
0000
0100
0010
,
0100
0000
0001
1000
0001
0010
0100
1000
0001
0100
0010
1000
0010
0000
1000
0100
,
0010
0000
0001
0010
0100
0000
1000
0010
0100
0001
0100
0010
1000
0000
0100
0010
,
0001
0000
0100
0010
1000
0000
0100
0010
0100
1000
0001
0100
0010
0000
1000
0100
,
0010
0000
0001
0100
0010
0000
1000
0001
0100
0010
1000
0100
0010
0100
0010
0100
,
0010
0100
0010
0100
1000
0001
1000
0001
1000
0001
1000
0001
0100
0000
0002
0000
,
0000
0200
0000
0010
0303
2000
0000
0200
,
0000
0001
0000
0010
0300
0002
0000
0010
,
0003
0200
0000
0010
0300
0002
0000
0010
,
3003
0000
0100
0000
1000
0000
0001
0000
0100
0000
0001
0100
0010
0000
0200
0000
,
0000
0020
0000
1000
0000
1000
0330
0200
,
0000
0002
0000
0010
0000
1000
0303
0000
,
1MM1
0000
0000
0000
0100
0000
0000
0010
0000
0000
1000
0000
0001
0100
0001
0100
,
0001
0100
0001
0100
0010
1000
0010
1000
0010
1000
0010
1000
0200
0000
0000
0000
,
0020
0000
0000
0000
0001
0000
0330
0000
0110
0000
0010
0001
0010
0000
0001
0100
,
0001
0000
0100
0001
0100
0000
0010
1000
0010
0000
1000
0010
1000
0000
0100
1000
,
0100
0000
1000
0100
1000
0000
0110
0000
0011
0000
0010
0100
0010
0000
0100
1000
,
0100
0000
1000
0010
1000
0000
0001
0100
0001
0000
1000
0010
1000
0000
0010
0100
,
0010
0000
1000
0001
1000
0000
0101
0000
1100
0000
0010
0100
1000
0000
0010
0100
,
0001
0000
1000
0001
0100
0000
0010
1000
0001
0000
0100
0010
1000
0000
0100
0010
,
0001
0000
1000
0001
0100
0000
0110
0000
1010
0000
0001
1000
0100
0000
0010
0100
,
1000
0000
0010
1000
0001
0000
0010
0001
1000
0000
0010
0100
0001
0000
0010
0100
,
1000
0000
0001
0100
0010
0000
1001
0000
1000
0010
0100
0001
0100
0010
1000
0001
,
0000
1000
0100
0010
0001
0010
0100
1000
0100
0010
0001
0010
0100
1000
0001
0100
,
0000
0001
0100
0010
1000
0010
0100
0001
1000
0100
0010
0100
1000
0001
0100
0010
,
0000
1000
0001
0100
0010
1000
0100
0010
0100
1000
0001
0100
0010
0100
0001
1000
,
0000
0100
0010
0001
0010
0100
1000
0001
1000
0001
0100
0010
0100
1000
0100
0010
,
0000
1000
0010
0100
0010
0001
0010
0100
0010
1000
0100
0010
0100
0001
0100
1000
,
0000
0100
0001
0100
0010
0100
1000
0010
0100
0010
0001
0010
1000
0001
0100
1000
,
0000
0100
0010
0100
1000
0100
0001
0010
0100
1000
0100
1000
0100
1000
0100
1000
,
0001
0010
0001
0010
0001
0010
0001
0010
0100
0000
0000
0000
0000
0000
0000
0000
;

//---------------dance-single - C. Picardy----------------
#NOTES:
     dance-single:
     :
     Easy:
     4:
     0.265062,0.327824,0.133806,0.249770,0.000000,208.000000,193.000000,15.000000,28.000000,0.000000,0.000000,0.265062,0.327824,0.133806,0.249770,0.000000,208.000000,193.000000,15.000000,28.000000,0.000000,0.000000:
0000
0000
0000
0000
,
0000
0000
0000
0000
,
0000
0000
0000
0000
,
0000
0000
0000
0000
,
1000
0000
0000
0000
,
0001
0000
0001
0000
,
1000
0000
0000
0000
,
0100
0000
0100
0000
,
0010
0010
0000
1001
,
1000
0100
1000
0001
,
0100
0001
0100
0010
,
0010
1000
0001
0100
,
1000
0100
0010
0110
,
1000
0001
1000
0100
,
0100
1000
0010
1000
,
1000
0100
0100
0010
,
0010
1100
1100
0020
,
1000
0100
0130
2000
,
0010
0001
3001
0200
,
0010
0001
0301
0020
,
0001
0100
0130
1000
,
1100
0001
0101
1000
,
0010
0100
0010
0100
,
0011
1000
1010
2002
,
0000
0000
3003
1000
,
0001
0001
0000
0100
,
0000
0010
1000
0001
,
0001
1000
1000
0100
,
0010
0100
0010
0100
,
0100
1000
0000
0001
,
0000
0100
0010
1000
,
1000
0001
0001
0100
,
0010
0100
0000
1001
,
1000
0001
0001
0100
,
0100
0200
0300
0010
,
0010
1000
1000
0100
,
0010
2002
3003
0200
,
0000
0320
0000
0230
,
0000
0320
0000
2030
,
0000
3002
0000
2003
,
0000
3100
0100
0020
,
0000
0032
0000
0023
,
0000
0230
0000
2300
,
0000
3002
0000
0103
,
0010
0100
0100
2002
,
3003
0000
0100
0010
,
0100
0001
1000
1000
,
0100
0010
0001
0001
,
0001
1000
0010
0100
,
0010
1000
0002
0003
,
0100
0010
0100
0100
,
0001
0010
0100
0100
,
1000
1000
0010
0010
,
0101
0101
1000
0001
,
1000
0001
0100
0010
,
0100
0010
1000
0100
,
1000
0010
0100
0001
,
0010
0001
2000
0010
,
0100
3100
0002
0010
,
1000
1003
0020
1000
,
0100
0130
0001
1000
,
0100
0110
0000
0000
;

//---------------dance-single - C. Picardy----------------
#NOTES:
     dance-single:
     :
     Medium:
     6:
     0.372107,0.384022,0.214089,0.169487,0.008920,292.000000,268.000000,24.000000,19.000000,0.000000,0.000000,0.372107,0.384022,0.214089,0.169487,0.008920,292.000000,268.000000,24.000000,19.000000,0.000000,0.000000:
0000
0000
0000
0000
,
0000
0000
0000
0000
,
0000
0000
0000
0000
,
0000
0000
0000
0000
,
0001
0001
0002
0000
0103
0000
0000
0000
,
1000
1000
2000
0000
3100
0000
0000
0000
,
0010
0010
0020
0000
0130
0000
0000
0000
,
0001
0000
0001
0000
0002
0000
0000
0000
1000
0000
0000
1003
0000
0000
0000
0000
,
0010
2002
3003
0100
,
0010
0000
0100
0000
0010
0100
0010
0000
,
1000
0000
0001
0000
1000
0100
0010
0000
,
0010
0000
0001
0100
0001
0000
1000
0000
,
0100
0000
1000
0000
0010
1000
0100
0000
,
0110
0000
0011
0000
1000
0000
0001
0100
,
0010
0000
1000
0000
0001
0000
1000
0100
,
1000
0000
0001
0100
0001
0000
1000
0010
,
1000
0000
0110
0000
0110
0000
1000
0100
,
0200
0000
0310
0020
0000
0032
0000
0013
,
0020
0000
0130
0200
0000
1300
0000
0010
,
0020
0000
0130
0200
0000
0320
0000
1030
,
2000
0000
3001
0002
0000
1003
0100
0000
,
1000
0000
0001
0100
0000
0001
0100
0000
,
0010
0000
1000
0100
0000
1000
0010
0000
,
0100
0000
0010
0100
0000
0001
4000
0000
,
0000
0004
0000
3003
,
0100
0000
0010
0000
1000
0010
1000
0000
,
0010
0100
0010
0000
1000
0000
0001
0001
,
0001
0000
1000
1000
1000
0000
0100
0000
,
0110
0000
1001
0000
1000
0001
0100
0000
,
0010
0000
1000
0000
0001
0100
0010
0000
,
1000
0000
0100
0000
0010
0100
1000
0000
,
0001
0101
1100
0001
,
0100
0000
1000
0000
0010
0100
0001
0000
,
0110
0000
1000
0000
0110
0000
1000
0100
,
0010
0000
0100
0000
1000
0000
0001
0100
,
0010
0000
1000
0100
0010
0000
0400
0000
,
0000
0000
0040
0000
0000
0330
0000
0100
,
0000
1000
0000
0001
0000
1000
0000
0001
,
0000
0100
0000
0010
0000
1010
0000
0101
,
0000
0010
0000
0100
0000
1000
0000
0100
,
0000
0010
0000
0001
0000
0100
0010
1000
,
0000
0001
0000
0101
0000
1000
0000
1100
,
0000
0010
0000
1010
0000
0001
0000
0011
,
0000
1000
0100
0000
1000
0001
4000
0000
,
0000
0040
0000
3030
,
2002
3003
0100
0010
,
0100
0000
0001
0100
0010
0000
1000
0000
,
0100
0000
1000
0100
0010
0100
0010
0000
,
0001
0100
0001
0000
1000
0000
0010
0000
,
0100
0000
0010
1000
0100
0000
1100
0000
,
0110
0000
0001
0000
0010
0001
1000
0000
,
0010
0000
0100
0000
0001
0100
0001
0000
,
1000
0010
1000
0000
0100
0010
0100
0000
,
0110
0000
1001
0000
1000
0100
0001
0000
,
0001
0100
1000
0000
1000
0010
0100
0000
,
0100
0010
1000
0000
0001
0100
1000
0000
,
1000
0100
0001
0000
0001
0010
0100
0000
,
0100
0010
0001
0000
1000
1000
0010
0000
,
0100
0000
0101
0000
0010
0010
0200
0000
,
0010
0000
0000
0310
0000
0000
0000
0000
0001
0000
0001
0000
1000
0000
0000
0000
,
0100
0011
0004
0000
,
4000
0000
3003
0000
;

//---------------dance-single - C. Picardy----------------
#NOTES:
     dance-single:
     :
     Hard:
     8:
     0.499541,0.548603,0.160567,0.178407,0.294372,392.000000,374.000000,18.000000,20.000000,18.000000,0.000000,0.499541,0.548603,0.160567,0.178407,0.294372,392.000000,374.000000,18.000000,20.000000,18.000000,0.000000:
0000
0000
0000
0000
,
0000
0000
0000
0000
,
0000
0000
0000
0000
,
0000
0000
0000
0000
,
1000
0100
0001
0000
0001
0100
1000
0000
,
1000
0000
0100
0000
0010
0000
0100
0000
1000
0000
0000
1000
0000
0000
0000
0000
,
0001
0100
1000
0000
1000
0100
0001
0000
,
0001
0000
0010
0000
0100
0000
0010
0000
0001
0000
0000
0001
0000
0000
0000
0000
,
2001
0000
0000
0000
0010
0000
0000
0000
3100
0000
0000
0000
1000
0000
0000
1000
,
0100
0000
0000
0100
1000
0000
0000
1000
0001
0000
0000
0001
0010
0000
0000
0010
,
0001
0000
0000
0001
0100
0000
0000
0100
M010
0000
0100
0000
M001
0000
0010
0000
,
M100
0010
M001
0001
M100
0010
0000
1010
,
0000
0000
0110
0000
0000
0000
0001
0000
1000
0000
0100
0000
0010
0000
0000
0010
,
0100
0000
0000
0100
1000
0000
0000
1000
0001
0000
0000
0001
1000
0000
0000
1000
,
0010
0000
0000
0010
0100
0000
0000
0100
001M
0000
1000
0000
010M
0000
0010
0000
,
010M
0100
100M
0010
010M
0100
001M
1000
,
010M
0010
010M
0000
0011
0000
0001
0100
,
2000
0000
3100
0020
0000
1030
0100
0010
,
0200
0000
1300
0002
0000
1003
0100
0001
,
0200
0000
1300
0020
0000
0130
0001
0010
,
0200
0000
0310
0200
0000
1300
0010
0100
,
0101
0000
1000
1100
0000
0001
0100
0100
,
0110
0000
1000
1010
0000
0001
0010
0010
,
0011
0000
0000
0000
1000
0000
1100
0000
0000
0000
0001
0000
4000
0040
0000
0000
,
0000
0000
0000
0000
0000
3030
0001
0100
,
0010
2000
0000
3100
0010
0001
0100
0100
,
0010
0000
1000
0000
0100
0000
0100
0000
0010
0000
0001
0000
1000
0000
1000
0100
,
0000
0100
1000
0000
0010
0000
0010
0100
0000
0100
0001
0000
1000
0000
0100
0000
,
0001
0000
0100
0000
1000
0000
1000
0010
0000
0010
0100
0000
0001
0000
0100
0010
,
0000
0000
0100
0001
0000
0000
1000
0100
0000
0000
1000
0010
0000
0000
0100
0001
,
0000
0000
0100
0010
0000
0000
1000
0001
0000
0000
1000
0100
0000
0000
0010
0100
,
0000
0000
1000
0010
0000
0000
0100
0001
0000
0000
0010
0001
0000
0000
0100
0010
,
0000
0000
1000
0100
0000
0000
0010
0000
0100
0000
1000
0000
0001
0000
0100
0000
,
1000
0100
0001
0100
1000
0100
0001
0001
,
0010
0200
0000
0310
0000
0001
1000
0100
,
0001
0000
0100
0000
1000
0000
0100
0000
0001
0000
0100
0000
4000
0004
0000
0000
,
0000
0000
0000
0000
0000
3003
0000
0201
,
0000
0010
0000
1000
0000
0001
0000
0320
,
0000
0100
0000
1000
0000
0001
0000
0230
,
0000
0010
0000
0001
0000
2300
0000
0010
,
0000
0000
3001
0000
0000
0000
1000
0000
0001
0000
1000
0001
0000
0000
0100
0000
,
0000
0012
0000
0103
0000
2010
0000
3100
,
0000
0120
0000
1030
0000
0001
0100
0000
,
0010
0000
0000
0000
1000
0000
0000
0001
0000
0000
0100
0000
0040
0400
0000
0000
,
0000
0000
0000
0330
,
2002
0000
0000
0000
3003
0000
0000
0000
1000
0000
0000
1000
0001
0000
0000
0001
,
0100
0000
0000
0100
0010
0000
0000
0010
0100
0000
0000
0100
0001
0000
0000
0001
,
1000
0000
0000
1000
0100
0000
0010
0000
0100
0000
0100
0000
0010
0000
0010
0000
,
0001
0010
0100
1000
0000
0101
0000
1100
,
0000
0000
0001
0000
0100
0000
0010
0000
1000
0000
0000
1000
0100
0000
0000
0100
,
0010
0000
0000
0010
0001
0000
0000
0001
0100
0000
0000
0100
0010
0000
0000
0010
,
1000
0000
0000
1000
0001
0000
0100
0000
0010
0000
1000
0000
0100
0000
0100
0000
,
0010
0001
0100
0100
0010
1000
0100
0010
,
0100
0000
0000
0000
1001
0000
0000
0000
1000
0000
0100
0000
0010
0000
0100
1000
,
0000
0000
0001
0000
0100
0000
0010
0000
0100
0000
0001
0000
0010
0000
0100
1000
,
0000
0000
0001
0000
0100
0000
0010
0000
1000
0000
0100
0000
0010
0000
0001
0010
,
0000
0000
0001
0000
0100
0000
0001
0000
0010
0000
0100
0000
1000
0000
0010
0100
,
0000
0000
0001
0000
0100
0000
0010
0000
1000
0000
0100
0000
0010
0000
0100
1000
,
0000
1000
0100
0000
0010
0000
0001
0000
0100
0000
0001
0000
0010
0000
0001
0100
,
0000
0100
0010
0000
1000
0000
0100
0000
0001
0000
0100
0000
1000
0000
0001
0100
,
0000
0100
0010
0000
1000
0000
0100
0000
M040
0004
0000
0000
0M00
0000
0000
0000
,
M000
0M00
M033
0000
;
