#TITLE:Another Race;
#SUBTITLE:;
#ARTIST:Eiffel 65;
#TITLETRANSLIT:;
#SUBTITLETRANSLIT:;
#ARTISTTRANSLIT:;
#GENRE:;
#CREDIT:;
#BANNER:anotherracebn.png;
#BACKGROUND:anotherracebg.png;
#LYRICSPATH:;
#CDTITLE:;
#MUSIC:anotherrace.ogg;
#OFFSET:-0.515870;
#SAMPLESTART:97.893623;
#SAMPLELENGTH:12.000000;
#SELECTABLE:YES;
#BPMS:0.000000=129.990005
;
#STOPS:
;
#BGCHANGES:;
#KEYSOUNDS:;
#ATTACKS:;

//---------------dance-single - C. Picardy----------------
#NOTES:
     dance-single:
     :
     Challenge:
     9:
     0.588402,0.619573,0.284670,0.738362,0.182366,348.000000,32.000000,83.000000,0.000000,8.000000,0.000000,0.588402,0.619573,0.284670,0.738362,0.182366,348.000000,32.000000,83.000000,0.000000,8.000000,0.000000:
0000
0000
0000
0000
,
0000
0000
0000
0000
,
0000
0000
0000
0000
,
0000
0000
0000
0000
0000
0000
1000
1000
,
0002
0000
0203
0000
0320
0000
1030
2000
,
0000
0000
0100
0200
0000
3300
0010
0010
,
0002
0000
0020
0003
0200
0030
0001
0001
,
0000
0000
1000
1300
0000
0100
1000
0001
,
0012
0000
0103
0000
1020
0000
0230
0002
,
0000
0000
1000
1000
0303
0000
0010
1000
,
2100
3010
0210
0301
,
2200
0000
0010
0010
3300
0000
1000
0001
,
0201
0000
1300
0000
0012
0000
2003
0002
,
0000
0000
0010
0010
3003
0000
0001
0010
,
0022
0000
0000
0033
0202
0000
0000
0303
2002
0000
0000
3003
0110
0000
0220
0000
,
0000
0000
0001
0331
0000
1000
0100
0010
,
0001
0010
0100
0010
1000
0010
0100
0010
,
0001
0200
1000
2000
0000
3300
0100
0010
,
0001
0010
0100
0010
1000
0010
0001
0010
,
0200
0000
0001
0002
0000
0303
1000
0100
,
0001
0100
0010
0100
0001
0100
1000
0001
,
0020
0000
1000
2000
0000
3030
0001
0100
,
0010
0001
0100
0010
0001
1000
0200
0020
,
0000
0330
1001
2002
0000
3003
1000
0001
,
2200
0000
0000
3300
0022
0000
0000
0033
2200
0000
0000
3300
0001
0000
0000
0000
,
1000
0100
0000
1000
0000
0001
1000
0000
0000
0100
0000
0100
0010
0000
0001
0000
,
0202
0000
0000
0303
2020
0000
0000
3030
0202
0000
0000
0303
1000
0000
0000
0000
,
0001
0100
0000
0001
0000
1000
0001
0000
0000
0100
0000
0100
0010
0000
1000
0000
,
0010
0100
0001
0100
0010
0000
0110
0000
,
0100
0010
0000
0100
0000
0010
0100
0000
0000
0001
0000
1000
0001
0000
0100
0000
,
0110
1010
1001
0100
,
0010
0100
0000
0001
0000
1000
0010
0000
0000
0100
0000
0100
0000
0001
1000
0000
,
0100
0000
0200
0000
0020
0000
0300
0000
0032
0000
0000
0003
0101
0000
0000
0000
,
1000
0010
0000
1000
0000
0001
1000
0000
0000
0010
0000
0010
0100
0000
0001
0000
,
2000
0000
0000
0000
3010
0000
0020
0000
2000
0000
0000
3030
1010
0000
0000
0000
,
0100
0010
0000
0100
0000
0001
1000
0000
0000
0001
0000
1000
0000
0001
1000
0000
,
0100
0010
0001
0010
0100
0000
0011
0000
,
1000
0100
0000
1000
0000
0001
0010
0000
0000
0000
0100
0000
1000
0000
1000
0000
,
1100
0110
0011
0100
,
0010
0100
0000
0001
0000
0100
0010
0000
0000
0000
1000
0000
1000
0000
0001
0000
,
1000
0100
0001
0100
2000
0000
3010
0000
,
0100
0010
0000
1000
0000
1000
0100
0000
0000
0000
0010
0000
0100
0000
0100
0000
,
0120
0000
0031
0001
0012
0000
1003
0000
,
0010
0100
0010
0100
1000
0001
1000
0001
,
1000
0100
0010
0001
1000
0100
0010
0001
,
2000
0000
0000
0000
0020
0000
3000
0000
2000
0000
0030
0000
0002
3000
0200
0000
,
0000
0000
0000
0303
0020
0000
2000
0000
0000
0000
3030
0000
0100
0000
0100
0000
,
0002
0000
0020
0003
2000
0030
0002
3000
,
0200
0003
1000
2000
0000
3300
0001
0100
,
2000
0000
0002
3000
0020
0003
0100
0230
,
0000
0000
1000
2000
0000
3300
0100
0010
,
2000
0000
0200
3000
0002
0300
0100
0200
,
0003
0000
0010
0010
0000
0001
0301
0100
,
1000
0010
0100
0010
0001
0010
1000
0100
,
0001
0100
0001
0100
1000
0010
1000
0010
,
0001
0010
0100
0010
0001
0010
1000
0001
,
0100
1000
0100
1000
0001
0010
0001
0010
,
0100
0010
1000
0100
0001
0100
1000
0100
,
0010
0100
0010
0100
0001
0100
0001
0100
,
1000
0010
0100
0010
1000
0001
0100
0200
,
0000
0000
0000
0000
0010
0000
0020
0000
0000
0330
0000
0000
0000
0000
0000
0000
;

//---------------dance-single - C. Picardy----------------
#NOTES:
     dance-single:
     :
     Beginner:
     1:
     0.081334,0.080063,0.053376,0.000000,0.000000,58.000000,6.000000,0.000000,0.000000,0.000000,0.000000,0.081334,0.080063,0.053376,0.000000,0.000000,58.000000,6.000000,0.000000,0.000000,0.000000,0.000000:
0000
0000
0000
0000
,
0000
0000
0000
0000
,
0000
0000
0000
0000
,
0000
0000
0000
0000
,
0000
0000
0000
0000
,
0000
0000
0000
0000
,
0000
0000
0000
0000
,
0000
0000
0000
0000
,
1000
0000
0000
0000
,
1000
0000
0000
0000
,
0001
0000
0000
0000
,
0001
0000
0000
0000
,
0010
0000
0000
0000
,
0010
0000
0000
0000
,
0100
0000
0000
0000
,
0100
0000
0000
0000
,
0001
0000
0001
0000
,
0001
0000
0000
0000
,
1000
0000
1000
0000
,
1000
0000
0000
0000
,
0010
0000
0010
0000
,
0010
0000
0000
0000
,
0100
0000
0100
0000
,
0100
0000
0000
0000
,
1001
0000
0000
0000
,
0000
0000
0000
0000
,
1001
0000
0000
0000
,
0000
0000
0000
0000
,
0010
0000
0010
0000
,
0000
0000
0000
0000
,
0100
0000
0100
0000
,
0000
0000
0000
0000
,
0001
0000
0001
0000
,
0000
0000
0000
0000
,
1000
0000
1000
0000
,
0000
0000
0000
0000
,
1001
0000
0000
0000
,
0100
0000
0000
0000
,
0010
0000
0000
0000
,
1000
0000
0000
0000
,
0001
0000
0000
0000
,
0100
0000
0000
0000
,
0010
0000
0000
0000
,
1001
0000
0000
0000
,
0000
0000
0000
0000
,
0010
0000
0010
0000
,
0010
0000
0000
0000
,
0100
0000
0100
0000
,
0100
0000
0000
0000
,
0001
0000
0001
0000
,
0001
0000
0000
0000
,
1000
0000
1000
0000
,
1000
0000
0000
0000
,
1001
0000
0000
0000
,
0010
0000
0000
0000
,
0100
0000
0000
0000
,
0010
0000
0000
0000
,
1001
0000
0000
0000
,
0100
0000
0000
0000
,
0010
0000
0000
0000
,
0010
0000
0000
0000
;

//---------------dance-single - C. Picardy----------------
#NOTES:
     dance-single:
     :
     Easy:
     3:
     0.205877,0.212613,0.044480,0.017792,0.000000,155.000000,5.000000,2.000000,0.000000,0.000000,0.000000,0.205877,0.212613,0.044480,0.017792,0.000000,155.000000,5.000000,2.000000,0.000000,0.000000,0.000000:
0000
0000
0000
0000
,
0000
0000
0000
0000
,
0000
0000
0000
0000
,
0000
0000
0000
0000
,
1000
0000
0000
0000
,
0001
0000
0000
0000
,
0100
0000
0000
0000
,
0010
0000
0000
0000
,
1000
0000
1000
0000
,
0001
0000
0000
0000
,
0100
0000
0100
0000
,
0010
0000
0000
0000
,
1000
0000
0001
0000
,
1000
0000
0000
0000
,
0001
0000
0100
0000
,
0001
0000
0000
0010
,
1001
0100
0010
0100
,
0010
1000
0000
0001
,
1000
0100
1000
0100
,
0010
0100
0000
1000
,
0001
0100
0001
0100
,
0010
1000
0000
0001
,
1000
0100
0010
0001
,
0001
1000
0000
0100
,
0010
0010
0010
0000
,
0001
0000
1000
0000
,
0100
0100
0100
0000
,
0010
0000
0100
0000
,
1001
1000
1000
0000
,
0010
0000
0100
0000
,
0001
1000
0100
0000
,
1000
0000
0010
0000
,
0100
0001
1000
0000
,
0010
0000
0100
0000
,
0001
1000
0100
0100
,
0010
0000
0100
0000
,
0110
0100
0010
0000
,
0001
1000
0001
0000
,
0100
0100
0010
0000
,
1000
0001
0100
0000
,
0010
0010
1000
0000
,
0100
0010
0001
0000
,
1000
0001
0100
0010
,
2002
0000
0000
0000
,
0000
0000
0000
3003
,
0100
0010
0100
1000
,
0001
1000
0000
0010
,
0100
0001
0100
0001
,
1000
0010
0000
0100
,
0001
1000
0001
0100
,
0010
0100
0000
0001
,
1000
0100
0010
0001
,
1000
0000
0010
0100
,
1001
1000
0001
1000
,
0100
0010
0100
0010
,
0001
0010
0100
1000
,
0001
0010
0100
1000
,
0001
0100
0010
1000
,
0001
0100
0010
1000
,
0100
0010
0100
1000
;

//---------------dance-single - C. Picardy----------------
#NOTES:
     dance-single:
     :
     Medium:
     5:
     0.324066,0.349110,0.115647,0.088959,0.000000,232.000000,13.000000,10.000000,0.000000,0.000000,0.000000,0.324066,0.349110,0.115647,0.088959,0.000000,232.000000,13.000000,10.000000,0.000000,0.000000,0.000000:
0000
0000
0000
0000
,
0000
0000
0000
0000
,
0000
0000
0000
0000
,
0000
0000
0000
0000
,
1000
0000
0100
0200
,
0000
0000
0000
0310
0000
0000
0000
0000
,
0001
0000
0100
0020
,
0000
0000
0000
0130
0000
0000
1000
0000
,
0001
0000
0100
0000
0010
0000
1000
1000
,
0000
0000
0001
0001
0000
0000
1000
0000
,
0100
1000
0010
0100
,
0001
0000
0010
0010
0000
0000
0100
0000
,
0010
0000
0001
0000
1000
0000
0010
0010
,
0000
0000
0100
0100
0000
0000
0001
0000
,
1000
0000
0100
0000
0010
0000
0100
0010
,
0000
0000
0100
0010
0000
0000
0100
0000
,
1000
0000
0001
0000
0100
0000
0010
1000
,
0000
0000
0001
0100
0000
0000
0010
0000
,
1000
0100
0010
0001
,
1000
0000
0010
0100
0000
0000
0001
0000
,
1000
0000
0100
0000
0010
0000
0001
1000
,
0000
0000
0010
0100
0000
0000
0001
0000
,
1000
0000
0100
0000
0010
0000
0001
0001
,
0000
0000
1000
1000
0000
0000
0001
1000
,
0100
0100
0100
0100
,
0010
0001
0000
0100
0000
0010
0000
1000
,
0001
0001
0001
0001
,
1000
0100
0000
0010
0000
0001
0000
0000
,
1001
0200
0010
0310
,
0001
0010
0100
1000
,
0002
0010
0010
0013
,
0100
0010
0000
0001
0000
1000
0000
0100
,
0020
0001
0100
0130
,
1000
0001
0100
0010
,
2000
0010
0010
3010
,
1000
0001
0000
0100
0000
0010
0000
0100
,
0010
0000
0010
1000
0001
0000
0010
0000
,
0100
0000
0010
0000
0001
0000
1000
0100
,
0010
0010
0011
0100
,
0010
1000
0100
0010
,
0001
0100
0010
0000
1000
0000
1010
0000
,
0001
0000
0011
0000
1000
0000
0001
0100
,
0010
0000
0010
1000
0100
0000
0100
0000
,
0210
0010
0010
0010
,
0310
0000
0000
0000
0000
0000
1000
0001
,
0100
0000
0010
0000
1000
0000
0001
1000
,
0000
0000
1000
0001
0000
0000
1000
0001
,
0100
0100
0010
0010
,
1000
0000
0001
1000
0000
0000
0100
0010
,
0100
0000
0100
0000
1000
0000
1000
0001
,
0000
0000
0001
1000
0000
0000
0001
0100
,
0010
0000
1000
0000
0001
0000
0100
0010
,
0000
0000
0100
0010
0000
0000
0100
0010
,
1000
0110
1000
0101
,
0010
0000
0001
0000
0100
0000
0010
1000
,
0100
1100
0010
0110
,
0002
0000
0100
0103
0000
0000
0010
1000
,
0001
0011
1000
1010
,
0100
0010
0001
1000
,
0010
0000
0110
0000
1010
0000
0002
0200
,
0000
0000
0003
0300
0000
0000
0000
0000
;

//---------------dance-single - C. Picardy----------------
#NOTES:
     dance-single:
     :
     Hard:
     7:
     0.452421,0.429673,0.266878,0.169023,0.000000,307.000000,30.000000,19.000000,0.000000,0.000000,0.000000,0.452421,0.429673,0.266878,0.169023,0.000000,307.000000,30.000000,19.000000,0.000000,0.000000,0.000000:
// measure 0
0000
0000
0000
0000
,  // measure 1
0000
0000
0000
0000
,  // measure 2
0000
0000
0000
0000
,  // measure 3
0000
0000
0000
0001
,  // measure 4
1000
0000
0100
0000
0010
0000
0001
0002
,  // measure 5
0000
0000
1000
1003
0000
0000
0100
0000
,  // measure 6
0010
0000
0001
0000
0100
0000
0010
0100
,  // measure 7
0000
0000
0010
0100
0000
0010
0100
0010
,  // measure 8
1000
0000
0001
0000
1000
0000
0010
0020
,  // measure 9
0000
0000
1000
1030
0000
0000
0010
0100
,  // measure 10
0001
0011
1001
1100
,  // measure 11
0110
0000
0001
0002
0000
0003
1000
0100
,  // measure 12
0001
0000
0100
0000
1000
0000
0001
0020
,  // measure 13
0000
0000
0130
0010
0000
0000
0001
0100
,  // measure 14
0010
0000
1010
0000
1001
0000
0100
0200
,  // measure 15
0000
0000
0001
0302
0000
1003
0001
0100
,  // measure 16
0001
0100
1000
0000
1000
0100
0001
0000
,  // measure 17
0001
0100
0010
1000
0100
0000
0010
0100
,  // measure 18
1000
0101
1100
0101
,  // measure 19
2001
0000
0010
3010
0000
0000
0100
0001
,  // measure 20
0010
0001
0100
0000
0010
1000
0100
0000
,  // measure 21
0010
0001
0010
0100
1000
0000
0010
0100
,  // measure 22
0001
0000
1100
0000
0011
0000
2000
0100
,  // measure 23
3100
0000
0020
0001
0031
0000
0100
0001
,  // measure 24
0010
0011
0011
1000
,  // measure 25
0100
0010
0001
0001
0000
0001
1000
0100
,  // measure 26
0010
1100
1100
0001
,  // measure 27
0010
0100
1000
0010
0000
0010
0010
0100
,  // measure 28
0001
0100
1000
0100
0001
0000
0001
0000
,  // measure 29
0001
0100
0010
1000
0000
1000
0100
0010
,  // measure 30
0010
0010
0010
0010
,  // measure 31
0001
0010
0100
1000
0000
0001
0000
1000
,  // measure 32
0100
0010
0001
0000
1001
0000
0100
0000
,  // measure 33
0010
0100
0001
0001
0000
0001
1000
0100
,  // measure 34
0010
0000
0010
0001
0100
0000
0100
0000
,  // measure 35
0010
0100
0010
1000
0000
0001
0000
1000
,  // measure 36
0001
0100
0010
1000
0100
0000
1000
0000
,  // measure 37
0001
0100
0010
1000
0000
1000
0010
0100
,  // measure 38
0100
0001
0101
0110
,  // measure 39
1000
0010
0010
1000
0000
0001
1000
0100
,  // measure 40
0010
0001
0010
0100
1000
0000
0010
0000
,  // measure 41
0100
0010
1000
0100
0000
0010
0001
0010
,  // measure 42
0100
0000
0010
0001
0010
0000
0110
0000
,  // measure 43
1100
1001
0101
1001
,  // measure 44
0020
0000
0000
0000
0000
0000
1030
0100
,  // measure 45
0010
0000
0011
0000
0101
0000
0010
0020
,  // measure 46
0000
0000
1030
2000
0000
0000
3100
0010
,  // measure 47
0010
0011
0100
1010
,  // measure 48
0002
0000
1000
1003
0000
0000
0100
0010
,  // measure 49
0001
0000
0100
0000
1001
0000
1000
2000
,  // measure 50
0000
0000
0001
3001
0000
0000
1000
0001
,  // measure 51
0100
0000
0010
0000
1010
0000
0100
0200
,  // measure 52
0000
0000
0010
0310
0000
0000
1000
0001
,  // measure 53
0010
0001
1000
0001
0010
0001
0100
0001
,  // measure 54
1000
0100
0010
0020
0000
0030
0100
1000
,  // measure 55
0010
1000
0100
1000
0001
1000
0010
1000
,  // measure 56
0100
0010
0001
0002
0000
0003
0001
0001
,  // measure 57
1000
0100
0001
0100
1000
0100
0001
0100
,  // measure 58
1000
0001
0100
0200
0000
0300
0010
1000
,  // measure 59
0001
0100
0010
1000
0001
1000
0100
0200
,  // measure 60
0000
0000
1000
1300
0000
0000
0000
0000
;
