#TITLE:Another Night;
#SUBTITLE:;
#ARTIST:Real McCoy;
#TITLETRANSLIT:;
#SUBTITLETRANSLIT:;
#ARTISTTRANSLIT:;
#GENRE:;
#CREDIT:;
#BANNER:anothernightbn.png;
#BACKGROUND:anothernightbg.png;
#LYRICSPATH:;
#CDTITLE:;
#MUSIC:anothernight.ogg;
#OFFSET:-0.000351;
#SAMPLESTART:14.699391;
#SAMPLELENGTH:12.000000;
#SELECTABLE:YES;
#BPMS:0.000000=125.969994
;
#STOPS:
;
#BGCHANGES:0.500=anothernight.mp4=1.000=0=0=0=StretchNoLoop==CrossFade_Fastest==,
222.500=anothernightbg.png=1.000=0=0=1===CrossFade_Fastest==,
99999=-nosongbg-=1.000=0=0=0 // don't automatically add -songbackground-
;
#KEYSOUNDS:;
#ATTACKS:;

//---------------dance-single - C. Picardy----------------
#NOTES:
     dance-single:
     :
     Beginner:
     1:
     0.088354,0.128849,0.037483,0.018742,0.000000,66.000000,62.000000,4.000000,2.000000,0.000000,0.000000,0.088354,0.128849,0.037483,0.018742,0.000000,66.000000,62.000000,4.000000,2.000000,0.000000,0.000000:
0000
0000
0000
0000
,
0000
0000
0000
0000
,
0000
0000
0000
0000
,
0000
0000
0000
0000
,
1000
0000
0000
0000
,
0001
0000
0000
0000
,
1000
0000
0000
0000
,
0001
0000
0000
0000
,
1001
0000
0000
0000
,
0100
0000
0000
0000
,
0010
0000
0010
0000
,
0010
0000
0000
0000
,
0100
0000
0100
0000
,
0100
0000
0000
0000
,
0001
0000
0000
0000
,
1000
0000
0000
0000
,
0020
0000
0000
0030
,
0000
0000
0000
0100
,
0200
0000
0000
0300
,
0000
0000
0000
0001
,
0001
0000
0000
0000
,
1000
0000
0000
0000
,
0100
0000
0000
0000
,
0010
0000
0000
0000
,
0110
0000
0000
0000
,
0100
0000
0000
0000
,
1000
0000
1000
0000
,
1000
0000
0000
0000
,
1001
0000
0000
0000
,
0001
0000
0001
0000
,
0001
0000
0000
0000
,
0100
0000
0100
0000
,
0000
0010
0010
0000
,
1000
0000
0000
0000
,
0001
0000
0000
0000
,
1000
0000
0000
0000
,
0000
0100
0100
0000
,
0010
0000
0000
0000
,
1000
0000
0001
0000
,
1000
0000
0000
0000
,
0100
0000
0000
0000
,
0010
0000
0000
0000
,
0001
0000
0000
0000
,
1000
0000
0000
0000
,
0010
0000
0000
0000
,
0100
0000
0000
0000
,
0001
0000
0000
0000
,
1000
0000
0000
0000
,
1001
0000
0000
0000
,
0100
0000
0000
0000
,
0010
0000
0000
0000
,
1000
0000
0000
0000
,
0001
0000
0001
0000
,
0001
0000
0000
0000
,
1000
0000
1000
0000
,
1000
0000
0000
0000
;

//---------------dance-single - C. Picardy----------------
#NOTES:
     dance-single:
     :
     Challenge:
     9:
     0.641233,0.706854,0.515396,0.562250,0.487284,479.000000,424.000000,55.000000,60.000000,22.000000,11.000000,0.641233,0.706854,0.515396,0.562250,0.487284,479.000000,424.000000,55.000000,60.000000,22.000000,11.000000:
0000
0000
0000
0000
,
0000
0000
0000
0000
,
0002
0000
0000
0000
1003
0001
0000
1000
0000
0000
0100
0000
0100
0000
2000
0000
,
0000
0000
3001
0000
0001
0100
0000
0010
0000
1000
0001
0000
1000
0000
0000
0000
,
0001
0000
0100
0000
0010
0100
0000
0010
0000
0010
1000
0000
0100
0000
0010
0000
,
0100
0000
1000
0000
0010
0100
0000
0001
0000
0001
0010
0000
0100
0000
0010
0000
,
0001
0000
0010
0000
1000
0010
0000
0001
0000
0001
1000
0000
0100
0000
0010
0000
,
0001
0100
0001
0100
0001
0100
0001
0100
0010
1000
0010
1000
0010
1000
0010
1000
,
0100
0000
0010
0000
0100
1000
0000
0010
0000
0100
0001
0000
0010
0000
0110
0000
,
1000
0000
0100
0000
0001
0100
0000
1000
0000
0010
0100
0000
0101
0000
1100
0000
,
0001
0000
0010
0000
0100
0010
0000
0001
0000
0100
0010
0000
1000
0000
1001
0000
,
0001
0000
0100
0000
1000
0100
0000
0001
0000
0001
1000
0000
1100
0000
0101
0000
,
0010
0000
1000
0000
0100
0010
0000
0100
0000
1000
0010
0000
0110
0000
0101
0000
,
0010
0000
0100
0000
1000
0001
0000
0100
0000
0010
1000
0000
1010
0000
0011
0000
,
0001
0000
0100
0000
1000
0100
0000
0010
0000
1000
0100
0000
0011
0000
0110
0000
,
1000
0000
0001
0000
0100
0010
0000
1000
0000
0100
0010
0000
0110
0000
1001
0000
,
02M1
0000
0000
0000
1000
0000
00M0
0001
0000
0000
1000
0300
0100
0000
M001
0000
,
0010
0000
0100
0000
02M0
0000
0000
0001
M000
0000
0010
0000
1000
0000
1300
0000
,
1M20
0000
0000
0000
0100
0000
M000
0001
0000
0000
0100
0030
001M
0000
1000
0000
,
0100
0000
M010
0000
0020
0000
0000
1000
0M00
0000
0001
0000
0100
0000
0031
0000
,
0100
0000
1000
0000
0010
0100
0000
0001
0000
1000
0100
0000
0110
0000
1100
0000
,
0001
0000
0100
0000
0010
1000
0000
0100
0000
0010
0001
0000
0101
0000
0110
0000
,
0100
0000
0001
0000
0010
0100
0000
0010
0000
0100
1000
0000
0110
0000
0011
0000
,
1000
0000
0100
0000
0001
0100
0000
1000
0000
0010
0100
0000
0010
0100
0010
0100
,
0020
0000
0000
1000
0031
1000
0002
0000
0000
0000
0023
0000
0100
0000
0130
0000
,
1000
1000
0002
0200
0003
0301
0200
2000
,
0300
3100
0020
0200
0030
0302
0010
0013
,
0100
0000
1000
0000
0100
1000
0000
0010
0000
0010
0100
0000
0001
0000
0001
0000
,
0102
0000
0000
1000
0103
1000
0200
0000
0000
0000
0010
0000
0310
0000
0100
0000
,
1000
0010
0100
0020
0000
0130
0001
0001
,
0012
0000
1003
0010
1010
1000
1010
0100
,
0001
0000
0001
0000
1000
0000
0200
0000
0000
0000
0310
0000
0100
0000
1000
0001
,
0100
0000
0000
0000
0000
0000
0000
0000
0001
0000
0000
0000
0000
0000
0000
0000
MM22
0000
0000
0000
0000
0000
0000
0000
0000
0000
0000
0000
0000
0000
0000
0033
MM22
0000
0000
0000
0000
0000
0000
0000
0000
0000
0000
0000
0000
0000
0000
0033
1000
0000
0000
0000
0000
0000
0000
0000
0010
0000
0000
0000
0000
0000
0000
0000
,
2020
0000
0000
0000
0000
0000
0000
0000
0000
0000
0000
0000
0000
0000
0000
3030
0001
0000
0000
0000
0000
0000
0000
0000
0202
0000
0000
0000
0000
0000
0000
0000
0000
0000
0000
0000
0000
0000
0000
0303
0001
0000
0000
0000
0000
0000
0000
0000
0100
0000
0000
0000
0000
0000
0000
0000
2000
0000
0000
0000
0000
0000
0000
0000
,
0000
3001
0010
2000
0000
0100
3100
0010
,
0220
0000
0000
0000
0000
0000
0000
0000
0000
0000
0000
0000
0000
0000
0000
0330
1000
0000
0000
0000
0000
0000
0000
0000
2002
0000
0000
0000
0000
0000
0000
0000
0000
0000
0000
0000
0000
0000
0000
3003
0100
0000
0000
0000
0000
0000
0000
0000
0010
0000
0000
0000
0000
0000
0000
0000
0010
0000
0000
0000
0000
0000
0000
0000
,
1010
0000
0000
0000
0000
0000
0000
0000
1000
0000
0000
0000
0000
0000
0000
0000
22MM
0000
0000
0000
0000
0000
0000
0000
0000
0000
0000
0000
0000
0000
0000
3300
22MM
0000
0000
0000
0000
0000
0000
0000
0000
0000
0000
0000
0000
0000
0000
3300
0010
0000
0000
0000
0000
0000
0000
0000
0100
0000
0000
0000
0000
0000
0000
0000
,
M22M
0000
0000
0000
0000
0000
0000
0000
0000
0000
0000
0000
0000
0000
0000
0330
0100
0000
0000
0000
0000
0000
0000
0000
M22M
0000
0000
0000
0000
0000
0000
0000
0000
0000
0000
0000
0000
0000
0000
0330
0100
0000
0000
0000
0000
0000
0000
0000
0010
0000
0000
0000
0000
0000
0000
0000
2002
0000
0000
0000
0000
0000
0000
0000
,
0000
0000
0000
0000
0000
0000
0000
3003
0010
0000
0000
0000
0000
0000
0000
0000
0100
0000
0000
0000
0000
0000
0000
0000
2002
0000
0000
0000
0000
0000
0000
0000
0000
0000
0000
0000
0000
0000
0000
3003
1000
0000
0000
0000
0000
0000
0000
0000
0001
0000
0000
0000
0000
0000
0000
0000
1000
0000
0000
0000
0000
0000
0000
0000
,
0100
0010
0100
0010
0100
0010
0100
0010
0001
1000
0001
1000
0001
1000
0001
1000
,
0001
0010
0100
2000
0000
3001
0200
0020
,
0000
1000
0000
1000
0330
0001
1000
0200
,
0000
2000
0000
0001
0000
0011
0300
0002
,
0000
0010
0000
0010
3003
0001
0100
0120
,
0000
1030
0100
0120
0000
0001
0031
0200
,
0000
0002
0000
0010
0303
0001
1000
0200
,
0000
0020
0000
0001
0030
2000
0000
0010
,
0000
0001
0000
0001
3300
1000
0100
0010
,
0001
0000
0100
0000
0010
0100
0000
0010
0000
1000
0100
0000
0010
0000
0011
0000
,
1000
0000
0010
0000
0100
0010
0000
1000
0000
0001
0100
0000
0110
0000
1010
0000
,
0100
0000
0001
0000
0010
0100
0000
0010
0000
0100
1000
0000
0001
0000
0101
0000
,
1000
0000
0100
0000
0010
0100
0000
1000
0000
0010
0100
0000
0110
0000
1001
0000
,
0001
0000
0100
0000
1000
0100
0000
0001
0000
0010
0100
0000
1100
0000
0110
0000
,
0001
0000
0010
0000
1000
0010
0000
0001
0000
1000
0100
0000
0010
0000
0011
0000
,
0100
0000
1000
0000
0100
0001
0000
1000
0000
0010
0100
0000
1010
0000
0101
0000
,
1000
0000
0010
0000
0001
0010
0000
1000
0000
0100
0001
0000
0110
0000
1100
0000
;

//---------------dance-single - C. Picardy----------------
#NOTES:
     dance-single:
     :
     Hard:
     8:
     0.527445,0.523596,0.206159,0.365463,0.238956,394.000000,372.000000,22.000000,39.000000,0.000000,0.000000,0.527445,0.523596,0.206159,0.365463,0.238956,394.000000,372.000000,22.000000,39.000000,0.000000,0.000000:
0000
0000
0000
0000
,
0000
0000
0000
0000
,
0002
0000
1003
0000
1000
0000
1000
2000
,
0000
3001
0000
0000
0100
0000
1001
0000
,
0001
0000
0010
0000
0001
0010
0000
0001
0000
0010
0001
0000
0100
0000
0010
0000
,
1000
0000
0010
0000
1000
0010
0000
1000
0000
0010
1000
0000
0010
0000
1000
0000
,
0100
0000
0010
0000
0100
0010
0000
0100
0000
0010
0100
0000
1000
0000
0001
0000
,
4004
0000
0000
3003
,
0001
0100
0010
0100
0001
0100
0010
0100
,
0001
0020
0000
0230
0000
1300
0100
0010
,
0100
1000
0100
0010
0100
1000
0100
0020
,
0000
0031
0001
0200
0000
0310
0100
0001
,
0001
0100
1000
0100
0001
0100
1000
0100
,
0010
2000
0000
3002
0000
1003
0010
0100
,
0001
1000
0100
1000
0001
1000
0100
0020
,
0000
0230
0000
0320
0000
0031
0100
0100
,
0102
0000
0000
0000
1000
0000
0000
0100
0000
0000
0103
0000
0000
0000
0100
0000
,
0010
0000
1000
0000
2000
0000
0000
0010
0000
0000
0001
0000
3001
0000
0100
0000
,
0020
0000
0000
0000
1000
0000
0000
0100
0000
0000
0130
0000
0000
0000
0001
0000
,
0010
0000
0100
0000
0020
0000
0000
0100
0000
0000
0001
0000
0031
0000
1000
0000
,
0010
0000
1000
0000
0001
0100
0000
0001
0000
0100
0010
0000
1000
0000
0100
0000
,
0010
0000
0100
0000
1000
0001
0000
0100
0000
0001
1000
0000
0100
0000
0010
0000
,
0001
0000
0100
0000
0010
1000
0000
0001
0000
0010
0100
0000
1000
0000
0010
0000
,
0100
0000
0010
0000
1000
0001
0000
0100
0000
0010
0100
0000
0001
0000
1000
0000
,
0002
0000
1003
2000
0000
3100
1000
1000
,
0100
0100
0010
0012
0000
0103
0100
0120
,
0000
1030
1000
2001
0000
3100
0010
0010
,
0001
1000
1000
1020
0000
0130
0100
0001
,
0102
0000
1003
2200
0000
3300
0001
1000
,
0100
0100
0010
0120
0000
0031
0100
0100
,
0120
0000
0130
0001
0010
0010
0100
0100
,
1000
1000
0001
0201
0000
0310
1000
1000
,
0100
0010
0110
0000
0110
0000
1000
0001
,
0200
0000
0310
0200
0000
0301
0010
0200
,
0000
1300
0100
0020
0000
0001
0031
0100
,
0120
0000
1030
2002
0000
3003
1000
1000
,
0010
0100
0101
0000
0101
0000
1000
1000
,
1100
0000
0100
2100
0000
3001
0100
2000
,
0000
3100
0010
2000
0000
0010
3010
0100
,
0440
0000
0000
0330
,
0100
0000
0000
0001
0100
0000
0010
0000
0100
0000
0000
0001
0010
0000
0100
0000
,
0010
0000
0000
0001
1000
0000
0100
0000
1000
0000
0000
0010
0100
0000
0100
0000
,
0001
0000
0000
1000
0100
0000
1000
0000
0010
0000
0000
0100
0010
0000
1000
0000
,
0001
0000
0000
0010
0100
0000
1000
0000
0100
0000
0100
0000
1000
0000
1000
0000
,
0010
0000
0000
0100
0010
0000
1000
0000
0001
0000
0000
0010
0100
0000
1000
0000
,
0001
0000
0000
1000
0001
0000
0100
0000
0010
0000
0000
1000
0100
0000
0100
0000
,
0010
0000
0000
0001
0010
0000
0001
0000
0100
0000
0000
0010
1000
0000
0010
0000
,
0100
0000
0000
0001
1000
0000
0100
0000
0010
0000
0000
0000
1001
0000
0000
0000
,
0001
0100
1000
0100
0001
0100
1000
0100
,
0001
0020
0000
0230
0000
0310
0001
0001
,
1000
0100
0001
0100
1000
0100
0001
0100
,
1000
0100
0010
0001
0000
1000
0010
0100
,
0001
0000
1000
0000
0001
0100
0000
0001
0000
1000
0100
0000
1000
0000
0100
0000
,
0010
0000
0100
0000
0010
0001
0000
0010
0000
0100
1000
0000
0001
0000
0100
0000
,
0010
0000
1000
0000
0001
1000
0000
0001
0000
0100
0010
0000
1000
0000
0100
0000
,
0010
0000
0100
0000
1000
0001
0000
0100
0000
0010
1000
0000
0001
0000
1000
0000
;

//---------------dance-single - C. Picardy----------------
#NOTES:
     dance-single:
     :
     Medium:
     6:
     0.384205,0.365697,0.271754,0.178046,0.018742,287.000000,258.000000,29.000000,19.000000,0.000000,0.000000,0.384205,0.365697,0.271754,0.178046,0.018742,287.000000,258.000000,29.000000,19.000000,0.000000,0.000000:
0000
0000
0000
0000
,
0000
0000
0000
0000
,
0001
0000
1001
0000
0000
0000
0000
0100
,
0000
0110
0000
0000
1000
0000
1000
0000
,
0001
0000
0100
0000
0001
0000
1000
0100
,
0010
0000
0100
0000
1000
0000
0001
0001
,
0001
0100
0010
1000
,
0210
0000
0001
0000
1000
0000
0301
0100
,
0010
0000
1000
0100
0010
0000
0001
1000
,
0000
0001
0000
2001
0000
0100
3100
0000
,
0110
0000
0001
0100
0010
0000
1000
1000
,
0000
0001
0001
0001
0000
0000
1000
0100
,
0010
0000
0001
0100
0010
0000
1000
0002
,
0000
0100
0000
0103
0000
0010
1000
0010
,
0000
0100
0000
0001
0000
0101
0000
1000
,
0000
1100
0000
0010
0000
0100
0010
0100
,
0001
0000
0000
0000
0001
0000
0000
0001
0000
0000
0001
0000
0000
0000
0000
0000
,
1000
0000
0100
0000
1000
0000
0000
1000
0000
0000
1000
0000
1000
0000
0000
0000
,
0010
0000
0000
0000
0010
0000
0000
0010
0000
0000
0010
0000
0000
0000
0000
0000
,
0100
0000
0010
0000
0100
0000
0000
0100
0000
0000
0100
0000
0100
0000
0000
0000
,
0001
0000
0010
0000
0100
0000
0010
0001
,
0100
0000
0010
0000
1000
0000
0100
1000
,
0010
0110
1000
1001
,
1000
0100
0010
0000
0001
0100
0010
0000
,
1001
0000
0100
0200
0000
0010
0310
0000
,
1000
0000
0001
2000
0000
3001
0100
0001
,
0000
1000
0100
1000
0000
0001
0100
0000
,
0010
0010
0110
1010
,
2001
0000
0100
3100
0000
0000
0010
0000
,
0001
0000
0001
0010
0000
0100
0010
0000
,
2002
0000
3003
0000
1000
0001
0100
0000
,
0001
1000
0001
1000
0000
0010
0100
0000
,
0101
0010
2020
3030
,
1100
0000
1000
0001
0000
0100
0010
0100
,
0000
0010
0100
0020
0000
0000
0130
0000
,
1000
0000
0001
1000
0000
0000
0100
0000
,
0010
0000
1100
0000
0022
0000
0033
0001
,
0010
0000
0001
0100
0000
0010
1000
0100
,
0000
0010
0001
0200
0000
0000
0310
0000
,
2002
0000
0000
3003
0000
0010
0010
1000
,
0000
0001
0001
0100
0000
0001
0001
2000
,
0000
0100
0000
3010
0000
0100
0010
0100
,
0000
1000
0000
0001
0000
0100
0000
0110
,
0000
1000
0000
1001
0000
1000
0001
0100
,
0000
0010
1000
0001
0000
0010
0100
2000
,
0000
0001
0000
3010
0000
1000
0100
0010
,
0000
0001
0000
1000
0000
0100
0000
0110
,
0000
0010
0000
1001
0000
0000
1000
0100
,
0010
0000
0001
0100
0010
0000
2000
0001
,
0000
0001
0000
3001
0000
0000
0100
0000
,
1001
0000
0100
0010
0100
0000
0010
0010
,
0000
0100
0100
0100
0000
0000
0001
0010
,
0100
0000
0010
0001
1000
0000
0010
0100
,
0000
0010
0000
0110
0000
1000
0001
0100
,
0000
0010
0000
1010
0000
0001
0000
0011
,
0000
0100
0000
0110
0000
1000
0001
0000
;

//---------------dance-single - C. Picardy----------------
#NOTES:
     dance-single:
     :
     Easy:
     3:
     0.244981,0.287333,0.149933,0.253013,0.000000,183.000000,167.000000,16.000000,27.000000,0.000000,0.000000,0.244981,0.287333,0.149933,0.253013,0.000000,183.000000,167.000000,16.000000,27.000000,0.000000,0.000000:
// measure 0
0000
0000
0000
0000
,  // measure 1
0000
0000
0000
0000
,  // measure 2
0100
0000
0010
0000
,  // measure 3
1000
0000
0001
0000
,  // measure 4
1000
1000
1000
0000
,  // measure 5
0001
0001
0001
0001
,  // measure 6
0100
0100
0100
0000
,  // measure 7
2002
0000
0000
3003
,  // measure 8
1000
0100
1000
0001
,  // measure 9
0100
0000
0010
0000
,  // measure 10
1000
0001
1000
0010
,  // measure 11
0100
0000
0010
0000
,  // measure 12
1000
0100
0010
0001
,  // measure 13
0010
0000
0100
0000
,  // measure 14
1000
0010
0100
0001
,  // measure 15
1000
0001
1000
0110
,  // measure 16
1000
1000
1000
0000
,  // measure 17
0001
0000
0100
0000
,  // measure 18
0010
0010
0010
0000
,  // measure 19
1000
0000
0100
0110
,  // measure 20
1001
1000
0001
0001
,  // measure 21
1000
0010
0100
0100
,  // measure 22
0001
0010
0001
0001
,  // measure 23
0100
0010
1000
1000
,  // measure 24
2002
3003
0220
0330
,  // measure 25
0001
1000
0100
0010
,  // measure 26
0002
0003
2000
3000
,  // measure 27
0010
0100
0010
0010
,  // measure 28
1000
0001
0220
0330
,  // measure 29
1000
1000
1000
0001
,  // measure 30
0002
0003
0100
0100
,  // measure 31
0010
1000
0001
0100
,  // measure 32
0010
1001
2002
3003
,  // measure 33
0100
0100
0100
0010
,  // measure 34
2000
0000
3002
0000
,  // measure 35
0103
0010
0100
0000
,  // measure 36
0010
0110
0220
0330
,  // measure 37
1001
0010
0010
0100
,  // measure 38
0020
0030
0200
0300
,  // measure 39
2002
0000
0000
3003
,  // measure 40
1000
1000
1000
0000
,  // measure 41
0001
0001
0001
0000
,  // measure 42
1000
0100
1000
0000
,  // measure 43
0001
0100
0001
0000
,  // measure 44
2002
3003
0220
0330
,  // measure 45
0001
0001
0001
0000
,  // measure 46
1000
0010
1000
0000
,  // measure 47
0001
0010
0001
0000
,  // measure 48
1000
0001
1000
0001
,  // measure 49
0100
0100
0100
0000
,  // measure 50
0010
1000
0010
1000
,  // measure 51
0001
0001
0001
0000
,  // measure 52
1000
0100
1000
0100
,  // measure 53
0010
0010
0010
0000
,  // measure 54
0001
0100
0010
1000
,  // measure 55
0100
0010
2002
3003
;
