#TITLE:All That She Wants;
#SUBTITLE:;
#ARTIST:Ace of Base;
#TITLETRANSLIT:;
#SUBTITLETRANSLIT:;
#ARTISTTRANSLIT:;
#GENRE:;
#CREDIT:;
#BANNER:allthatshewantsbn.png;
#BACKGROUND:allthatshewantsbg.png;
#LYRICSPATH:;
#CDTITLE:;
#MUSIC:allthatshewants.ogg;
#OFFSET:-0.003511;
#SAMPLESTART:51.190121;
#SAMPLELENGTH:10.239992;
#SELECTABLE:YES;
#BPMS:0.000000=93.779999
;
#STOPS:14.000000=0.640000
;
#BGCHANGES:0.250=allthatshewants1.mp4=1.000=1=0=0=StretchNoLoop==CrossFade==,
83.000=allthatshewants1.mp4=1.000=1=0=1=SongBgWithMovieViz==CrossFade==,
84.000=allthatshewants1.mp4=1.000=1=0=1===CrossFade==,
144.000=allthatshewants2.mp4=1.000=0=0=0=StretchNoLoop====,
175.000=allthatshewantsbg.png=1.000=1=0=1===CrossFade==,
99999=-nosongbg-=1.000=0=0=0 // don't automatically add -songbackground-
;
#KEYSOUNDS:;
#ATTACKS:;

//---------------dance-single - C. Picardy----------------
#NOTES:
     dance-single:
     :
     Beginner:
     1:
     0.068335,0.112111,0.034167,0.000000,0.000000,56.000000,52.000000,4.000000,0.000000,0.000000,0.000000,0.068335,0.112111,0.034167,0.000000,0.000000,56.000000,52.000000,4.000000,0.000000,0.000000,0.000000:
0000
0000
0000
0000
,
0000
0000
0000
0000
,
0000
0000
0000
0000
,
0000
0000
0000
0000
,
0100
0000
0000
0010
,
0000
0000
0000
1000
,
0000
0000
0000
0001
,
0000
0000
0000
0010
,
0000
0000
0000
0010
,
0000
0000
0000
0100
,
0000
0000
0000
0100
,
0000
0000
0000
0001
,
0000
0000
0000
0001
,
0000
0000
0000
1000
,
0000
0000
0000
1000
,
0000
0000
0000
0100
,
0000
0000
0000
0100
,
0000
0000
0000
0010
,
0000
0000
0000
0100
,
0000
0000
0000
1001
,
0000
0100
0000
0010
,
0000
1000
0000
1000
,
0000
0001
0000
1001
,
0000
1000
0000
0010
,
0000
0010
0000
0100
,
0000
0100
0000
0001
,
0000
0001
0000
1000
,
0000
0000
0000
0010
,
0000
0000
0000
0100
,
0000
0000
0000
0001
,
0000
0000
0000
1000
,
0000
0000
0000
0010
,
0000
0000
0000
1000
,
0000
0000
0000
0001
,
0000
0000
0000
0100
,
0000
0000
0000
0110
,
0000
0000
0000
0001
,
0000
0000
0000
1000
,
0000
0000
0000
0100
,
0000
0000
0000
0100
,
0000
0100
0000
0010
,
0000
0010
0000
1000
,
0000
1000
0000
0001
,
0000
0001
0000
1001
;

//---------------dance-single - C. Picardy----------------
#NOTES:
     dance-single:
     :
     Easy:
     2:
     0.169616,0.210236,0.076876,0.162295,0.000000,139.000000,130.000000,9.000000,19.000000,0.000000,0.000000,0.169616,0.210236,0.076876,0.162295,0.000000,139.000000,130.000000,9.000000,19.000000,0.000000,0.000000:
0000
0000
0000
0000
,
0000
0000
0000
0000
,
0000
0000
0000
0000
,
0020
0000
0030
0100
,
0000
0001
1000
0001
,
0000
0100
0000
0010
,
0000
1000
0010
1000
,
0000
0100
0010
0001
,
0000
0000
1000
0010
,
0100
0001
1000
1000
,
0000
0000
0010
0001
,
0100
0010
1000
0100
,
0000
0010
0000
0001
,
0100
0001
0100
0010
,
0000
1000
0000
0000
,
0010
0001
1000
1001
,
0000
0100
0000
0010
,
1000
0001
0000
0100
,
0000
0010
0000
1000
,
0001
2002
3003
0100
,
0010
0100
0010
1000
,
0001
1000
0001
0010
,
0100
0010
0100
1000
,
0001
2002
3003
0001
,
0010
0100
1000
0100
,
0010
0001
0100
0010
,
0100
0001
1000
0100
,
0010
0001
1000
0220
,
0330
1000
2000
0000
,
3000
0001
1000
0200
,
0000
0310
0001
2000
,
3000
0010
0100
2002
,
3003
0100
0002
0000
,
1003
0100
0010
0002
,
0000
1003
0200
0300
,
0010
0000
0100
1001
,
0100
0010
0100
0001
,
1000
0001
1000
0110
,
1000
0001
1000
0100
,
0010
2002
3003
1000
,
0100
0010
0001
1000
,
0100
0010
0001
1000
,
0010
0100
0001
1000
,
1000
0001
0001
2002
,
0000
0000
0000
3003
;

//---------------dance-single - C. Picardy----------------
#NOTES:
     dance-single:
     :
     Medium:
     4:
     0.226968,0.229348,0.085418,0.205004,0.000000,186.000000,176.000000,10.000000,24.000000,0.000000,0.000000,0.226968,0.229348,0.085418,0.205004,0.000000,186.000000,176.000000,10.000000,24.000000,0.000000,0.000000:
0000
0000
0000
0000
,
0000
0000
0000
0000
,
0000
0000
0000
0000
,
0100
0000
0000
0100
0100
0000
0010
0000
,
1000
0000
0010
0000
0100
0001
0010
0000
,
0100
1000
0100
0010
,
0100
0000
1000
0000
0001
0100
0010
0000
,
1000
0000
0001
0000
1000
1000
1000
0000
,
0100
0000
0010
0000
0001
0010
0001
0000
,
0200
0000
0310
0000
1000
1000
1000
0000
,
0001
0000
0010
0000
0100
1000
0100
0000
,
0010
0002
0003
1000
,
0010
1000
0010
0100
,
0001
0000
0100
0000
0001
0100
0010
0000
,
0010
1000
1000
0001
,
0000
0000
1000
0000
0100
0010
0100
0000
,
1000
0001
0100
0001
,
0010
0010
0010
0000
0100
0000
0010
0000
,
0001
1000
0010
0100
,
0000
0001
2002
0000
3003
0000
0002
0000
,
0103
0000
0010
0000
0100
0001
0100
0000
,
0010
1000
0100
0020
,
0031
0010
0001
0000
0100
0000
0010
0000
,
1000
2002
3003
0200
,
0310
0000
1000
0000
0001
1000
0100
0000
,
0010
0001
1000
0020
,
0130
0000
0001
0000
1000
0001
0010
0000
,
0010
0000
0100
0000
1000
0001
0202
0000
,
0303
0000
0100
0010
2000
0000
0000
0000
,
0010
0000
3001
0010
0001
1000
2000
0000
,
0000
0000
3010
0100
0002
0000
0003
0000
,
0000
1000
0100
2200
,
3300
0000
0100
0010
0002
0000
0010
0000
,
1000
0000
1003
0001
1000
0100
0020
0000
,
0000
0000
0031
0100
0020
0000
0030
0000
,
0000
0001
0100
1001
,
0100
0010
0100
0000
0010
0000
1000
0000
,
1000
0001
0001
0110
,
1000
0001
1000
0000
0001
0000
0100
0000
,
0100
2002
3003
1100
,
0001
0010
0001
0000
1000
0000
0010
0000
,
0010
0100
0100
0101
,
1000
0010
1000
0000
0100
0000
0010
0000
,
0010
0001
1000
0220
,
0000
0000
0000
0330
;

//---------------dance-single - C. Picardy----------------
#NOTES:
     dance-single:
     :
     Hard:
     6:
     0.322149,0.324910,0.102502,0.239171,0.017084,264.000000,252.000000,12.000000,28.000000,0.000000,0.000000,0.322149,0.324910,0.102502,0.239171,0.017084,264.000000,252.000000,12.000000,28.000000,0.000000,0.000000:
0000
0000
0000
0000
,
0000
0000
0000
0000
,
0000
0000
0000
0000
,
1000
0000
0000
0001
0000
0000
1000
0000
1001
0000
0000
0000
1000
0000
0100
0000
,
1000
0100
0010
0100
0010
0100
0010
0001
,
0010
0001
0100
0001
0100
0001
0100
1000
,
0100
1000
0100
0010
0100
0010
1000
0010
,
1000
0000
0010
0000
1000
0000
0100
0000
0010
0000
0001
0000
0100
0000
0000
0100
,
0010
0010
2000
0000
3001
0001
1000
0002
,
0000
0000
1003
0000
1000
0000
0001
0000
0100
0000
0010
0000
1000
0000
0000
0001
,
1000
0100
0010
0000
0001
0001
1000
0020
,
0000
1030
0100
0000
1001
0000
1000
1000
,
0001
0000
0100
0100
0010
0000
1000
1000
,
0001
0000
0020
0000
0130
0000
1000
0100
,
0001
0000
0001
0100
1000
0000
0010
0000
,
0100
0000
0001
0000
1000
0001
0100
0000
,
0010
0000
1000
0000
0010
0010
0100
0000
,
0001
0001
0010
0000
0100
1000
0010
0000
,
0100
0001
0010
0000
1000
0100
0001
0100
,
1000
0001
0202
0000
0303
0000
0020
0000
,
1030
1000
0001
0000
1000
0100
0001
0001
,
0000
0100
2000
0000
3002
0000
0203
0000
,
0310
1000
0100
0000
0010
0001
1000
1000
,
0000
0010
0220
0000
0330
0000
2000
0000
,
3001
0010
0100
0000
0010
0001
0010
0100
,
0000
1000
0200
0000
2300
0000
3020
0000
,
0130
0001
0010
0000
0100
1000
0001
0001
,
0000
0000
1000
0000
0001
0000
0000
0100
0001
0000
0000
0000
0100
0000
0001
0000
,
0100
0001
0100
0010
0100
0010
1000
0010
,
1000
0010
0001
0010
0001
0010
1000
0100
,
1000
0100
0010
0001
0010
0001
0100
0000
,
0010
0000
1000
0001
1001
0000
1000
0100
,
1000
0100
0001
0100
0001
0100
1000
0010
,
1000
0010
0001
0010
0001
0010
0100
1000
,
0100
1000
0100
0010
0100
0010
1000
0000
,
0100
0000
0010
0001
1001
0000
0200
0000
,
0310
0100
0001
0000
1000
0100
0001
0001
,
0000
0100
0020
0000
0032
0000
2003
0000
,
3010
0100
0001
0000
1000
0001
0100
0100
,
0000
0010
2020
0000
3030
0000
0002
0000
,
1003
0100
0001
0000
0001
0100
1000
1000
,
0010
0001
0020
0000
2030
0000
3200
0000
,
0310
0001
0100
0000
0010
1000
1010
0000
,
1100
0011
1001
2200
,
0000
0000
0000
3300
;

//---------------dance-single - C. Picardy----------------
#NOTES:
     dance-single:
     :
     Challenge:
     9:
     0.450276,0.477808,0.196462,0.367298,0.410008,369.000000,346.000000,23.000000,43.000000,14.000000,9.000000,0.450276,0.477808,0.196462,0.367298,0.410008,369.000000,346.000000,23.000000,43.000000,14.000000,9.000000:
// measure 0
0000
0000
0000
0000
,  // measure 1
0000
0000
0000
0000
,  // measure 2
0001
0000
0000
1000
0000
0000
0100
0000
0010
0000
0000
0001
0000
0000
0000
0000
,  // measure 3
1000
0000
0000
0000
0000
0000
0000
0000
0000
0000
0000
0000
0000
0000
0000
0000
0000
0000
0000
0000
0000
0000
0000
0000
0000
0000
0000
0000
0000
0000
0000
0000
0000
0000
0000
0000
0010
0000
0000
0000
0000
0000
0000
0000
0000
0000
0000
0000
0000
0000
0000
0000
0000
0000
0000
0000
0000
0000
0000
0000
0000
0000
0000
0000
0000
0000
0000
0000
0000
0000
0000
0000
0100
0000
0000
0000
0000
0000
0000
0000
0000
0000
0000
0000
0000
0000
0000
0000
0000
0000
0000
0000
0000
0000
0000
0000
2002
3003
0000
0000
0000
0000
0000
0000
0000
0000
0000
0000
0000
0000
0000
0000
0000
0000
0000
0000
0000
0000
0000
0000
0000
0000
0000
0000
0000
0000
0000
0000
0000
0000
0000
0000
0000
0000
0000
0000
0000
0000
0000
0000
0000
0000
0000
0000
1000
0000
0000
0000
0000
0000
0000
0000
0000
0000
0000
0000
0000
0000
0000
0000
0000
0000
0000
0000
0000
0000
0000
0000
0100
0000
0000
0000
0000
0000
0000
0000
0000
0000
0000
0000
0010
0000
0000
0000
0000
0000
0000
0000
0000
0000
0000
0000
,  // measure 4
0001
0000
0010
0000
0100
1000
0000
1000
0001
0000
0001
0000
0100
0000
0010
0100
,  // measure 5
0010
0000
1000
0000
0001
0000
1000
0100
1000
0000
0001
0000
0002
0000
0000
1003
,  // measure 6
0100
0000
0100
0000
0010
0001
0000
0001
0100
0000
0010
1000
0010
1000
0000
0001
,  // measure 7
1000
0000
0100
1000
0100
1000
0100
1000
0001
0010
0001
0010
0002
0000
0000
1003
,  // measure 8
0100
0000
1000
0000
0001
1000
0000
0100
0010
0000
0001
0000
0100
0000
0020
0000
,  // measure 9
0000
0000
1030
0000
01M0
0000
1000
0010
0100
0010
1000
0010
0100
0000
0000
0001
,  // measure 10
0100
0000
0001
0000
1000
0100
0000
1000
0001
0000
0100
0000
0010
0000
2000
0000
,  // measure 11
0000
0000
3020
0000
0200
0000
0000
0330
1001
0000
0000
0000
0100
0000
0001
0000
,  // measure 12
0100
0000
0001
0100
0001
0000
0100
0000
0010
0000
0100
0010
0100
0000
0010
0000
,  // measure 13
1000
0000
0001
2000
0000
0000
0000
3001
1000
0000
0100
0000
0010
0000
0010
0000
,  // measure 14
0011
0000
1000
0100
0000
0000
0010
0000
0001
0000
1000
0000
M000
0000
0010
0000
,  // measure 15
0100
0000
0001
0010
0000
0000
0100
0000
1001
0000
M00M
0000
0100
0000
0010
0000
,  // measure 16
0001
0000
0100
0010
0000
1000
0000
0001
1000
0000
0100
0000
1000
0000
0000
0001
,  // measure 17
0010
0100
0012
0000
1000
1003
0100
0010
,  // measure 18
0100
0000
0010
0002
0000
0000
1003
0000
1000
0100
0000
0000
0100
0000
0000
0100
,  // measure 19
0010
0000
0001
0000
0202
0000
0000
0000
1000
0000
0303
0000
0002
0000
0000
0103
,  // measure 20
0010
0000
1000
0000
0001
1000
0000
0100
1000
0000
0001
0000
0001
0000
0001
0000
,  // measure 21
0000
0000
0100
0000
1000
0000
0001
0010
0000
0010
0001
0000
2000
0000
0000
3010
,  // measure 22
0100
0000
0001
0000
1000
0001
0000
0001
1000
0000
0100
0000
0100
0000
0100
0000
,  // measure 23
0000
0000
0010
0001
0000
0000
1000
0100
1000
0010
0000
1000
0002
0000
0000
1003
,  // measure 24
0100
0000
1000
0000
0001
0100
0000
0010
1000
0000
0001
0000
11M0
0000
110M
0000
,  // measure 25
0000
0000
0010
0000
0001
0000
0001
0100
0000
0100
0010
0000
2010
0000
0000
3001
,  // measure 26
1000
0000
0100
0000
0010
0001
0000
1000
0000
0010
0100
0000
01M1
0000
01M1
0000
,  // measure 27
0000
0000
0100
0010
0100
0010
0000
1000
0001
0000
1000
0000
2200
0000
0000
0000
,  // measure 28
0010
0000
3300
0000
1000
0001
0200
0000
0002
0000
0000
0000
0010
0000
0000
0000
,  // measure 29
1000
0000
0303
0000
0001
0100
1000
0000
0100
0000
0002
0000
2000
0000
0000
0000
,  // measure 30
0010
0000
3003
0000
0100
0010
0100
0000
0001
0000
0100
0010
0100
0010
0000
1000
,  // measure 31
0001
0000
0010
0100
0010
0100
0000
0010
0100
0000
0010
0000
2002
0000
0000
0000
,  // measure 32
0010
0000
3003
0000
0001
1000
0200
0000
2000
0000
0000
0000
0010
0000
0000
0000
,  // measure 33
0001
0000
3300
0000
1000
0001
0100
0000
0010
0000
2000
0000
0200
0000
0000
0000
,  // measure 34
0001
0000
3300
0000
1000
0001
0100
0000
0010
0000
1000
0001
1000
0001
0000
1000
,  // measure 35
0100
0000
0010
0000
1001
0000
M00M
0000
0110
0000
0MM0
0000
1002
0000
0000
1003
,  // measure 36
0100
0000
0001
0000
0100
0000
1000
0000
0001
0000
1000
0100
0001
0000
0100
0000
,  // measure 37
1000
0000
0001
0000
0010
0000
0100
0001
0000
0001
0100
0000
2100
0000
0000
3001
,  // measure 38
0100
0000
1000
0000
0100
0000
0001
0000
1000
0000
1000
0100
0001
0000
0100
0000
,  // measure 39
1000
0000
0001
0010
0000
0000
0001
0010
0100
100M
00M0
0001
0200
0000
0000
1300
,  // measure 40
0100
0000
0001
0000
0010
0000
1000
0000
0010
0000
0001
0100
1000
0000
1000
0000
,  // measure 41
0100
0000
0001
0000
1000
0000
0010
0001
0000
0001
0010
0000
2010
0000
0000
3100
,  // measure 42
0001
0000
0100
0000
1000
0010
0000
0000
0100
0000
0001
0000
0022
0000
0000
0033
,  // measure 43
2200
0000
0000
3300
0220
0000
0000
0330
2002
0000
0000
3003
0202
0000
0000
0000
,  // measure 44
0000
0000
0000
0303
;
