#TITLE:All Eyes on Me;
#SUBTITLE:;
#ARTIST:Elly;
#TITLETRANSLIT:;
#SUBTITLETRANSLIT:;
#ARTISTTRANSLIT:;
#GENRE:;
#CREDIT:;
#BANNER:alleyesonme.bn.png;
#BACKGROUND:alleyesonme.bg.png;
#LYRICSPATH:;
#CDTITLE:;
#MUSIC:alleyesonme.ogg;
#OFFSET:-0.011642;
#SAMPLESTART:45.498466;
#SAMPLELENGTH:13.060000;
#SELECTABLE:YES;
#BPMS:0.000000=153.009995
;
#STOPS:
;
#BGCHANGES:16.000=colorfultunnel.mp4=1.000=1=0=1=SongBgWithMovieViz==CrossFade==,
20.000=flash=2.000=0=0=1=====,
20.250=colorfultunnel.mp4=1.000=0=1=1=StretchRewind====,
52.000=flash=2.000=0=0=1====#0000FF=,
52.250=lightbeamsring.mp4=1.000=0=1=1=StretchRewind====,
84.000=colorfultunnel.mp4=1.000=0=1=1=StretchRewind==SlideRight==,
116.000=saberrings.mp4=1.000=0=0=1===SlideUp==,
142.000=saberrings.mp4=1.000=1=0=1=SongBgWithMovieViz==CrossFade==,
148.000=flash=2.000=0=0=1=====,
148.250=saberrings.mp4=1.000=0=0=1=====,
174.000=saberrings.mp4=1.000=0=0=1=SongBgWithMovieViz==CrossFade_Fastest==,
175.000=saberrings.mp4=1.000=0=0=1===CrossFade_Fastest==,
176.000=saberrings.mp4=1.000=0=0=1=SongBgWithMovieViz==CrossFade_Fastest==,
177.000=saberrings.mp4=1.000=0=0=1===CrossFade_Fastest==,
178.000=alleyesonme.bg.png=1.000=0=0=1===CrossFade_Fastest==,
180.000=colorfultunnel.mp4=1.000=0=0=1===SlideLeft==,
212.000=lightbeamsring.mp4=1.000=1=0=1===CrossFade==,
243.500=alleyesonme.bg.png=1.000=0=0=1===CrossFade_Fastest==,
99999=-nosongbg-=1.000=0=0=0 // don't automatically add -songbackground-
;
#KEYSOUNDS:;
#ATTACKS:;

//---------------dance-single - C. Picardy----------------
#NOTES:
     dance-single:
     :
     Beginner:
     1:
     0.110183,0.158947,0.031268,0.000000,0.000000,74.000000,71.000000,3.000000,0.000000,0.000000,0.000000,0.110183,0.158947,0.031268,0.000000,0.000000,74.000000,71.000000,3.000000,0.000000,0.000000,0.000000:
0000
0000
0000
0000
,
0000
0000
0000
0000
,
0000
0000
0000
0000
,
0000
0000
0000
0000
,
0010
0000
0000
0000
,
1000
0000
1000
0000
,
1000
0000
0000
0000
,
0001
0000
0001
0000
,
0001
0000
0000
0000
,
0100
0000
0100
0000
,
0100
0000
0000
0000
,
0010
0000
0010
0000
,
0010
0000
0000
0000
,
1000
0000
0000
0000
,
0001
0000
0000
0000
,
1000
0000
0000
0000
,
0001
0000
0000
0000
,
0100
0000
0000
0000
,
0010
0000
0000
0000
,
0100
0000
0000
0000
,
0010
0000
0000
0000
,
1001
0000
1000
0000
,
1000
0000
0000
0000
,
0001
0000
0000
0000
,
0100
0000
0100
0000
,
0100
0000
0000
0000
,
0010
0000
0000
0000
,
1000
0000
0000
0000
,
0001
0000
0000
0000
,
0110
0000
0000
0000
,
1000
0000
0000
0000
,
0001
0000
0000
0000
,
0100
0000
0000
0000
,
0010
0000
0000
0000
,
1000
0000
0000
0000
,
0001
0000
1000
0000
,
1000
0000
1000
0000
,
1000
0000
0000
0000
,
0010
0000
0000
0000
,
0100
0000
0000
0000
,
0001
0000
0000
0000
,
1000
0000
0000
0000
,
0010
0000
0000
0000
,
0001
0000
0001
0000
,
0001
0000
0001
0000
,
0001
0000
0000
0000
,
1000
0000
0000
0000
,
0010
0000
0000
0000
,
0100
0000
0000
0000
,
0001
0000
0000
0000
,
1000
0000
0000
0000
,
0100
0000
0000
0000
,
0010
0000
0000
0000
,
1001
0000
1000
0000
,
1000
0000
0000
0000
,
0001
0000
0001
0000
,
0001
0000
0000
0000
,
0100
0000
0100
0000
,
0100
0000
0000
0000
,
0010
0000
0000
0000
,
1000
0000
0000
0000
,
0001
0000
0000
0000
;

//---------------dance-single - C. Picardy----------------
#NOTES:
     dance-single:
     :
     Easy:
     4:
     0.309704,0.316591,0.177187,0.270991,0.000000,208.000000,191.000000,17.000000,26.000000,0.000000,0.000000,0.309704,0.316591,0.177187,0.270991,0.000000,208.000000,191.000000,17.000000,26.000000,0.000000,0.000000:
0000
0000
0000
0000
,
0000
0000
0000
0000
,
0000
0000
0000
0000
,
0000
0000
0000
0000
,
2002
0000
0000
3003
,
0110
0100
0100
0000
,
1000
0001
0100
0010
,
1000
0010
0010
0000
,
0100
0001
0010
0100
,
1001
0001
0001
0000
,
0100
0010
1000
0001
,
0010
0100
0100
0000
,
1000
0010
1000
0001
,
0110
0000
1000
0000
,
0001
0000
0100
0100
,
0010
0000
1000
0000
,
0001
0000
1000
1000
,
0200
0000
0010
0000
,
1300
0000
0100
0100
,
0010
0001
1000
0001
,
0001
0000
0010
0010
,
1001
0000
0100
0010
,
0100
0000
0001
0001
,
0010
0000
0100
1000
,
0100
0000
1000
1000
,
0020
0000
0100
0100
,
0130
0000
0001
1000
,
0100
0100
0010
0010
,
0100
0010
2002
3003
,
1001
1000
0001
1000
,
0010
0010
1000
1000
,
0100
0010
0100
0010
,
0001
0001
0100
0100
,
0001
1000
0100
1000
,
0001
0001
1000
1000
,
0010
0100
2002
3003
,
0220
0330
2002
3003
,
0110
0010
1000
0001
,
1000
1000
1000
0100
,
0010
0100
1000
0001
,
0100
0100
0100
0010
,
1000
0001
0100
0001
,
0010
0010
0010
0100
,
0100
1000
0202
0303
,
2200
3300
0202
0303
,
1001
1000
0001
1000
,
0001
0010
0100
1000
,
0010
0100
0010
0100
,
0001
0100
0010
1000
,
0100
0010
0100
1000
,
0001
0100
1000
0100
,
0001
0010
0100
1000
,
0100
0001
0100
1000
,
0002
0010
0000
2003
,
0100
0010
3000
0100
,
0002
0023
0230
2300
,
3001
0000
0100
0010
,
2000
0100
0010
0010
,
3001
0000
1000
0001
,
0200
0000
0310
0000
,
1001
0000
0100
0110
;

//---------------dance-single - C. Picardy----------------
#NOTES:
     dance-single:
     :
     Medium:
     6:
     0.442222,0.475864,0.291837,0.198032,0.000000,297.000000,269.000000,28.000000,19.000000,0.000000,0.000000,0.442222,0.475864,0.291837,0.198032,0.000000,297.000000,269.000000,28.000000,19.000000,0.000000,0.000000:
0000
0000
0000
0000
,
0000
0000
0000
0000
,
0000
0000
0000
0000
,
0000
0000
0000
0000
,
2002
0000
0000
3003
,
2100
0000
0010
0000
3010
0000
0000
0100
,
0000
0010
0000
0100
0000
0001
0010
0100
,
2000
0000
0001
0000
3001
0000
0000
1000
,
0000
0001
0000
1000
0001
0000
1000
0100
,
0020
0000
0100
0000
0031
0000
0000
0010
,
0000
0100
0000
1000
0000
0001
0100
0010
,
1000
1000
0000
1000
0000
0001
1000
0000
,
0010
1000
0100
0000
0010
0100
0010
0100
,
1000
0000
0101
0000
0001
0100
1000
0000
,
0100
0000
0001
0000
1000
0100
0001
0000
,
0100
0000
1000
0000
0001
0010
0100
0000
,
1000
0000
0010
0000
1000
0010
0100
0000
,
2010
0001
0100
0100
,
3020
0000
1000
0000
0100
0000
1030
0002
,
0000
0000
0100
0100
0000
0103
0000
0010
,
0100
0010
0000
1000
0001
1000
0100
0010
,
0001
0000
1100
0000
1000
0010
0001
0000
,
0010
0000
1000
0000
0001
0010
1000
0000
,
0010
0000
0001
0000
0100
0001
0100
0000
,
0010
0000
1000
0000
0100
0010
0100
0000
,
1001
0000
0200
0010
0000
0010
0000
0310
,
0000
0000
0100
0100
0000
0001
0010
0100
,
0000
1100
0000
0001
0000
0101
0000
1000
,
0000
1100
0000
0011
0000
1001
0000
0000
,
0110
0000
1000
0000
0001
0100
0001
0000
,
1000
0000
0100
0000
1000
0100
1000
0000
,
0010
0000
0100
0000
0001
0010
0001
0000
,
1000
0000
0010
0000
0100
0010
0100
0000
,
0001
0000
1000
0000
0100
0010
0100
0000
,
0010
0000
0001
0000
1000
0010
1000
0000
,
0100
0010
0012
1003
,
0210
0301
2100
3010
,
0101
0000
0010
0000
0100
0010
0001
0000
,
0100
0000
0110
0000
1000
0010
0100
0000
,
0001
0000
1100
0000
0010
0100
1000
0000
,
0010
0000
0110
0000
1000
0001
0100
0000
,
0010
0000
1001
0000
0010
0001
0100
0000
,
0010
0000
1010
0000
0001
0100
1000
0000
,
0100
0110
1002
0010
,
2003
3020
0200
0330
,
0001
0000
0001
0000
0101
0000
0100
0010
,
0000
0100
0000
0010
0000
1000
0001
0000
,
1000
0100
1000
0000
1100
0000
0100
0010
,
0000
0010
0000
0001
0010
0100
1000
0000
,
1010
0000
1000
0000
1000
0000
0001
1000
,
0000
0001
0000
0100
0000
0010
0100
0001
,
0000
1000
0000
0010
0000
1000
0001
0000
,
1000
0100
0000
0100
0100
1000
0001
0100
,
0020
1000
0100
1030
,
0200
0001
0010
0301
,
2000
0000
3001
0000
1000
1000
1000
1000
,
0000
0000
0001
0000
1000
0000
0100
0010
,
0001
0000
0001
0001
0000
0001
0000
0001
,
0000
0000
1000
0000
0100
0000
1000
0010
,
0100
0100
0100
0000
0010
0000
1000
0000
,
0101
0000
0000
1100
0000
0000
0001
0100
;

//---------------dance-single - C. Picardy----------------
#NOTES:
     dance-single:
     :
     Hard:
     8:
     0.592608,0.571036,0.396064,0.198032,0.135496,398.000000,360.000000,38.000000,19.000000,4.000000,0.000000,0.592608,0.571036,0.396064,0.198032,0.135496,398.000000,360.000000,38.000000,19.000000,4.000000,0.000000:
0000
0000
0000
0000
,
0000
0000
0000
0000
,
0000
0000
0000
0000
,
0000
0000
0000
0000
,
2200
0000
0000
3300
,
0001
0100
0010
0000
0010
0020
0000
1000
,
0000
0130
0000
1001
0000
1000
0001
0001
,
1000
0200
0010
0000
0010
0310
0000
0001
,
0000
0011
0000
0010
0100
1000
0001
0100
,
0010
0200
0001
0000
0001
0301
0000
1000
,
0000
1010
0000
0101
0000
0001
0100
0010
,
1000
1000
0000
0001
0000
1000
0100
0000
,
1000
0100
1000
0100
0010
0001
0010
0100
,
1100
0000
0000
0000
0010
0000
0000
0100
0010
0000
0100
0000
0001
0000
0000
0000
,
1000
0000
0100
0000
0010
0000
0000
0100
1000
0000
0100
0000
1000
0000
0001
0100
,
0001
0000
0000
0000
0110
0000
0000
0000
1000
0000
0010
0000
0100
0000
0000
0010
,
1000
0000
0010
0000
0100
0000
0000
0001
0100
0000
0010
0000
1000
0000
0001
1000
,
0001
0000
1000
0100
0001
0100
1000
0000
,
0001
0000
0100
0000
1000
0000
0000
0000
1000
0000
0100
0000
0001
0000
0100
0001
,
0100
0000
0100
0010
0000
0110
0000
1000
,
0001
0100
0001
0100
0010
1000
0010
1000
,
0100
0000
0011
0000
1000
0100
1000
0100
,
0010
0000
0100
0000
1000
0000
0100
0000
0010
0000
0001
0000
1000
0000
0010
0100
,
0010
0000
0110
0000
1000
0010
0100
0010
,
1000
0000
0001
0000
0010
0000
0001
0000
1000
0000
0001
0000
0010
0000
0100
0010
,
0002
0000
1003
0100
0000
0110
0000
0011
,
0000
1000
0001
0100
0010
1000
0100
0010
,
0000
0011
0000
1000
0000
1010
0000
0101
,
0000
0110
0000
1MM1
0000
2MM2
0000
3003
,
0110
0000
1000
0000
0001
0010
0100
0010
,
0001
0000
0010
0000
0100
0000
0010
0000
0001
0000
0100
0000
0010
0000
0100
0010
,
0100
0000
1001
0000
1000
0100
0010
0100
,
1000
0000
0100
0000
0010
0000
0100
0000
1000
0000
0010
0000
0100
0000
0010
1000
,
0010
0000
0101
0000
0100
0010
1000
0010
,
0100
0000
0010
0000
1000
0000
0001
0000
0010
0000
0100
0000
1000
0000
0001
1000
,
0001
0100
0210
0001
,
0320
0000
0000
0000
1000
0000
0000
0000
0100
0000
0100
0000
0130
0000
0001
0100
,
0010
0000
1001
0000
1000
0100
0001
0100
,
1000
0000
0100
0000
0001
0000
0100
0000
1000
0000
0100
0000
0001
0000
0100
0010
,
0100
0000
0011
0000
0001
0100
1000
0100
,
0001
0000
0100
0000
1000
0000
0100
0000
0001
0000
0100
0000
1000
0000
0100
0010
,
0100
0000
1001
0000
1000
0001
0100
0001
,
0010
0000
0001
0000
1000
0000
0001
0000
0100
0000
0010
0000
1000
0000
0010
0100
,
0010
1001
0012
0203
,
0320
1000
0200
0330
,
0102
0000
0010
0000
0010
0013
0000
0100
,
0000
1100
0000
0101
0000
0001
0100
0010
,
2000
0100
0100
0000
0001
3001
0000
0010
,
0000
1100
0000
0010
0100
0010
0001
1000
,
0100
0010
0200
0000
1000
1300
0000
0010
,
0000
0110
0000
0101
0000
1000
0010
0100
,
0010
1000
0000
1001
0000
0001
0100
0000
,
0001
0010
0001
0010
0100
1000
0100
1000
,
0010
0000
0000
0000
0110
0000
0000
0000
1000
0010
0000
0000
1000
0000
0000
0000
,
0100
0000
0000
0000
0011
0000
0000
0000
0010
0001
0000
0000
0010
0000
0000
0000
,
0100
1000
0000
0100
1000
0000
0010
0000
0100
0000
0100
0000
0001
0000
0200
0000
,
0000
0000
0010
0000
0310
0000
0000
0000
1000
0001
0000
0000
1000
0000
1000
0100
,
0020
0000
0100
0100
0000
0001
0000
0130
,
0000
0000
1000
0000
0001
0000
0000
0000
0100
0001
0000
0001
0100
0000
0000
0000
,
0010
1000
0000
0010
1000
0000
0010
0000
1000
0000
1000
0000
0100
0000
0000
0000
,
1000
0100
0010
0011
0000
1000
0010
0110
;

//---------------dance-single - C. Picardy----------------
#NOTES:
     dance-single:
     :
     Challenge:
     10:
     0.742993,0.731156,0.198032,0.250146,0.375219,499.000000,480.000000,19.000000,24.000000,22.000000,4.000000,0.742993,0.731156,0.198032,0.250146,0.375219,499.000000,480.000000,19.000000,24.000000,22.000000,4.000000:
// measure 0
0000
0000
0000
0000
,  // measure 1
0000
0000
0000
0000
,  // measure 2
0000
0000
0000
0000
,  // measure 3
1000
0100
0010
0001
0010
0100
1000
0001
,  // measure 4
0202
0000
0000
0000
0000
0000
0000
0303
,  // measure 5
0010
1000
0200
0000
0010
0310
0001
0100
,  // measure 6
1000
0000
0100
0000
0010
0000
1000
0000
0100
0000
1000
0000
0001
0000
1000
0100
,  // measure 7
0010
0001
0020
0000
0100
0130
1000
0100
,  // measure 8
0001
0000
0100
0000
1000
0000
0010
0000
0100
0000
0010
1000
0100
0000
0010
0001
,  // measure 9
0100
0010
2000
0000
0100
3100
0001
0100
,  // measure 10
1000
0000
0010
0000
0001
0000
0010
0000
1000
0000
0100
0000
0010
0000
0100
1000
,  // measure 11
0020
1000
0000
0M01
0000
100M
0230
0000
,  // measure 12
0301
0000
0010
0001
0010
0100
1000
0000
0001
0010
0100
1000
0001
0000
1MM1
0000
,  // measure 13
1000
0100
0010
0100
1000
0100
1000
0100
,  // measure 14
0010
0000
0001
0000
0010
0000
0001
0000
0100
0000
0010
0000
1000
0000
0010
0100
,  // measure 15
0010
0100
0010
0100
0010
1000
0010
1000
,  // measure 16
0100
0000
0010
0000
0001
0000
1000
0100
1000
0000
0001
0000
0001
0100
0001
0100
,  // measure 17
0002
0000
1000
1003
0100
0010
0100
1000
,  // measure 18
0010
0000
0100
0000
0010
0000
1000
0000
0100
0000
0010
0000
0001
0000
1000
0100
,  // measure 19
0020
0000
0001
0031
0100
0010
0001
0010
,  // measure 20
1000
0000
0100
0000
1000
0000
1010
0000
0001
0000
0101
0000
1000
0100
1000
0100
,  // measure 21
2000
0000
3010
0100
0001
0100
1000
0100
,  // measure 22
0001
0000
0010
0000
1000
0000
0010
0000
0100
0000
0010
0000
0001
0000
0010
0100
,  // measure 23
2000
0000
3010
1000
0100
0001
0100
1000
,  // measure 24
0010
0000
0001
0000
0010
0000
1000
0100
1000
0000
0001
0000
0100
0010
0100
0010
,  // measure 25
0200
0000
0310
2010
0000
0200
0000
0010
,  // measure 26
0000
0000
3300
0000
1000
0000
0100
0000
0010
0000
0001
0000
0010
0000
0001
0010
,  // measure 27
0001
0100
0010
0110
0MM0
1000
0100
1100
,  // measure 28
MM00
0001
0100
0202
0000
1010
0000
0303
,  // measure 29
0001
0000
0100
0000
0001
0000
0100
0001
0100
0000
0001
0000
1000
0000
0100
1000
,  // measure 30
0100
0000
1000
0000
0001
0000
0100
0001
0100
0000
0001
0000
1000
0000
0010
1000
,  // measure 31
0010
0000
1000
0000
0001
0000
0010
0001
0010
0000
0100
0000
1000
0000
0010
1000
,  // measure 32
0010
0000
1000
0000
0001
0000
0010
0001
0010
0000
0001
0000
0100
0001
0100
0001
,  // measure 33
0100
0000
0010
0000
1000
0000
0100
0010
0100
0000
1000
0000
0010
0000
0100
0010
,  // measure 34
0100
0000
0001
0000
0010
0000
0100
0010
0100
0000
1000
0000
0010
0000
0100
0010
,  // measure 35
0100
0000
0001
0000
1000
0000
0001
1000
0001
0000
0010
0000
0100
0000
1000
0001
,  // measure 36
1000
0000
0010
0000
0100
0000
0001
1000
0001
0000
1000
0100
0000
1000
0010
0000
,  // measure 37
1MM1
0000
0001
0000
0100
0000
0100
0010
1000
0000
0100
0000
0010
0000
0010
0100
,  // measure 38
1000
0000
0010
0000
0100
0000
0100
0001
1000
0000
0100
0000
0010
0000
0010
0001
,  // measure 39
1000
0000
0001
0000
0100
0000
0100
0001
0010
0000
0001
0000
1000
0000
1000
0010
,  // measure 40
0100
0000
0001
0000
0010
0000
0010
0001
0100
0000
0010
0000
1000
0100
0010
0100
,  // measure 41
1000
0000
0100
0000
0001
0000
0001
0100
0010
0000
0100
0000
1000
0000
1000
0010
,  // measure 42
0001
0000
0010
0000
1000
0000
1000
0100
0001
0000
0100
0000
0010
0000
0010
0001
,  // measure 43
0100
0000
0010
0000
1000
0000
0100
0000
0110
0000
0100
0010
0100
0000
1000
0000
,  // measure 44
1001
0000
0001
1000
0001
0000
0100
0000
0220
0000
0000
0000
0000
0000
0330
0000
,  // measure 45
0MM1
0100
2000
0000
0100
3100
0001
0010
,  // measure 46
1000
0010
0001
0010
0100
1000
0010
0001
,  // measure 47
0010
1000
0200
0000
0001
0301
1000
0010
,  // measure 48
0001
0100
0010
0001
1000
0100
0010
1000
,  // measure 49
0100
0010
2000
0000
0001
3001
0100
1000
,  // measure 50
0010
0100
0010
0001
1000
0100
0001
0010
,  // measure 51
0200
0010
0000
100M
0000
M001
0310
0000
,  // measure 52
0001
0000
0100
0000
0101
0000
0010
1000
0001
0100
0010
0000
1000
0000
1MM1
0000
,  // measure 53
0001
0000
0100
0000
0010
0000
0000
0100
0010
0100
0010
0000
0110
0000
0000
0000
,  // measure 54
1000
0000
0100
0000
0010
0000
0000
0010
0001
0010
0001
0000
1000
0010
1000
0010
,  // measure 55
4000
0000
0004
0000
3000
0013
0100
1000
,  // measure 56
0000
0000
0010
0000
0100
0000
0000
0001
0100
0010
1000
0000
0001
0010
0100
1000
,  // measure 57
0002
0000
1000
2000
0000
0010
0000
0010
,  // measure 58
3003
0000
0000
0000
1010
0000
0000
0000
0001
1000
0100
0000
1000
0100
0010
0001
,  // measure 59
0040
MM04
MM00
MM33
,  // measure 60
1100
0000
0010
0001
0010
0100
1000
0000
0001
0010
0100
1000
0001
0000
0101
0000
,  // measure 61
0100
0000
0000
0000
;
