#TITLE:Alien Power;
#SUBTITLE:;
#ARTIST:Yuzo Koshiro feat. GrooveMaster303;
#TITLETRANSLIT:;
#SUBTITLETRANSLIT:;
#ARTISTTRANSLIT:;
#GENRE:;
#CREDIT:;
#BANNER:alienpowerbn.png;
#BACKGROUND:alienpowerbg.png;
#LYRICSPATH:;
#CDTITLE:;
#MUSIC:alienpower.ogg;
#OFFSET:-0.054413;
#SAMPLESTART:29.149940;
#SAMPLELENGTH:12.000000;
#SELECTABLE:YES;
#BPMS:0.000000=132.009995
;
#STOPS:
;
#BGCHANGES:;
#KEYSOUNDS:;
#ATTACKS:;

//---------------dance-single - C. Picardy----------------
#NOTES:
     dance-single:
     :
     Beginner:
     1:
     0.085670,0.107407,0.053703,0.017901,0.000000,59.000000,6.000000,2.000000,0.000000,0.000000,0.000000,0.085670,0.107407,0.053703,0.017901,0.000000,59.000000,6.000000,2.000000,0.000000,0.000000,0.000000:
0000
0000
0000
0000
,
0000
0000
0000
0000
,
0000
0000
0000
0000
,
0000
0000
0000
0000
,
0020
0000
0000
0030
,
0000
0000
0000
0000
,
0200
0000
0000
0300
,
0000
0000
0000
0000
,
0001
0000
0000
0000
,
0001
0000
0000
0000
,
1000
0000
0000
0000
,
1000
0000
0000
0000
,
0100
0000
0000
0000
,
0100
0000
0000
0000
,
0010
0000
0000
0000
,
0010
0000
0000
0000
,
1001
0000
0000
0000
,
0100
0000
0000
0000
,
0010
0000
0000
0000
,
1000
0000
0000
0000
,
0001
0000
0000
0000
,
1000
0000
0000
0000
,
0100
0000
0000
0000
,
0010
0000
0000
0000
,
0100
0000
0100
0000
,
0100
0000
0000
0000
,
0010
0000
0010
0000
,
0010
0000
0000
0000
,
0001
0000
0001
0000
,
0001
0000
0000
0000
,
1000
0000
1000
0000
,
1000
0000
0000
0000
,
0010
0000
0000
0000
,
0100
0000
0000
0000
,
0010
0000
0000
0000
,
0100
0000
0000
0000
,
0001
0000
0001
0000
,
0000
0000
0000
0000
,
1000
0000
1000
0000
,
0000
0000
0000
0000
,
0100
0000
0100
0000
,
0000
0000
0000
0000
,
0010
0000
0010
0000
,
0000
0000
0000
0000
,
1001
0000
0000
0000
,
1001
0000
0000
0000
,
0110
0000
0000
0000
,
0110
0000
0000
0000
,
1000
0000
1000
0000
,
0000
0000
0000
0000
,
0001
0000
0001
0000
,
0000
0000
0000
0000
,
1001
0000
0000
0000
,
0100
0000
0000
0000
,
0010
0000
0000
0000
,
1000
0000
0000
0000
,
0001
0000
0000
0000
,
0100
0000
0000
0000
,
0010
0000
0000
0000
,
1000
0000
0000
0000
,
0010
0000
0000
0000
;

//---------------dance-single - C. Picardy----------------
#NOTES:
     dance-single:
     :
     Easy:
     4:
     0.281303,0.295368,0.116357,0.268516,0.000000,177.000000,13.000000,30.000000,0.000000,0.000000,0.000000,0.281303,0.295368,0.116357,0.268516,0.000000,177.000000,13.000000,30.000000,0.000000,0.000000,0.000000:
0000
0000
0000
0000
,
0000
0000
0000
0000
,
1000
0000
0001
0000
,
0100
0000
0010
0000
,
1000
1000
0000
0001
,
0100
0100
0000
0010
,
0100
0100
0000
0001
,
0010
0010
0000
0100
,
1000
0001
1000
0001
,
0100
0010
0100
0010
,
1000
0001
1000
0100
,
1000
0010
1000
0001
,
0100
0110
1000
1001
,
0001
1001
0100
0010
,
0100
0110
0001
1001
,
0100
0010
1000
0100
,
0020
0002
0000
0033
,
0100
0020
0000
0030
,
2000
0200
0000
3300
,
0020
0200
0000
0330
,
2000
3002
0000
0103
,
0010
2000
0000
3010
,
0200
0302
0000
0013
,
0200
0020
0000
0330
,
0100
0000
0011
0000
,
1000
0000
0110
0000
,
0100
0000
1010
0000
,
0100
0000
0011
0000
,
1000
1000
0001
0001
,
1000
0010
1000
0001
,
0100
0100
0010
0010
,
1000
0100
0010
0001
,
0100
0000
0010
0000
,
1000
0000
0100
0000
,
0001
0000
0010
0000
,
1000
0000
0100
0000
,
0020
0000
0031
1000
,
0200
0000
1300
0010
,
2000
0000
3100
0010
,
0200
0000
1300
0001
,
0020
0000
0031
0100
,
2000
0000
3100
0010
,
2000
0000
3100
1000
,
0020
0000
0130
0001
,
1000
0010
1000
0010
,
0100
0001
0100
0001
,
0100
0010
0100
0010
,
1000
0001
1000
0001
,
1000
0100
0001
0010
,
1000
0100
0001
0010
,
0001
0100
1000
0010
,
0001
0100
1000
0010
,
0001
2002
3003
0100
,
0100
0000
0010
0000
,
0100
0220
0330
0001
,
0001
0000
1000
0000
,
0100
2002
3003
0100
,
0010
0000
1000
0000
,
0001
0202
0303
0010
,
0001
0000
1000
0001
,
0100
0000
0000
0000
;

//---------------dance-single - C. Picardy----------------
#NOTES:
     dance-single:
     :
     Medium:
     5:
     0.377202,0.354889,0.179011,0.277467,0.000000,244.000000,20.000000,31.000000,0.000000,0.000000,0.000000,0.377202,0.354889,0.179011,0.277467,0.000000,244.000000,20.000000,31.000000,0.000000,0.000000,0.000000:
0000
0000
0000
0000
,
0000
0000
0000
0000
,
1000
1000
0001
0001
,
0100
0010
0100
0000
,
1000
1000
0100
0100
,
0010
0001
1000
0000
,
1000
1000
0001
0001
,
0010
0100
0010
0000
,
1000
0010
0100
0010
,
1000
0000
0010
0000
0100
0010
0100
0000
,
0001
0010
0001
1000
,
0001
0000
0010
0000
0100
0010
0100
0000
,
1000
0110
0001
0110
,
1000
0000
0110
0000
0001
0010
0001
0000
,
0100
1010
0001
1010
,
0001
0000
1000
0000
0100
0100
0100
0000
,
2000
3002
0000
0100
,
0013
0000
0100
0200
0000
0000
0000
0000
,
0302
0023
0000
0100
,
0032
2003
3000
0110
,
2001
0010
0100
0100
,
3001
0000
0010
0020
0000
0000
0000
0000
,
0230
0320
1000
0001
,
0130
2200
0000
3300
,
0100
0010
0100
0000
0100
1000
0100
0000
,
0100
0010
0100
0000
0010
0000
0001
0000
,
0100
0010
0100
0000
0100
0001
0100
0000
,
0100
0010
0100
0000
0001
0000
1000
0000
,
0010
0101
1000
0110
,
1000
0000
0011
0000
1000
0100
0001
0000
,
1000
1100
0001
0101
,
1000
0001
1000
0001
0010
0000
0010
0000
,
0001
0000
1000
0000
0001
0001
0000
0000
,
0100
0000
0010
0000
0100
0100
0000
0000
,
0001
0000
0010
0000
0100
0100
0000
0000
,
0010
0000
0100
0000
1000
0100
0010
0001
,
0010
0000
0100
0000
1000
0000
0010
0100
,
0010
0000
1000
0000
0100
0000
0010
0100
,
0010
0000
0100
0000
1000
0000
0001
1000
,
0001
0000
0100
0000
0010
0000
1000
0001
,
1000
0000
0010
0000
0101
0000
1000
0010
,
1000
0000
0100
0000
0011
0000
1000
0100
,
1000
0000
0001
0000
0110
0000
1000
0002
,
0200
0000
0000
0303
,
0001
0000
0100
0000
0001
0100
1000
0000
,
0100
0000
0010
0000
1000
0100
0001
0000
,
0100
0000
0010
0000
0001
0010
0100
0000
,
1000
0000
0010
0000
0100
0001
1000
0001
,
0100
0000
0110
0000
1000
0100
0010
0000
,
0001
0000
0101
0000
0010
0001
0100
0000
,
0010
0000
1100
0000
0010
0001
1000
0000
,
0010
0100
0001
0000
2200
0000
0000
3300
,
0002
0203
0000
0010
,
0310
0000
1000
2000
0000
0000
3000
0000
,
0200
0320
0000
1000
,
2030
0002
0000
3003
,
0002
0023
0100
1000
,
0130
0000
0001
0001
0001
0000
0001
0000
,
1000
2000
0000
0010
,
3002
0200
0000
0303
,
0002
2000
0000
0000
,
3003
0000
0000
0000
;

//---------------dance-single - C. Picardy----------------
#NOTES:
     dance-single:
     :
     Hard:
     8:
     0.575392,0.545983,0.170060,0.196912,0.496755,409.000000,19.000000,22.000000,8.000000,0.000000,0.000000,0.575392,0.545983,0.170060,0.196912,0.496755,409.000000,19.000000,22.000000,8.000000,0.000000,0.000000:
0000
0000
0000
0000
,
0000
0000
0000
0000
,
1000
2000
0000
0000
3100
0200
0000
0000
,
0310
0020
0000
0000
0031
0002
0000
0000
,
1003
0000
1000
0100
0000
0000
0000
0000
0010
0000
0010
0100
0000
0000
0000
0000
,
0010
0000
0010
0001
0000
0000
0000
0000
0001
0000
0001
0000
0100
0000
0000
0000
,
0010
0000
1000
0010
0000
0000
0000
0000
0100
0000
0010
0100
0000
0000
0000
0000
,
0001
0000
0100
0001
0000
0000
0000
0000
0100
0000
0001
0000
1000
0000
0000
0000
,
0100
0000
0100
0010
0000
0000
0001
0000
0010
0000
0010
0001
0000
0000
1000
0000
,
0001
0000
0001
0010
0000
0000
0100
0000
1000
0000
1000
0000
1001
0000
0000
0000
,
0100
0000
0010
0100
0000
0000
0001
0000
1000
0000
0100
0010
0000
0000
0100
0000
,
1000
0000
0001
0010
0000
0000
0001
0000
0100
0000
0100
0000
0110
0000
0000
0000
,
1000
0000
0100
1000
0100
0000
0000
0000
1000
0000
0001
1000
0001
0000
0000
0000
,
0100
0000
0001
0100
0001
0000
0000
0000
1000
0000
1000
0000
1010
0000
0000
0000
,
0001
0000
1000
0010
1000
0000
0000
0000
0001
0000
0010
0001
0010
0000
0000
0000
,
0100
0010
0000
0100
0010
0000
0001
0000
1000
0000
1001
0000
1001
0000
0000
0000
,
M100
0000
0000
0100
0001
0000
0010
0000
M100
0000
0000
0010
0001
0000
0100
0000
,
M010
0000
0000
0100
0001
0000
0010
0000
M100
0000
0000
0000
0011
0000
0000
0000
,
100M
0000
0000
0100
0010
0000
0100
0000
100M
0000
0000
0010
1000
0000
0100
0000
,
001M
0000
0000
0100
1000
0000
0010
0000
010M
0000
0000
0000
1010
0000
0000
0000
,
0001
0000
0000
1000
0001
0000
0100
0000
0010
0000
0000
1000
0100
0000
0010
0000
,
0001
0000
0000
0100
0010
0000
1000
0000
0001
0000
0000
0000
1000
0000
1000
0000
,
1000
0000
0000
0001
1000
0000
0100
0000
0001
0000
0000
0001
0100
0000
1000
0000
,
0020
0200
0330
0110
,
0001
0000
0000
1000
0000
0000
0100
0000
1000
0000
0000
0001
0000
0000
0100
0000
,
0001
0000
0000
1000
0000
0000
0100
0000
0010
0000
0010
0000
0011
0000
0000
0000
,
0100
0000
0000
0010
0000
0000
1000
0000
0100
0000
0000
0010
0000
0000
0001
0000
,
1000
0000
0000
0010
0000
0000
0100
0000
0001
0100
0000
0000
1001
0000
0000
0000
,
0010
0000
0001
0010
0001
0000
0000
0000
0100
0000
0010
0100
0010
0000
0000
0000
,
1000
0000
0010
1000
0010
0000
1000
0000
0100
0000
0000
0000
0011
0000
0000
0000
,
1000
0000
0100
1000
0100
0000
0010
0000
0001
0000
0010
0001
0010
0000
0100
0000
,
1000
0001
0000
1000
0001
0000
0100
0000
0010
0000
0110
0000
0110
0000
0000
0000
,
0100
0000
0001
0000
0000
0100
0000
0100
0010
0000
0100
0000
0000
0001
0000
0001
,
1000
0000
0100
0000
0000
0010
0000
0010
0100
0000
1000
0000
0000
0100
0000
0010
,
0100
0000
1000
0000
0000
0100
0000
1000
0001
0000
0100
0000
0000
0010
0000
0010
,
1000
0100
0000
1000
0100
0000
0010
0000
0010
0000
0011
0000
0011
0000
0000
0000
,
0100
0000
0001
0000
0010
0000
0001
0100
0000
0010
0000
0100
0001
0000
0000
0000
,
1000
0000
0001
0000
0100
0000
0001
1000
0000
0001
0000
1000
0100
0000
0000
0000
,
0010
0000
0100
0000
1000
0000
0100
0010
0000
0100
0000
0010
0001
0000
0000
0000
,
1000
0000
0100
0000
0001
0000
0100
0010
0000
0001
0000
1000
0100
0000
0000
0000
,
0010
0000
0100
0000
1000
0000
0100
0010
0000
0100
0000
1000
0001
0000
0100
0000
,
0010
0000
0100
0000
0001
0000
0100
0010
0000
0100
0000
0001
1000
0000
0001
0000
,
0100
0000
0010
0000
1000
0000
0010
0100
0000
0010
0000
1000
0001
0000
1000
0000
,
0100
1000
0000
0100
1000
0000
0001
0000
0100
0000
0101
0000
0101
0000
0000
0000
,
0100
0010
0100
0000
0001
0000
1000
0100
0000
0010
0000
0100
1000
0000
0000
0000
,
0001
0100
0001
0000
1000
0000
0010
0100
0000
0001
0000
1000
0001
0000
0000
0000
,
1000
0100
1000
0000
0001
0000
1000
0100
0000
1000
0000
0001
0010
0000
0000
0000
,
0100
0010
0100
0000
1000
0000
0001
0100
0000
0100
0000
0010
1000
0000
0000
0000
,
0001
0100
0001
0000
0010
0000
0100
1000
0000
1000
0000
1000
0100
0000
0010
0000
,
0100
1000
0100
0000
0010
0000
0001
0010
0000
0010
0000
0010
0001
0000
0100
0000
,
0010
0100
0010
0000
1000
0000
0001
1000
0000
0100
0000
1000
0001
0000
0100
0000
,
0010
0100
0000
0001
1000
0000
0010
0000
0100
0000
1001
0000
1001
0000
0000
0000
,
0002
0203
0010
0010
,
0301
2000
0010
0100
,
3002
0023
0100
0100
,
0032
0000
2003
0000
0010
0010
3010
0000
,
0020
0230
1000
1000
,
0301
0000
0020
0000
1000
1000
1000
0000
,
2030
0200
0000
3300
,
0002
0000
0200
0000
0000
0000
0000
0303
,
2000
0200
0000
0000
,
3300
0000
0000
0000
;

//---------------dance-single - C. Picardy----------------
#NOTES:
     dance-single:
     :
     Challenge:
     10:
     0.754403,0.796543,0.089505,0.187962,0.971134,559.000000,10.000000,21.000000,19.000000,0.000000,31.000000,0.754403,0.796543,0.089505,0.187962,0.971134,559.000000,10.000000,21.000000,19.000000,0.000000,31.000000:
// measure 0
0000
0000
0000
0000
,  // measure 1
0000
0000
0000
0000
,  // measure 2
1000
0000
0001
1000
0000
0000
0100
0000
0010
0000
0100
0010
0000
0000
0001
0000
,  // measure 3
1000
0000
0010
0100
0000
0000
0010
0000
0100
0000
0010
0000
1001
0000
M00M
0000
,  // measure 4
1000
0000
0100
0010
0100
0000
1000
0000
0001
0000
1000
0100
1000
0000
0001
0000
,  // measure 5
1000
0000
0001
0100
0001
0000
1000
0000
0001
0000
0010
0001
0010
0000
0100
0000
,  // measure 6
1000
0000
0010
1000
0001
0000
0010
0000
0100
0000
1000
0001
0100
0000
0010
0000
,  // measure 7
1000
0000
0100
0010
0001
0000
1000
0000
0001
0000
0100
0000
0110
0000
0MM0
0000
,  // measure 8
1000
0000
0001
0100
0001
0100
0001
0000
1000
0000
0001
0010
0001
0010
0001
0000
,  // measure 9
1000
0000
0100
0010
0100
0010
0100
0000
1000
0000
0001
0000
1000
0100
1000
0100
,  // measure 10
1000
0000
0001
0010
0100
0010
0001
0000
1000
0000
0100
0010
0001
0010
0100
0000
,  // measure 11
1000
0000
0010
1000
0100
1000
0010
0000
0100
0000
0001
0000
1010
0000
M0M0
0000
,  // measure 12
0001
0000
1000
0010
0100
0001
0100
0010
1000
0000
0100
1000
0100
0010
0001
0010
,  // measure 13
0100
0000
1000
0100
0010
0001
0010
0100
1000
0000
0001
0010
0100
1000
0100
0010
,  // measure 14
0001
0000
1000
0001
0100
0010
1000
0100
0010
0000
0001
0100
0010
1000
0100
0010
,  // measure 15
0001
0000
0000
0100
0000
0000
0000
0000
0000
0010
0000
0000
0100
0000
0000
0000
0000
0000
0001
0000
0000
0000
0000
0000
1000
0000
0000
0000
0000
0000
1001
0000
0000
0000
0000
0000
0001
0000
0010
0000
0001
0000
0010
0000
0000
0100
0000
0000
,  // measure 16
2000
0000
0000
0000
0400
0000
0000
0000
0000
0000
0000
0000
0000
0000
0000
3300
,  // measure 17
0020
0M00
0230
0004
0000
0000
0000
0303
,  // measure 18
002M
0000
0000
0000
4000
0000
0000
0000
0000
0000
0000
0000
0000
0000
0000
3030
,  // measure 19
0200
0000
00M0
0000
0040
0000
0000
0000
0000
0000
0000
0030
0310
0001
0M10
0001
,  // measure 20
4000
0000
0000
0000
0020
0000
0000
0000
0000
0000
0000
0000
0000
0000
0000
3030
,  // measure 21
0200
0000
M000
0000
0004
0000
0000
0000
0000
0000
0000
0000
0000
0000
0000
0303
,  // measure 22
0020
0000
0M00
0000
0400
0000
0000
0000
0000
0000
0000
0000
0000
0000
0000
0330
,  // measure 23
4000
0000
0000
0000
0400
0000
0000
0000
0000
0000
3300
0000
0001
0010
0001
0010
,  // measure 24
0001
0000
1000
0100
0010
0100
0001
0100
0010
0000
0001
0010
0100
0010
1000
0010
,  // measure 25
0100
0000
0010
0001
1000
0100
0010
0001
1000
0010
0100
0001
1000
0010
0100
0001
,  // measure 26
1000
0000
0001
0100
0010
0100
1000
0100
0010
0000
0100
0010
0001
0010
0100
0010
,  // measure 27
1000
0000
0001
0100
0010
1000
0100
0010
0001
0010
0100
1000
0001
0010
0100
1000
,  // measure 28
0001
0000
0100
1000
0100
0000
0001
0000
1000
0000
0010
1000
0010
0000
0001
0000
,  // measure 29
0010
0000
1000
0010
1000
0000
0100
0000
0010
0000
0010
0000
0001
0000
1000
0100
,  // measure 30
1000
0000
0100
0001
0100
0000
1000
0000
0010
0000
0001
0010
0001
0000
0010
0000
,  // measure 31
1000
0000
0000
0010
0000
0000
0000
0000
0000
1000
0000
0000
0100
0000
0000
0000
0000
0000
0010
0000
0000
0000
0000
0000
0001
0000
0000
0000
0000
0000
0011
0000
0000
0000
0000
0000
1000
0000
0100
0000
1000
0000
0100
0000
0000
1000
0000
0000
,  // measure 32
0100
0010
0001
0010
0000
0002
0000
1000
0103
0001
0100
1000
0000
0002
0000
0100
,  // measure 33
0013
0001
0010
0100
0000
0002
0000
1000
0013
0001
0010
2000
0000
0100
3000
0001
,  // measure 34
0100
0010
0100
0001
0000
2000
0000
0010
3001
0010
0100
1000
0000
0002
0000
0100
,  // measure 35
0013
0000
0000
1000
0000
0000
0000
0000
0000
0010
0000
0000
0100
0000
0000
0000
0000
0000
0001
0000
0000
0000
0000
0000
1000
0000
0000
0000
0000
0000
1001
0000
0000
0000
0000
0000
0100
0000
0010
0000
0100
0000
0010
0000
0000
1000
0000
0000
,  // measure 36
0001
0100
0001
0100
0001
0000
1000
0010
1000
0001
1000
0004
0000
0000
0000
1000
,  // measure 37
0103
1000
0100
1000
0100
0000
0010
0001
1000
0001
1000
0400
0000
0000
0000
1000
,  // measure 38
0301
1000
0001
1000
0001
0000
0100
0010
0100
0010
1000
0040
0000
0000
0000
0100
,  // measure 39
0031
0100
0001
0100
0010
0000
1000
0010
1000
0001
0010
0400
0000
0000
0000
1000
,  // measure 40
0301
0100
0010
1000
0001
0000
0010
0100
1000
0100
0010
0004
0000
0000
0000
0100
,  // measure 41
0013
0100
0001
0100
0010
0000
0100
0001
0010
0100
0010
0004
0000
0000
0000
1000
,  // measure 42
0103
0010
0100
1000
0001
0000
0001
0010
0001
0010
0100
4000
0000
0000
0000
0001
,  // measure 43
3100
0000
0000
0010
0000
0000
0000
0000
0000
1000
0000
0000
0001
0000
0000
0000
0000
0000
0100
0000
0000
0000
0000
0000
1001
0000
0000
0000
0000
0000
1010
0000
0000
0000
0000
0000
0100
0000
0001
0000
0100
0000
0001
0000
0000
0100
0000
0000
,  // measure 44
0010
1000
0001
0100
0010
1000
0001
0100
0010
1000
0100
0040
0000
0000
0000
0001
,  // measure 45
1030
0100
0010
0001
1000
0100
0010
0001
1000
0010
0100
0004
0000
0000
0000
0010
,  // measure 46
0103
1000
0001
0010
0100
1000
0001
0010
0100
1000
0100
0040
0000
0000
0000
0001
,  // measure 47
0130
0010
1000
0001
0100
0010
1000
0001
0100
0001
0010
0400
0000
0000
0000
0000
,  // measure 48
1300
0100
0010
0100
0001
0100
0010
1000
0010
0100
0010
0004
0000
0000
0000
1000
,  // measure 49
0013
0100
0010
0001
0010
0100
1000
0100
0001
0100
0010
4000
0000
0000
0000
0100
,  // measure 50
3010
1000
0010
0100
0010
0001
0100
1000
0100
0010
0100
0004
0000
0000
0000
1000
,  // measure 51
0013
0000
0000
0100
0000
0000
0000
0000
0000
0001
0000
0000
0010
0000
0000
0000
0000
0000
0100
0000
0000
0000
0000
0000
1100
0000
0000
0000
0000
0000
0011
0000
0000
0000
0000
0000
1000
0000
0001
0000
1000
0000
0001
0000
0000
1000
0000
0000
,  // measure 52
0200
0000
0000
0000
0040
0000
0000
0300
0001
0000
0000
0000
0100
0000
0000
0000
,  // measure 53
1030
0000
0100
4000
0010
0000
0001
0000
,  // measure 54
3002
0000
0400
0000
0003
100M
0000
0010
,  // measure 55
2300
0000
0000
0000
0004
0000
0000
3000
0010
0000
M000
0000
0100
0000
0000
0000
,  // measure 56
0403
1000
0010
0001
,  // measure 57
1000
0000
0340
0001
0000
0100
0000
1000
,  // measure 58
0430
0010
1000
0001
,  // measure 59
0340
0000
0002
0000
0000
0000
0000
0033
,  // measure 60
020M
0000
0020
0000
0000
0000
0000
0330
,  // measure 61
2MM0
0000
3001
M00M
0000
0000
0000
0000
;
