#TITLE:A Neverending Night;
#SUBTITLE:;
#ARTIST:Mickey B.;
#TITLETRANSLIT:;
#SUBTITLETRANSLIT:;
#ARTISTTRANSLIT:;
#GENRE:;
#CREDIT:;
#BANNER:aneverendingnightbn.png;
#BACKGROUND:aneverendingnightbg.png;
#LYRICSPATH:;
#CDTITLE:;
#MUSIC:aneverendingnight.ogg;
#OFFSET:-0.002530;
#SAMPLESTART:63.558769;
#SAMPLELENGTH:12.000000;
#SELECTABLE:YES;
#BPMS:0.000000=150.009995
;
#STOPS:125.500000=0.813000
;
#BGCHANGES:16.000=free hd background- city-night.mp4=1.000=1=0=1=SongBgWithMovieViz==CrossFade==,
24.000=free hd background- city-night.mp4=1.000=1=0=1===CrossFade==,
32.000=downtownstreak.mp4=1.000=0=0=0=StretchNoLoop====,
64.000=flash=1.000=0=0=1=====,
64.250=background city video.mp4=1.600=0=0=0=StretchNoLoop====,
91.500=background city video.mp4=1.000=0=0=1=SongBgWithMovieViz==CrossFade_Fastest==,
94.250=background city video.mp4=1.000=0=0=1=StretchNormalRed====,
94.500=background city video.mp4=1.000=0=0=1=StretchNormalGreen====,
94.750=background city video.mp4=1.000=0=0=1=StretchNormalBlue====,
95.000=background city video.mp4=1.000=0=0=1=StretchNormalRed====,
95.250=background city video.mp4=1.000=0=0=1=StretchNormalGreen====,
95.500=background city video.mp4=1.000=0=0=1=StretchNormalBlue====,
95.750=background city video.mp4=1.000=0=0=1=StretchNormalRed====,
96.000=flash=1.000=0=0=1=====,
96.250=background city video.mp4=1.600=0=0=1=====,
125.500=aneverendingnightbg.png=1.000=0=0=1===CrossFade_Fastest==,
126.000=flash=1.000=0=0=1=====,
126.250=background city video.mp4=1.000=0=0=1=====,
158.000=flash=1.000=0=0=1=====,
158.250=background city video.mp4=1.000=0=0=1=====,
222.000=flash=1.600=0=0=1=====,
222.250=downtownstreak.mp4=1.000=0=0=0=StretchNoLoop====,
250.000=flash=1.000=0=0=1=====,
250.250=aneverendingnightbg.png=1.000=0=0=1=====,
99999=-nosongbg-=1.000=0=0=0 // don't automatically add -songbackground-
;
#KEYSOUNDS:;
#ATTACKS:;

//---------------dance-single - C. Picardy----------------
#NOTES:
     dance-single:
     :
     Beginner:
     1:
     0.095947,0.149917,0.047974,0.000000,0.000000,70.000000,65.000000,5.000000,0.000000,0.000000,0.000000,0.095947,0.149917,0.047974,0.000000,0.000000,70.000000,65.000000,5.000000,0.000000,0.000000,0.000000:
// measure 0
0000
0000
0000
0000
,  // measure 1
0000
0000
0000
0000
,  // measure 2
0000
0000
0000
0000
,  // measure 3
0000
0000
0000
0000
,  // measure 4
0000
0000
0000
0000
,  // measure 5
0000
0000
0000
0000
,  // measure 6
0000
0000
0000
0000
,  // measure 7
0000
0000
0000
0000
,  // measure 8
1000
0000
1000
0000
,  // measure 9
1000
0000
0000
0000
,  // measure 10
0001
0000
0001
0000
,  // measure 11
0001
0000
0000
0000
,  // measure 12
0100
0000
0100
0000
,  // measure 13
0100
0000
0000
0000
,  // measure 14
0010
0000
0010
0000
,  // measure 15
0010
0000
0000
0000
,  // measure 16
1001
0000
0000
0000
,  // measure 17
0100
0000
0000
0000
,  // measure 18
0010
0000
0000
0000
,  // measure 19
1000
0000
0000
0000
,  // measure 20
0001
0000
0000
0000
,  // measure 21
0100
0000
0000
0000
,  // measure 22
0010
0000
0000
0000
,  // measure 23
1000
0000
0000
0000
,  // measure 24
0110
0000
0000
0000
,  // measure 25
0001
0000
0000
0000
,  // measure 26
1000
0000
0000
0000
,  // measure 27
0010
0000
0000
0000
,  // measure 28
0100
0000
0000
0000
,  // measure 29
0100
0000
0000
0000
,  // measure 30
0010
0000
0000
0000
,  // measure 31
1000
0000
1000
0000
,  // measure 32
0000
0000
0001
0000
,  // measure 33
0000
0000
1000
0000
,  // measure 34
0000
0000
0001
0000
,  // measure 35
0000
0000
0100
0000
,  // measure 36
0000
0000
0010
0000
,  // measure 37
0000
0000
0100
0000
,  // measure 38
0000
0000
0010
0000
,  // measure 39
0000
0000
1001
0000
,  // measure 40
0000
0000
0100
0000
,  // measure 41
0000
0000
0010
0000
,  // measure 42
0000
0000
0100
0000
,  // measure 43
0100
0000
0100
0000
,  // measure 44
0000
0000
0001
0000
,  // measure 45
0000
0000
0010
0000
,  // measure 46
0000
0000
0100
0000
,  // measure 47
0000
0000
1001
0000
,  // measure 48
0000
0000
1000
0000
,  // measure 49
1000
0000
1000
0000
,  // measure 50
0000
0000
0001
0000
,  // measure 51
0001
0000
0001
0000
,  // measure 52
0000
0000
0010
0000
,  // measure 53
0010
0000
0010
0000
,  // measure 54
0000
0000
0100
0000
,  // measure 55
0100
0000
0100
0000
,  // measure 56
0000
0000
0001
0000
,  // measure 57
0000
0000
1000
0000
,  // measure 58
0000
0000
0010
0000
,  // measure 59
0000
0000
0100
0000
,  // measure 60
0000
0000
0001
0000
,  // measure 61
0000
0000
1000
0000
,  // measure 62
0000
0000
1001
0000
;

//---------------dance-single - C. Picardy----------------
#NOTES:
     dance-single:
     :
     Easy:
     3:
     0.252204,0.304632,0.163110,0.076758,0.000000,184.000000,167.000000,17.000000,8.000000,0.000000,0.000000,0.252204,0.304632,0.163110,0.076758,0.000000,184.000000,167.000000,17.000000,8.000000,0.000000,0.000000:
0000
0000
0000
0000
,
0000
0000
0000
0000
,
0000
0000
0000
0000
,
0000
0000
0000
0000
,
2000
0000
3000
0000
,
0002
0000
0003
0000
,
0200
0000
0000
0300
,
0010
0000
1000
0000
,
1001
0000
0100
0000
,
0010
0000
1000
0001
,
0100
0000
0010
0000
,
1000
0001
1000
1000
,
0100
0010
0001
0000
,
1000
0000
0010
0100
,
0001
0001
1000
1000
,
0220
0000
0000
0330
,
1001
0000
0100
0100
,
0010
0000
1000
0000
,
0100
0000
0010
0000
,
0001
0001
1000
0000
,
0100
0010
0010
0001
,
1000
0000
0010
0000
,
0100
0000
0001
0000
,
1000
1000
0010
0100
,
1001
0000
0001
1000
,
0001
1000
0010
0100
,
0000
0001
1000
0000
,
0100
0000
0010
0001
,
1001
0000
0100
0000
,
1001
0000
0010
0000
,
1001
0000
0100
0000
,
0010
0100
1001
0000
,
0100
0010
0100
0000
,
0001
0000
1000
0000
,
0100
0000
0010
0100
,
0010
0001
1000
0000
,
0010
0010
0100
0000
,
0001
0000
1000
0000
,
0100
0000
0010
0100
,
1000
0001
0110
0100
,
0001
1000
0010
0100
,
0001
0001
1000
0000
,
0010
0100
0001
1000
,
0001
1000
0110
0001
,
1000
0100
0010
0000
,
0001
1000
0100
0000
,
0010
0010
0100
0010
,
1001
0000
1001
0000
,
0100
0000
0010
0000
,
1000
0000
0001
0001
,
0100
0000
0010
1000
,
0010
0010
1000
0000
,
0101
0000
0010
0000
,
1010
0000
0100
0000
,
1100
0000
2002
0000
,
0000
3003
1001
0100
,
0010
0100
0010
1000
,
0010
1000
0010
1000
,
0001
1000
0001
1000
,
0100
0010
0001
1000
,
1000
0010
0010
0100
,
0100
0001
0001
1000
,
0100
0010
0002
0000
,
0000
0000
0103
0000
;

//---------------dance-single - C. Picardy----------------
#NOTES:
     dance-single:
     :
     Medium:
     6:
     0.367341,0.396022,0.163110,0.095947,0.000000,268.000000,251.000000,17.000000,10.000000,0.000000,0.000000,0.367341,0.396022,0.163110,0.095947,0.000000,268.000000,251.000000,17.000000,10.000000,0.000000,0.000000:
0000
0000
0000
0000
,
0000
0000
0000
0000
,
0000
0000
0000
0000
,
0000
0000
0000
0000
,
0100
0000
0010
0000
,
2000
0000
3001
0000
,
0200
0000
0310
0000
,
1000
0001
1000
0001
,
0110
1000
0100
0010
,
0001
0000
1000
0000
0010
0000
0100
0001
,
1000
1000
0001
0001
,
1000
0000
0001
0000
0010
0100
0010
0000
,
0001
1000
0100
0010
,
0100
0000
1000
0000
0010
0000
0100
0001
,
0010
0010
0100
1000
,
0202
0000
0000
0303
,
0101
0000
0100
0010
0100
0000
0001
0000
,
1000
0000
0100
0100
0000
0010
0010
0000
,
1001
0000
0100
0010
0100
0000
0001
0000
,
1000
0000
0001
0001
0000
1000
1000
0000
,
0110
0000
1000
0001
1000
0000
0100
0000
,
0010
0000
0001
0010
0001
0000
0100
0000
,
0020
1000
1030
0001
,
0100
0000
0010
0000
0100
0010
0100
0000
,
1001
0100
0010
1000
,
0001
0000
1000
0000
0100
0000
0100
0010
,
0000
0001
1000
0010
,
0100
0010
1000
0001
,
1010
0000
0001
0000
1000
0000
0001
0001
,
0000
0000
1000
0000
0010
0000
0100
0100
,
0000
0001
1000
0010
,
0100
0001
0000
0001
1100
0000
0010
0000
,
0100
0000
1000
0000
0010
1000
0100
0000
,
0010
0001
1000
0010
,
0200
0010
0310
0001
,
1000
0100
0010
0000
1001
0000
0100
0000
,
0010
1000
0001
0011
,
0100
0000
1000
0100
0010
0000
0001
0000
,
1000
0000
0001
1000
0000
0000
0000
0100
,
0010
0000
0100
1000
0001
0000
0100
0000
,
0010
0000
1000
0000
0001
0000
0010
0100
,
1000
1000
0001
0100
,
0020
1000
0130
0001
,
1000
0010
0100
0000
1010
0000
0001
0000
,
1000
0100
0010
0100
,
1000
0000
0010
0010
0000
0000
0100
0000
,
0001
0000
1000
1000
0000
0000
0000
0001
,
0001
1000
0110
0001
,
1000
0000
0010
0000
0100
0000
0001
1000
,
0000
0001
0100
0001
,
0010
0100
0010
0011
,
0010
0100
1000
0000
0001
0000
0101
0000
,
1000
0010
0100
0010
,
1000
0000
0100
0010
0001
0000
1000
0000
,
0010
0100
0002
1000
,
0010
0103
1001
0100
,
0010
1000
0001
0000
0010
0000
0100
0000
,
1000
0000
0010
0010
0010
0000
0100
0000
,
0001
0000
1000
0100
0010
0000
0001
0000
,
1000
1000
1000
0000
0010
0000
0100
0000
,
0001
0000
1000
0010
0100
0000
0001
0000
,
1000
0000
0100
0010
0001
0000
0001
0000
,
1100
0010
2002
0000
,
0000
0000
3003
0000
;

//---------------dance-single - C. Picardy----------------
#NOTES:
     dance-single:
     :
     Hard:
     8:
     0.507149,0.578801,0.201489,0.105542,0.071960,370.000000,349.000000,21.000000,11.000000,0.000000,0.000000,0.507149,0.578801,0.201489,0.105542,0.071960,370.000000,349.000000,21.000000,11.000000,0.000000,0.000000:
0000
0000
0000
0000
,
0000
0000
0000
0000
,
0000
0000
0000
0000
,
0000
0000
0000
0000
,
2000
0000
3200
0000
,
0320
0000
0000
0000
,
0230
0000
0000
0000
,
1300
0001
0100
0010
,
1001
0000
0100
0010
0000
0010
1000
0100
,
0010
0000
0100
0010
0000
0001
0010
0100
,
0000
1000
0100
0010
0001
0010
0100
1000
,
0010
0000
1001
0000
0100
0100
0100
0000
,
0001
0000
0100
0000
0010
0000
0000
0100
0001
0000
0100
0000
0010
0000
1000
0000
,
0001
0000
0010
0100
1000
0000
0001
0010
,
0100
0000
0000
0000
0100
0000
0000
1000
0100
0000
0010
0000
0100
0000
1000
0000
,
2002
0000
0000
3003
,
0110
0000
0001
0100
0010
0100
0001
0000
,
1100
0000
0000
0000
0010
0000
0100
0000
1000
0000
0001
1000
0001
0000
0100
0000
,
0010
0000
0100
0010
1000
0010
0100
0000
,
0011
0000
0000
0000
0100
0000
0010
0000
0001
0000
0010
0001
0010
0000
0100
0000
,
1000
0000
1000
0001
0100
0010
1000
0001
,
1000
0000
1000
0001
0100
0010
1000
0100
,
0020
0000
0000
0130
0000
0100
0000
1100
,
0000
0000
0101
0000
0000
0000
1000
0000
0001
1000
0001
1000
0001
1000
0001
1000
,
0001
0000
1000
0000
0100
0010
0001
1000
,
0000
1000
0000
0001
0100
0000
0100
0010
,
0000
0100
0010
1000
0001
0100
0000
0010
,
0000
1000
0000
0100
0000
0010
0100
0000
,
0011
0000
1000
0000
0100
0010
0001
1000
,
0010
0000
0010
0000
1000
0100
0010
0100
,
1000
1000
0001
0100
,
0010
1000
0000
1001
0110
0000
0001
0100
,
0010
0000
0100
0000
0001
0000
0100
0000
0010
0000
1000
0010
1000
0000
0001
0000
,
0100
0000
0100
0010
0000
0010
1000
0001
,
0100
0000
0001
1000
0000
1000
0100
0010
,
0001
0010
0100
1000
0001
0000
1000
0100
,
0010
0001
0010
0100
1000
0000
0101
0000
,
1100
0000
0001
1000
0100
0000
0100
0000
,
0010
0000
0100
0000
1000
0000
0001
0000
0010
0000
0000
0000
0000
0000
0100
0010
,
0100
0000
1000
0001
1001
0000
1000
0100
,
0010
0000
0100
0000
1000
0000
0100
0000
0010
0000
0100
1000
0100
0000
0010
0000
,
0001
0000
0001
0100
0000
0100
0001
0100
,
0010
0000
0010
1000
0000
0001
0100
0010
,
1000
0010
0100
0001
1000
0000
0100
0010
,
0001
0010
0100
0010
0001
0000
0010
0100
,
1000
0000
1000
0100
0001
0000
0100
0000
,
1000
0000
0100
0000
0010
0000
0001
0000
0100
0000
0000
0000
0000
0000
0010
0100
,
0010
0000
0100
0000
1001
0000
0100
0010
,
0000
0100
0000
0001
0010
0100
1000
0001
,
0000
0100
0010
0100
0000
0001
0001
1000
,
0100
0010
0001
0001
1000
0000
1010
0000
,
0001
0000
0001
0000
0100
0000
0000
0000
0010
0000
1000
0000
0100
0000
0000
1000
,
0010
0010
0100
0010
0000
1000
0001
0010
,
0100
0000
0000
0000
0100
0000
0010
0000
0001
0000
0000
0000
0001
0000
0000
0001
,
0010
0100
0000
2002
0000
0000
0000
0000
,
0000
0000
3003
0000
0110
0000
1000
0100
,
0010
0100
1000
0100
0010
0100
1000
0100
,
0010
0100
1000
0010
0100
0001
0010
0001
,
0100
0001
0010
0001
0100
0000
1001
0000
,
0100
0100
0110
0000
0001
0010
0100
0010
,
0001
0010
0100
0010
0001
0010
0100
1000
,
0100
0000
0010
0000
0001
0000
0100
0000
0010
0000
0000
0000
0010
0000
0000
0100
,
0010
1000
0100
0000
0220
0000
0000
0000
,
0000
0000
0330
0000
;

//---------------dance-single - C. Picardy----------------
#NOTES:
     dance-single:
     :
     Challenge:
     9:
     0.677113,0.775073,0.431762,0.230273,0.369397,494.000000,449.000000,45.000000,24.000000,45.000000,0.000000,0.677113,0.775073,0.431762,0.230273,0.369397,494.000000,449.000000,45.000000,24.000000,45.000000,0.000000:
0000
0000
0000
0000
,
0000
0000
0000
0000
,
0000
0000
0000
0000
,
0000
0000
0000
0000
,
2000
0000
0000
0000
3002
M000
0000
0000
,
0203
000M
0000
0000
2300
0M00
0000
0000
,
3002
M000
0000
0000
0023
000M
0000
0000
,
1030
01M0
0010
0001
0010
0100
1000
0000
,
0101
0000
0100
0010
0000
1010
0000
0001
,
1000
0100
1000
0000
0010
0000
0020
0000
0000
0000
0000
0000
0130
0001
0100
0010
,
0000
0010
1000
0000
0001
0000
0010
0100
1000
0000
0001
0000
0100
0001
0100
0001
,
0100
0000
0000
0000
1100
0000
0000
0000
0101
0000
0101
0000
0001
0100
0010
0000
,
1000
0010
0100
0010
2000
0000
0000
3001
0100
0000
0100
0000
0010
0000
1000
0000
,
0000
0001
0010
0100
1000
0000
0100
0010
0002
0000
0000
0000
1003
0100
1000
0100
,
1000
0000
0000
0000
0101
0000
0000
0010
0100
0000
0100
0000
1000
0000
0001
0000
,
0100
0001
0100
0001
0100
0000
0010
0000
0000
0000
1000
0000
0100
0000
1000
0001
,
1001
0000
1000
0100
0010
0100
1000
0000
,
0101
0000
0000
0000
1000
0000
0100
0000
0000
0000
0010
0001
0010
0000
0100
0000
,
1100
0000
0010
0100
1000
0100
0010
0000
,
1100
0000
0000
0000
0001
0000
0100
0000
0000
0000
0010
1000
0010
0000
0100
0000
,
0101
0000
0001
0100
1000
0100
0001
0010
,
0110
0000
0100
1000
0010
1000
0100
0010
,
0012
0000
0000
0100
0000
1003
0000
1010
,
0000
0000
0101
0000
0000
0000
1000
0000
0001
0010
0100
1000
0001
0010
0100
1000
,
0001
0000
0110
0MM0
1000
0100
0001
0100
,
1000
0010
0001
0010
1000
0000
0010
0110
,
0MM0
0001
0100
0010
1000
0100
0000
0011
,
0000
11MM
0000
MM01
0000
1000
0100
1000
,
1001
0000
0101
0000
0MM1
0001
0100
0020
,
0000
1000
1030
0000
0001
0010
0100
2000
,
0000
0001
3001
0100
0000
0011
0000
1000
,
1001
0000
0000
0000
0000
0000
0000
0000
0000
0000
0000
0000
0000
0000
0000
0000
0000
0000
0000
0000
0000
0000
0000
0000
0101
0000
0000
0000
0000
0000
0000
0000
0000
0000
0000
0000
0000
0000
0000
0000
0000
0000
0000
0000
0000
0000
0000
0000
0000
0000
0000
0000
0000
0000
0000
0000
0000
0000
0000
0000
0000
0000
0000
0000
0000
0000
0000
0000
0000
0000
0000
0000
2MM2
3003
0000
0000
0000
0000
0000
0000
0000
0000
0000
0000
0000
0000
0000
0000
0000
0000
0000
0000
0000
0000
0000
0000
1MM1
0000
0000
0000
0000
0000
0000
0000
0000
0000
0000
0000
0000
0000
0000
0000
0000
0000
0000
0000
0000
0000
0000
0000
0000
0000
0000
0000
0000
0000
0000
0000
0000
0000
0000
0000
0000
0000
0000
0000
0000
0000
0000
0000
0000
0000
0000
0000
1000
0000
0000
0000
0000
0000
0000
0000
0000
0000
0000
0000
0000
0000
0000
0000
0000
0000
0000
0000
0000
0000
0000
0000
0001
0000
0000
0000
0000
0000
0000
0000
0000
0000
0000
0000
0000
0000
0000
0000
0000
0000
0000
0000
0000
0000
0000
0000
,
0100
0000
0010
0000
1000
0000
0001
0000
0100
0000
0010
0100
0010
0000
1000
0000
,
0100
0000
0010
0011
0000
10MM
0100
1000
,
1010
0000
M1M0
0101
0000
1M0M
0100
0010
,
0001
0010
0100
1000
0101
0000
1M0M
0001
,
0010
0100
1000
0001
0100
0010
1000
0100
,
0002
0000
0103
0010
0001
0010
0100
0010
,
0001
0000
0100
0000
0010
0000
2000
0000
0000
0000
0001
0000
0001
0000
3001
0100
,
M001
0100
0001
0100
0001
0000
1000
0000
1M1M
0000
0000
0000
0001
0000
0100
0000
,
0010
0000
0100
0000
0001
0000
0010
0000
0100
0000
0010
0001
0010
0000
0100
0000
,
1000
0100
0010
0100
1000
0010
0100
0010
,
1000
0000
0001
0000
0010
0000
0100
0000
1000
0100
1000
0100
1000
0000
0100
0000
,
0010
0001
0010
0001
0010
0000
0100
0000
1100
0000
1000
0000
0010
0000
0100
0000
,
0001
0000
0100
0000
1000
0000
0100
0000
0001
0000
1000
0010
0100
0000
0001
0000
,
1000
0000
0100
0000
0100
0000
0010
0100
1000
0000
0001
0000
0100
0000
0001
0100
,
0010
0000
1000
0000
1000
0000
1001
0000
0000
0000
0100
0000
0100
0000
0010
0100
,
0020
0000
0130
0010
1001
M00M
0010
0100
,
0000
0000
0110
0000
0000
0000
0001
0000
1000
0100
1000
0000
0001
0000
0020
0000
,
0000
0000
0000
0000
0130
0010
0001
1000
0000
1000
0100
0000
0010
0000
0100
0010
,
0001
0000
0001
0000
1000
0100
1000
0100
1000
0000
0000
0000
0101
0000
0000
0000
,
0110
0000
0110
0000
0100
0010
1000
0000
0001
0100
0001
0100
0002
0000
0000
0013
,
0100
0000
0100
0000
0010
0000
0011
0000
0000
0100
0001
0100
0010
0000
1000
0010
,
0200
0000
0000
0000
0310
1000
0010
1000
0010
0000
0000
0000
0101
0000
0000
1000
,
0100
0110
0100
2002
0MM0
0000
0MM0
0000
,
0MM0
0000
3003
0000
1MM0
0001
1000
0001
1MM1
0000
0000
0000
0001
0000
0100
0000
,
1000
0000
0100
0000
0001
0000
0010
0000
0100
1000
0100
1000
0100
0000
0010
0000
,
0001
0000
1000
0000
0010
0100
0010
0100
0001
1000
0001
0000
1000
0000
0010
0100
,
0001
0000
0010
0000
0100
1000
0100
1000
0100
0000
0010
0000
0001
0000
0100
0000
,
0010
0000
0010
0000
1000
0010
1000
0000
0001
0010
0001
0010
0001
0000
1000
0100
,
1000
0100
1000
0000
0001
0000
1000
0000
0100
0000
0010
0100
0010
0000
0001
0010
,
0001
0000
1000
0000
0001
0100
0010
0100
0001
0000
1000
0000
0100
0000
0010
0100
,
1000
0001
0100
2002
0000
0000
0000
0000
,
0000
0000
0000
0000
0000
0000
0000
0000
3003
4004
0000
0000
0000
0000
0000
0000
,
0000
0000
0000
0000
3003
M00M
0000
0000
;
