#TITLE:~Timeless~;
#SUBTITLE:;
#ARTIST:TAG NEXT MORE;
#TITLETRANSLIT:Timeless;
#SUBTITLETRANSLIT:;
#ARTISTTRANSLIT:;
#GENRE:;
#CREDIT:;
#MENUCOLOR:;
#METERTYPE:DDR;
#BANNER:Timeless-bn.png;
#BACKGROUND:Timeless-bg.png;
#LYRICSPATH:;
#CDTITLE:TUNE STREET-cdtitle.png;
#MUSIC:Timeless.mp3;
#OFFSET:-0.700;
#SAMPLESTART:60.660;
#SAMPLELENGTH:13.340;
#SELECTABLE:YES;
#LISTSORT:;
#BPMS:0.000=144.000;
#STOPS:;
#BGCHANGES:;
#ATTACKS:;

//---------------dance-single - ----------------
#NOTES:
     dance-single:
     :
     Hard:
     9:
     0.668,0.568,0.258,0.124,0.316:
0000
0000
0000
0000
,
0011
0000
0000
0110
0000
0000
1100
0000
0000
1001
0000
0000
0110
0000
0100
0000
,
0001
0000
0100
0000
0001
1000
0000
0100
0000
0000
1000
0000
0100
0000
0010
0000
,
0001
0000
1000
0000
0001
0010
0000
0001
0000
0000
1000
0000
0010
0000
0010
0000
,
1000
0000
0001
0000
0010
0100
0000
1000
0000
0000
0001
0000
0100
0000
0001
0000
,
1000
0000
0100
0000
1000
0000
0001
0000
0002
0000
0000
0203
0000
0000
0320
0000
,
1030
0000
0001
0000
0100
0010
0000
1000
0000
0000
0100
0000
1000
0000
0001
0000
,
0010
0000
0001
0000
0001
0100
0000
0010
0000
0000
0100
0000
1000
0000
0100
0000
,
0010
0000
0100
0000
0010
1000
0000
0100
0000
0000
1000
0000
0100
0000
0010
0000
,
0001
0000
0000
1001
0000
0000
1000
0000
0000
0110
0000
0000
1000
0000
0101
0000
,
0002
1000
1000
1003
,
0001
0000
0100
0000
0010
0000
1000
0000
0100
0000
0010
0001
0010
0000
0000
0000
,
1001
0000
0010
0000
0001
1000
0010
1000
,
0001
0000
0000
0010
0001
0000
0100
0000
0001
0000
0010
0000
0110
0000
0000
0000
,
0100
0000
1000
0010
1000
0000
0001
0000
0100
0000
0001
0000
1000
0000
0100
0000
,
0010
0000
0000
0010
0100
0000
1000
0000
0010
0000
0100
0000
1000
0000
0100
0000
,
0010
1000
0100
0010
0001
0001
0100
0010
,
1000
0001
0010
0100
0010
0001
1000
0010
,
0100
0000
0001
0010
0100
1000
0001
0000
,
1000
0000
0100
0000
0010
0000
0100
1000
0100
0000
0010
0000
0100
0010
0001
0010
,
0001
0100
0001
1000
0100
0000
1000
0010
,
0100
0001
0100
0010
0100
1000
0100
0000
,
0010
0100
0001
0010
0100
1000
0001
0000
,
1000
0000
0100
0000
1000
0000
0000
0010
1000
0000
0001
0000
0100
0000
0010
0000
,
0110
0000
0001
0010
1000
0010
0001
0000
,
1001
0000
1000
0100
0001
0100
1000
0000
,
0001
0100
0001
0100
0010
0100
0010
1000
,
0100
0000
0010
0000
0001
1000
0001
1000
0010
0000
0000
0100
0000
0000
1001
0000
,
1000
0000
0200
0000
0010
0000
0000
0000
0310
0000
0100
0000
0010
0000
0001
2000
,
0000
0000
0000
0000
3001
0000
0000
0000
0100
0000
0001
1000
0001
0000
0000
0000
,
0100
0000
0000
0010
0100
0000
0010
0000
1000
0000
0001
0000
0010
0000
0001
0000
,
1000
0000
0000
1100
0000
0000
0100
0000
0010
0000
0001
0000
0101
0000
0000
0000
,
1000
0000
0100
1000
0001
0000
0100
0000
0001
0000
0010
0000
0100
0000
0010
0100
,
1000
0000
0001
0000
0100
0000
0001
0000
1000
0000
0010
0100
0010
0000
1000
0000
,
0001
0000
0010
0000
0100
0000
1000
0100
1000
0000
0010
0000
1000
0000
0001
0000
,
0201
1000
0010
0301
,
1001
0000
0100
0000
0010
0000
0100
0000
0001
1000
0000
0001
0000
0010
0000
0001
,
0100
0000
0010
0000
1000
0000
0100
0000
1000
0000
0001
0000
0010
0100
0000
1000
,
0001
0100
0010
0100
0001
0100
1000
0100
,
0001
0000
0100
0010
2000
0000
0000
0000
3001
0000
1000
0000
0100
0000
1000
0000
,
1001
0000
0001
0010
0100
0001
0100
1000
,
0010
0000
1000
0001
0000
0100
0001
0000
0100
0000
0010
0000
0100
0000
0000
0001
,
0100
0000
0001
0000
1000
0000
0100
0000
0010
0000
0000
0000
0001
0000
0001
1000
,
0100
1000
0010
0100
1000
0000
1100
0000
,
0100
0000
0010
0000
0100
0000
0001
0000
1000
0100
0000
1000
0000
0001
0000
0010
,
0001
0000
0100
0000
0010
0000
0100
0000
0001
0000
1000
0000
0010
1000
0000
1000
,
0100
0010
0100
0001
0100
0010
0001
1000
,
0100
0000
1000
0001
0200
0000
0000
0000
1000
0000
0000
0000
0301
0000
1000
0000
,
0101
0000
1000
0001
0100
0001
0001
1000
,
0100
0000
1000
0100
0000
1000
0000
0001
0100
0000
0001
0000
1000
0000
0010
0000
,
0200
0000
0000
0000
0301
0000
0100
0000
0010
0000
1000
0000
0100
0000
1000
0010
,
1000
0000
0000
0101
0000
0000
1010
0000
0000
1100
0000
0000
1001
0000
0010
0000
,
0100
0000
1000
0000
0001
0000
0100
0000
0010
0100
0000
0001
0000
1000
0000
0100
,
0010
0000
0001
0000
1000
0000
0010
0000
1000
0100
1000
0200
0000
0000
0310
0000
,
0100
1000
0001
0100
0001
0010
0100
2000
,
3010
0010
0002
0000
0013
0100
0010
0001
,
0100
0000
0001
0100
0001
0000
1000
0010
1000
0000
0100
1000
0100
0000
1000
0000
,
0001
0010
0100
0020
0000
0001
0031
1000
,
0001
0010
0100
1000
0001
0100
0001
0100
,
1100
0000
0000
1010
0000
0000
0101
0000
0000
0011
0000
0000
1001
0000
0001
0000
,
0100
0010
1000
0001
0010
0001
1000
0010
,
0100
0001
1000
0100
1000
0001
0010
0100
,
1000
0001
0100
0010
0100
1000
0100
0001
,
1000
0100
0010
0001
1000
0010
0100
0001
;

//---------------dance-single - ----------------
#NOTES:
     dance-single:
     :
     Medium:
     6:
     0.381,0.426,0.062,0.133,0.031:
0000
0000
0000
0000
,
0001
0000
0000
0101
0000
0000
1000
0000
,
1001
0001
0100
0010
,
1000
0100
1000
0001
,
0010
0001
0100
0010
,
2000
0001
3002
0100
,
1003
0001
0010
0100
,
1000
0100
1000
0010
,
0100
0001
1000
0001
,
0001
0000
0000
1000
0000
0000
0001
0000
0000
1000
0000
0000
0100
0000
0000
0000
,
0020
0000
0000
0000
,
0100
0000
0100
0000
0130
0010
0100
0000
,
1001
0000
0100
0000
0001
0000
1000
0100
,
0010
0000
0001
0000
1000
0000
0001
0100
,
0001
1000
0010
1000
,
0100
0000
0010
0000
0001
0000
1000
0100
,
1000
0000
0001
0000
0100
0000
0010
0100
,
0001
0000
1000
0000
0001
0000
0010
0001
,
1000
0100
1000
0100
,
0100
0010
0001
1000
,
0001
0000
0100
0000
0010
0000
1000
0100
,
1000
0001
0100
0010
,
1000
0100
0010
0001
,
0100
0000
0001
0000
1000
0001
1000
0010
,
0100
0000
0010
0000
1000
0000
0100
0010
,
0001
0000
0010
0000
0001
0000
1000
0001
,
0100
0010
0100
0001
,
1000
0100
0001
0100
,
1000
0000
1100
0000
0000
0000
0000
0000
1000
0000
0000
0000
0002
0000
0000
0200
,
0000
0000
0303
0000
0001
1000
0001
0000
,
1000
0001
0100
0010
,
1000
0000
0100
0000
1000
0100
0010
0000
,
0100
1000
0001
0001
,
0100
0010
0100
0001
,
1000
0100
0010
1000
,
0010
0001
0011
1010
,
0100
0000
0010
0000
0100
0001
0100
0000
,
0010
1000
0001
1000
,
0100
0000
1000
0000
0001
1000
0001
0000
,
1000
0100
1000
0000
0010
0000
0010
0000
,
0100
0001
1000
0100
,
0020
0032
0203
0302
,
1003
0100
2000
0001
,
3100
1000
0002
0100
,
1003
0000
0001
0000
0010
0100
1000
0000
,
0001
0000
0100
0000
0001
0010
0001
0000
,
1000
0010
1000
0001
,
1000
0100
0010
0000
0100
0000
1000
0000
,
0001
0100
0010
0100
,
1000
0100
0010
0100
,
0002
0023
0230
2300
,
3001
0000
0000
0010
0000
0000
0001
0000
0000
0010
0000
0000
0001
0000
0000
0000
,
1001
0100
0010
0001
,
1000
0010
0100
0001
0000
0001
1000
0000
,
0001
0010
0001
1000
,
0100
1000
0001
0000
0100
0000
0010
0010
,
0100
0001
0010
0001
,
0010
0001
0100
0010
0100
0000
0001
0000
,
0010
0100
1000
0010
,
1000
0000
0000
0100
0000
0000
0010
0000
0000
0001
0000
0000
1000
0000
1000
0000
,
0001
0100
1000
0100
,
0001
0010
1000
0010
,
0001
1000
0100
1000
,
0001
0000
1000
0000
0001
0010
0100
1000
;

//---------------dance-single - ----------------
#NOTES:
     dance-single:
     :
     Easy:
     4:
     0.332,0.370,0.098,0.302,0.000:
0000
0000
0000
0000
,
0001
0001
1000
1001
,
0110
0010
1000
0100
,
0010
0001
0100
0001
,
1000
0010
0100
0010
,
2000
0100
3002
0100
,
1003
0001
0100
0010
,
1000
0100
1000
0001
,
0010
0010
0100
1000
,
0002
0013
0020
0130
,
2200
0000
0000
3000
,
1300
1000
0002
0103
,
0001
1000
0010
0000
,
0100
0010
1000
0100
,
0020
0000
0032
1000
,
1003
0000
0100
1000
,
0010
0100
0020
0030
,
1000
0100
0200
0300
,
0010
0001
2002
3003
,
0001
0100
0002
1000
,
1003
1000
0100
0000
,
1000
0010
0100
0000
,
0001
0010
0200
0000
,
2300
0000
3001
0100
,
0010
1000
2000
3000
,
0100
0010
0002
0003
,
0010
0001
1001
0000
,
0010
0100
0010
1000
,
0200
0000
0000
1000
,
2300
0000
3000
1001
,
0001
0010
0100
1000
,
0100
0010
0001
0000
,
0100
0010
0100
0000
,
0001
0100
0001
0000
,
1000
0000
0010
1000
,
1001
1001
0110
0110
,
1001
0100
0010
1000
,
0100
0010
0200
0000
,
1300
0001
0100
1000
,
0200
0020
0000
0330
,
0100
0001
0010
0010
,
0100
0100
1000
0001
,
0200
0000
0302
0010
,
0023
0000
0230
1000
,
1300
0001
0001
0100
,
0010
0100
0002
0000
,
0103
0001
0010
0100
,
2000
0002
0000
3003
,
0001
0100
0010
1000
,
0010
0010
0001
0001
,
0010
0100
0010
1000
,
0002
0000
0020
0033
,
0001
1000
0100
1000
,
0010
0100
0010
0100
,
0001
0010
0100
1000
,
0001
0010
0001
0000
,
0100
0010
1000
0001
,
0001
0010
1000
0010
,
0001
1000
0100
1000
,
0020
0000
0200
0330
,
0001
0010
0100
1000
,
0001
0010
0100
1000
,
0001
0100
1000
0100
,
0001
0010
1000
0010
,
0001
0000
0000
0000
;

//---------------dance-single - ----------------
#NOTES:
     dance-single:
     :
     Beginner:
     1:
     0.107,0.199,0.036,0.089,0.000:
0000
0000
0000
0000
,
0000
0000
0000
0000
,
0010
0000
0000
0000
,
1000
0000
0000
0000
,
0001
0000
0000
0000
,
0010
0000
0010
0000
,
0010
0000
0000
0000
,
0001
0000
0000
0000
,
1000
0000
0000
0000
,
0010
0000
0100
0000
,
0200
0000
0000
0000
,
0000
0000
0300
0000
,
0100
0000
0000
0000
,
0001
0000
0000
0000
,
1000
0000
0000
0000
,
0000
0000
0000
0000
,
0010
0000
0000
0000
,
1000
0000
0000
0000
,
0002
0000
0000
0000
,
0003
0000
0000
1000
,
1000
0000
0000
0000
,
0001
0000
0000
0000
,
0100
0000
0000
0000
,
0000
0000
0000
0000
,
0001
0000
0000
0000
,
1000
0000
0000
0000
,
0020
0000
0000
0000
,
0030
0000
0000
0000
,
0100
0000
0000
0010
,
0010
0000
0000
1001
,
1001
0000
0000
0000
,
1000
0000
0000
0000
,
0001
0000
0000
0000
,
0100
0000
0000
0000
,
0010
0000
1000
0000
,
0001
0001
0001
0001
,
0001
0000
0000
0000
,
1000
0000
0000
0000
,
0100
0000
0000
0000
,
1000
1000
0000
0000
,
0010
0000
0000
0000
,
0100
0000
0000
0000
,
0001
0000
1000
0000
,
0001
0000
1000
0000
,
0100
0000
0000
0000
,
0010
0000
0000
0000
,
0001
0000
0000
0000
,
1000
0000
0000
0000
,
0010
0000
0000
0000
,
0100
0000
0000
0000
,
0010
0000
1000
0000
,
0020
0000
0030
0000
,
0110
0000
0000
0000
,
0100
0000
0000
0000
,
0001
0000
0000
0000
,
1000
0000
0000
0000
,
0100
0000
0000
0000
,
0010
0000
0000
0000
,
0001
0000
0000
0000
,
2002
0000
3003
0000
,
0200
0000
0300
0000
,
0020
0000
0030
0000
,
2000
0000
3000
0000
,
0002
0000
0000
0000
,
0003
0000
0000
0000
;

//---------------dance-double - ----------------
#NOTES:
     dance-double:
     :
     Hard:
     9:
     0.672,0.625,0.267,0.062,0.325: // measure 1
00000000
00000000
00000000
00000000
,  // measure 2
00100000
00000000
00000000
00001000
00000000
00000000
00010000
00000000
00000000
00000100
00000000
00000000
00000011
00000000
00000001
00000000
,  // measure 3
00000100
00000000
00000010
00000000
00001000
00000100
00000000
00010000
00000000
00000000
00000100
00000000
00001000
00000000
00000001
00000000
,  // measure 4
00000010
00000000
00000100
00000000
00010000
00000100
00000000
00010000
00000000
00000000
00001000
00000000
00100000
00000000
00010000
00000000
,  // measure 5
00100000
00000000
00001000
00000000
01000000
00100000
00000000
10000000
00000000
00000000
00010000
00000000
00100000
00000000
00010000
00000000
,  // measure 6
10000000
00000000
01000000
00000000
10000000
00000000
00010000
00000000
00200000
00000000
00000000
00302000
00000000
00000000
00023000
00000000
,  // measure 7
01030000
00000000
10000000
00000000
00010000
00100000
00000000
00001000
00000000
00000000
00100000
00000000
00010000
00000000
01000000
00000000
,  // measure 8
00001000
00000000
00010000
00000000
00001000
00000100
00000000
00000001
00000000
00000000
00000100
00000000
00000010
00000000
00001000
00000000
,  // measure 9
00000100
00000000
00000100
00000000
00000010
00000100
00000000
00000001
00000000
00000000
00000100
00000000
00001000
00000000
00000100
00000000
,  // measure 10
00011000
00000000
00000000
00001100
00000000
00000000
00011000
00000000
00000000
00110000
00000000
00000000
01100000
00000000
11000000
00000000
,  // measure 11
20000000
00010000
00010000
30010000
,  // measure 12
01000000
00000000
00010000
00000000
00100000
00000000
00001000
00000000
00100000
00000000
00001000
00010000
00001000
00000000
00000000
00000000
,  // measure 13
00010000
00000100
00001000
00000100
00000010
00000001
00000100
00001000
,  // measure 14
00000100
00000010
00001000
00000100
00010000
00001000
00000010
00001000
,  // measure 15
00010000
00000000
00000000
00001000
00010000
00000000
00001000
00000000
00100000
00000000
00010000
00000000
00100000
00000000
00000000
00000000
,  // measure 16
01000000
10000000
00010000
00100000
00001000
01000000
00010000
00100000
,  // measure 17
00110000
00000000
00000000
00001000
00000000
00000000
00010000
00000000
00000100
00000000
00000000
00000000
00001000
00000000
00000010
00000000
,  // measure 18
00000001
00000000
00000000
00000010
00000000
00000000
00000100
00000000
00000010
00000000
00000000
00001000
00000100
00000000
00001000
00000000
,  // measure 19
00000010
00001000
00000100
00000010
00000001
00001000
00000010
00000100
,  // measure 20
00001000
00000000
00000000
00000000
00010000
00000000
00000000
00001000
00010000
00000000
01000000
00000000
10000000
01000000
10000000
01000000
,  // measure 21
00100000
00000000
00000000
00010000
01000000
00000000
00010000
00000000
00100000
00000000
00001000
00000000
00100000
00000000
00010000
00000000
,  // measure 22
00001000
00000010
00000100
00000001
00001000
00000100
00010000
00000100
,  // measure 23
00001000
00010000
00100000
00010000
10000000
00100000
10000000
00010000
,  // measure 24
00100000
00010000
00100000
01000000
10000000
00010000
00100000
00001000
,  // measure 25
00011000
00000000
00010000
00000100
00001000
00000010
00000100
00001000
,  // measure 26
00010000
00001000
00010000
00000010
00000100
00000010
00000100
00000001
,  // measure 27
00000010
00000000
00000000
00000001
00000010
00000000
00000000
00000010
00000100
00000000
00000000
00000100
00001000
00000000
00000000
00010000
,  // measure 28
00001000
00000000
00100000
00001000
00100000
00010000
01000000
00000000
00010000
00000000
10000000
01000000
00000000
00000000
10000000
00000000
,  // measure 29
10100000
00000000
10010000
00000000
00100000
00000000
00001000
00000000
00010000
00000000
00000100
00000000
00010000
00000000
00001000
00020000
,  // measure 30
00000000
00000000
00000000
00000000
00000100
00000000
00000000
00000000
00031000
00000000
00010000
00001000
00010000
00000000
00000000
00000000
,  // measure 31
00000100
00001000
00000010
00000100
00000001
00001000
00000100
00000010
,  // measure 32
00000100
00000000
00000000
00001000
00000000
00000000
00000100
00000000
00010000
00000000
00001000
00000000
00100000
00000000
00000000
00000000
,  // measure 33
01000000
00000000
00100000
00000000
00001000
00000000
00010000
00000000
00001000
00000000
00000000
00100000
00010000
00000000
01000000
00000000
,  // measure 34
00100000
00000000
10000000
00000000
00010000
00000000
00100000
00000000
00001000
00000000
00000000
00000100
00000001
00000000
00000100
00000000
,  // measure 35
00001000
00010000
00100000
10000000
00100000
00010000
00001000
00000010
,  // measure 36
00000001
00001010
00011000
01010000
,  // measure 37
10000000
00000000
00010000
00000000
00100000
00000000
00001000
00000000
00010000
00000100
00000000
00001000
00000000
00000010
00000000
00000100
,  // measure 38
00000010
00000000
00001000
00000000
00000001
00000000
00000010
00000000
00000100
00000000
00001000
00000000
00000100
00010000
00000000
00001000
,  // measure 39
00100000
00010000
01000000
00010000
10000000
01000000
00010000
00001000
,  // measure 40
00000100
00000000
00000001
00000100
00000001
00000000
00001000
00000000
00000010
00000000
00010000
00000000
00001000
00000000
00100000
00000000
,  // measure 41
00110000
00000000
01000000
00010000
10000000
01000000
10000000
00010000
,  // measure 42
01000000
00000000
00010000
00100000
00000000
01000000
00000000
00010000
01000000
00000000
10000000
00000000
00010000
00000000
00100000
00001000
,  // measure 43
00100000
00000000
00001000
00000000
00010000
00000000
00000010
00000000
00000010
00000000
00001000
00000000
00000010
00000000
00010000
00000100
,  // measure 44
00010000
00000100
00001000
00000001
00000010
00000100
00000110
00000000
,  // measure 45
00000001
00000000
00000100
00000000
00001000
00000000
00010000
00000000
00001000
00100000
00000000
00001000
00000000
00010000
00000000
01000000
,  // measure 46
00010000
00000000
01000000
00000000
10000000
00000000
00010000
00000000
00100000
00000000
00001000
00000000
00100000
00010000
00000000
00010000
,  // measure 47
00100000
00001000
00100000
00001000
00000100
00000010
00000100
00000001
,  // measure 48
00001000
00000000
00000010
00010000
00001000
00000000
00010000
00000000
00000100
00000000
00001000
00000000
00010000
00000000
01000000
00000000
,  // measure 49
10010000
00000000
00100000
00010000
01000000
00010000
00100000
00001000
,  // measure 50
00010000
00000000
00000100
00010000
00000000
00010000
00000000
00000100
00001000
00000000
00000010
00000000
00000100
00000000
00000001
00000000
,  // measure 51
00000011
00000000
00000000
00000000
00001010
00000000
00000000
00000000
00010000
00000000
00000100
00000000
00010000
00000000
00001000
00010000
,  // measure 52
00000100
00000000
00000000
00011000
00000000
00000000
00110000
00000000
00000000
00011000
00000000
00000000
00001100
00000000
00000010
00000000
,  // measure 53
00001000
00000000
00000001
00000000
00001000
00000100
00000000
00000010
00000000
00000000
00000100
00000000
00001000
00000000
00000010
00000000
,  // measure 54
00010000
00000000
00000100
00000000
00010000
00000000
00001000
00000000
00100000
00001000
00100000
00001000
00000000
00000000
00010000
00000000
,  // measure 55
01000000
10000000
00010000
10000000
00100000
01000000
00010000
00200000
,  // measure 56
00001000
00302000
00010000
00013000
00000100
00001000
00001000
00000001
,  // measure 57
00001001
00000000
00000100
00000001
00000100
00000000
00000010
00000100
00000010
00000000
00001000
00000010
00001000
00000000
00000100
00010000
,  // measure 58
00000100
00010000
00001000
00100000
00010000
00100000
01000000
10000000
,  // measure 59
00010000
00100000
01000000
00100000
00010000
00100000
00001000
00010000
,  // measure 60
00010100
00000000
00000000
00101000
00000000
00000000
00010100
00000000
00000000
00011000
00000000
00000000
01010000
00000000
10000000
00000000
,  // measure 61
10010000
10000000
01000000
00100000
01000000
00100000
00010000
00100000
,  // measure 62
00010000
00001000
00010000
00001000
00000100
00001000
00000100
00000010
,  // measure 63
00000100
00000010
00000001
00000010
00000100
00001000
00000100
00001000
,  // measure 64
00010000
00001000
00000100
00001000
00000100
00000010
00000100
00000010
;

//---------------dance-double - ----------------
#NOTES:
     dance-double:
     :
     Medium:
     6:
     0.361,0.426,0.089,0.080,0.031:
00000000
00000000
00000000
00000000
,
00100000
00000000
00000000
00001000
00000000
00000000
00100000
00000000
00000000
00001000
00000000
00000000
00100000
00000000
00010000
00000000
,
01000000
00010000
00100000
01000000
,
10000000
00000000
00010000
00000000
00100000
00000000
00001000
00010000
,
00000100
00001000
00000010
00001000
,
00000100
00010000
00002000
00000100
,
00013000
00001000
00100000
00010000
,
00001000
00000000
00000100
00000000
00001000
00000000
00000010
00010000
,
00000100
00001000
00000100
00010000
,
00002000
00000000
00000000
00203000
00000000
00000000
00320000
00000000
,
01030000
00000000
00000000
00000000
,
00010000
00000000
00010000
00000000
00010000
00100000
00010000
00000000
,
10000000
00000000
01000000
00000000
00100000
00000000
01000000
00100000
,
00001000
01000000
00010000
00000000
,
00100000
00001000
00100000
00000000
,
00001000
00000000
00010000
00000000
00000010
00001000
00000010
00000000
,
00000100
00000001
00001000
00000000
,
00000010
00000100
00000010
00001000
,
00000100
00001000
00000001
00000000
00000100
00000000
00001000
00000000
,
00000100
00000000
00000010
00000000
00001000
00000100
00010000
00001000
,
00100000
00001000
00010000
00000000
,
00001000
01000000
00010000
00100000
,
00001000
00010000
01000000
00000000
,
10000000
00000000
10000000
00000000
00100000
00000000
01000000
00100000
,
01000000
00010000
00100000
00000000
,
00001000
00100000
00001000
00010000
,
00000200
00000000
00002300
00000000
,
00003010
00000000
00000100
00000000
00000001
00000100
00000001
00000000
,
00001000
00000000
00000100
00000000
00000000
00000000
00000000
00000000
00000000
00000000
00000000
00000000
00010000
00000000
00000000
00001000
,
00000000
00000000
00000000
00000000
00100000
00001000
00010000
00000000
,
00000010
00000100
00000010
00001000
,
00000001
00000000
00000010
00000100
00000010
00000000
00000100
00000000
,
00010000
00000100
00010000
00000000
,
00001000
00000000
00100000
00000000
00001000
00000000
01000000
00010000
,
00100000
00000000
00001000
00010000
02000000
00000000
03000000
00000000
,
11000000
11000000
00110000
00110000
,
10010000
00000000
01000000
00000000
00010000
00000000
00100000
00010000
,
01000000
00000000
00010000
00000000
01000000
00000000
00001000
00010000
,
00001000
00000100
00000010
00000100
,
00000001
00000010
00000100
00000000
00001000
00000000
00000001
00000000
,
00001001
00000000
00010000
00001000
,
00010000
00000100
00010000
00000000
00001000
00000000
01000000
00010000
,
00010000
00000000
10000000
00000000
10100000
00000000
00000000
00010000
,
00010000
01000000
00120000
01030000
,
00001000
00000000
00100000
00000000
00001000
00100000
00010000
00000000
,
00001000
00000000
00000010
00000000
00000001
00000000
00000100
00000010
,
00001000
00000000
00000100
00000010
00000001
00000000
00000010
00000000
,
00000200
00010000
00001000
00010300
,
00010100
00000000
00100000
00010000
,
00001000
00010000
00100000
00000000
,
00010000
10000000
01000000
00100000
,
01000000
00000000
00000000
00100000
00000000
00000000
00010000
00000000
00000000
00100000
00000000
00000000
00001000
00000000
00010000
00000000
,
00000010
00001000
00000100
00001000
,
00000001
00000000
00000010
00000000
00000001
00000100
00000000
00000000
,
00000010
00000000
00000100
00000000
00001000
00000000
00000100
00000010
,
00000000
00001000
00000100
00000000
00010000
00000000
00001000
00000000
,
00011000
00100000
00001000
00100000
,
00010000
01000000
00010000
00001000
,
00010000
00000000
01000000
00000000
00100000
00000000
01000000
00010000
,
00100000
00000000
00000000
00010000
00000000
00000000
01000000
00000000
00000000
00010000
00000000
00000000
00100000
00000000
00001000
00000000
,
00010000
00001000
00000100
00000001
,
00000010
00000100
00001000
00000010
,
00000100
00000001
00000010
00001000
,
00000010
00000000
00000001
00000000
00000100
00001000
00010000
00100000
;

//---------------dance-double - ----------------
#NOTES:
     dance-double:
     :
     Easy:
     3:
     0.277,0.283,0.124,0.169,0.000:
00000000
00000000
00000000
00000000
,
00100000
00010000
00100000
00110000
,
01000000
00010000
00100000
00000000
,
00001000
00010000
00001000
00000000
,
00100000
00001000
00010000
00000100
,
00001000
00000000
00000002
00000000
,
00000013
00000001
00000100
00000000
,
00000010
00000100
00000001
00000010
,
00000100
00001000
00000010
00000000
,
00010000
00000100
00010000
00001000
,
00022000
00000000
00000000
00033000
,
00001000
00010000
00001000
00011000
,
00001000
00100000
00010000
00000000
,
01000000
00010000
10000000
00000000
,
00010000
00100000
01000000
00000000
,
00100000
00000000
01000000
00100000
,
00010000
00100000
00001000
00000000
,
00010000
00000000
00000100
00001000
,
00000200
00000000
00020300
00000000
,
00031000
00001000
00010000
00000010
,
00001001
00000100
00000100
00000000
,
00000001
00000001
00000010
00000000
,
00000100
00001000
00000010
00000000
,
00001000
00000000
00000100
00010000
,
00000100
00000000
00001000
00000000
,
00010000
01000000
10000000
01000000
,
00200000
00000000
20300000
00000000
,
30010000
00100000
00010000
00010000
,
01010000
00000000
00000000
00001000
,
00011000
00000000
00000000
00001100
,
00000001
00000100
00000010
00010000
,
00001000
00001000
00001000
00000000
,
00200000
00000000
00310000
01000000
,
00200000
00000000
10300000
00010000
,
01000000
00000000
00010000
00000000
,
00100000
00100000
00001000
00001000
,
00011000
00000000
00000100
00010000
,
00000100
00000000
00001000
00000010
,
00001000
00000100
00010000
00000000
,
00002000
00200000
00000000
00303000
,
00101000
00100000
00100000
00000000
,
00010000
00100000
01000000
00000000
,
10000000
00100000
00010000
00001000
,
00000100
00000001
00000000
00001001
,
00000010
00000100
00000010
00000000
,
00001000
00000100
00001000
00010000
,
00100000
00000000
00010000
01000000
,
00020000
00200000
00000000
00330000
,
10010000
10000000
00100000
00000000
,
01000000
00010000
00100000
00000000
,
00001000
00010000
00001000
00000100
,
00000020
00000000
00000030
00001001
,
00000100
00000100
00000010
00000000
,
00001000
00000100
00000020
00000031
,
00000001
00000100
00000010
00000000
,
00002000
00000200
00000000
00003300
,
00001000
00000100
00001000
00010000
,
01000000
00100000
01000000
00010000
,
10000000
01000000
00100000
00010000
,
00002000
00000000
00020000
00033000
,
00011000
00000000
00000000
00000000
,
00010000
00000000
00000000
00000000
,
00001000
00000000
00000000
00000000
,
00000100
00000000
00000000
00001010
;
