#TITLE:The Zoo Zone;
#SUBTITLE:;
#ARTIST:Mystic Moon;
#TITLETRANSLIT:;
#SUBTITLETRANSLIT:;
#ARTISTTRANSLIT:;
#GENRE:;
#CREDIT:;
#MENUCOLOR:;
#METERTYPE:DDR;
#BANNER:The Zoo Zone-bn.png;
#BACKGROUND:The Zoo Zone-bg.png;
#LYRICSPATH:;
#CDTITLE:TUNE STREET-cdtitle.png;
#MUSIC:The Zoo Zone.mp3;
#OFFSET:-1.020;
#SAMPLESTART:13.760;
#SAMPLELENGTH:12.760;
#SELECTABLE:YES;
#LISTSORT:;
#BPMS:0.000=160.000;
#STOPS:;
#BGCHANGES:;
#ATTACKS:;

//---------------dance-single - ----------------
#NOTES:
     dance-single:
     :
     Challenge:
     10:
     0.719,0.714,0.334,0.204,0.459:
0000
0000
0000
0000
,
0000
0000
0000
0000
,
0000
0000
0000
0000
,
0000
0000
0000
0000
0000
0000
0000
0000
0000
0000
0000
0001
1000
0000
0000
0000
,
0110
0000
1000
0100
0000
1000
0000
0001
0000
0000
0010
0100
0010
0000
0100
0000
,
1000
0000
0001
0100
0000
0010
0000
0100
0000
0000
0001
1000
0100
0000
1000
0000
,
0010
1000
0100
1000
0001
0010
0001
0010
,
0100
1000
0100
0000
0010
0001
0010
0000
0001
0100
0001
0100
0010
1000
0010
1000
,
0000
0000
0000
0000
0000
0000
0000
0000
0000
0000
0001
0010
0100
1000
0001
0000
,
1001
0000
0010
0000
0001
0100
0001
0000
1000
0000
0010
0100
0000
0010
1000
0000
,
0100
0000
1000
0000
0100
0010
0000
0010
0001
0000
0100
0000
0010
0000
1000
0000
,
0001
0000
0010
0000
0100
0010
0000
0010
1000
0000
0010
0000
0001
0000
0100
0000
,
1000
0000
0100
0000
0010
1000
0000
1000
0001
0000
1000
0100
0010
0001
0010
0000
,
1001
0000
0100
0000
0010
1000
0010
0000
0100
0000
0010
0100
0000
0001
0100
0000
,
0010
0000
1000
0000
0001
0010
0000
0010
0001
0000
1000
0000
0100
0000
0010
0000
,
0001
0000
0100
0000
0010
1000
0000
0100
1000
0000
0010
0000
0100
0000
0001
0000
,
1000
0000
0100
0000
0010
0000
0001
0000
1000
0000
0000
0010
1000
0000
0001
0100
,
0001
0000
2001
0000
3100
1000
0010
0100
,
0010
0000
1000
0000
0100
0010
0000
0001
0100
0000
0010
0000
0100
0000
0001
0000
,
1000
0000
0100
0000
1000
0100
0000
0010
0001
0000
0100
0000
0010
0000
0100
0000
,
0001
0000
0100
0000
0010
0100
0000
0010
1000
0000
0010
0000
0100
0000
0000
0000
,
1001
0000
0210
0000
0310
1000
0100
0010
,
0100
0000
0001
0000
0100
1000
0000
1000
0100
0000
0010
0000
0001
0000
0100
0000
,
0010
0000
0001
0000
0010
0100
0000
0010
0100
0000
0001
0000
0100
0000
0101
0000
,
0000
1100
0000
1001
0000
0110
1000
0001
,
0101
1000
0200
0000
1300
0010
0100
0101
,
0010
0001
0020
0000
0130
1000
0010
0110
,
1000
0100
2000
0000
3001
0100
0010
1010
,
0001
0000
0100
0000
0002
0000
0000
0000
0013
0000
0000
0001
0000
0000
1001
0000
,
0100
0000
0010
0000
2000
0000
0000
0000
3001
0000
0000
0010
0000
0000
0101
0000
,
1000
0000
0100
0000
0020
0000
0000
0000
0130
0000
0000
0010
0000
0000
1100
0000
,
1000
0001
1000
0010
0100
0001
0010
0100
,
1000
0000
0010
0000
0100
0000
0001
0000
0100
0010
0100
0001
0100
0010
0100
0001
,
0200
0000
1000
0000
0000
0010
0000
0000
,
0001
0000
0000
0010
0000
0000
1000
0000
,
0320
0000
1000
0000
0000
0100
0000
0000
,
0001
0000
0000
0100
0000
0000
1030
0000
,
1001
0000
0020
0000
0000
0100
0000
0000
,
1000
0000
0000
0100
0000
0000
0001
0000
,
0230
0000
0001
0000
0000
0010
0000
0000
,
1000
0000
0000
0310
1001
0000
0000
0120
,
0000
0000
0000
0130
0000
0000
0001
0000
0010
0000
0100
0000
1000
0000
0000
0010
0000
0000
0100
0000
0000
0102
0000
0000
,
0000
0000
0000
0013
0000
0000
0001
0000
0100
0000
0001
0000
0010
0000
0000
0001
0000
0000
0001
0000
0000
0210
0000
0000
,
0000
0000
0000
0310
0000
0000
1000
0000
0100
0000
0010
0000
0001
0000
0000
0100
0000
0000
0010
0000
0000
2001
0000
0000
,
0000
0000
0000
3001
0000
0000
1000
0000
0010
0000
0100
0000
0001
0000
0000
0010
0000
0000
0001
0000
0000
1000
0000
0000
,
1001
0010
2000
0000
3100
1000
0001
0010
,
0001
0001
0200
0000
0310
0100
0001
0010
,
0001
0100
1000
0100
0001
0010
1000
0010
,
0001
0000
0100
0001
0100
0000
0010
1000
0010
0000
1000
0100
1000
0100
0010
0001
,
0200
0000
0000
0000
,
0010
0000
0000
0000
0010
0000
0000
0000
0310
0000
1000
0001
1000
0001
1000
0000
,
0110
0000
1000
0000
0001
0100
0001
0000
1000
0000
0010
0100
0000
0001
0100
0000
,
0010
0000
1000
0000
0001
0000
0010
0000
0100
0000
1000
0010
0000
1000
0010
0000
,
0100
0001
1000
0010
1000
0100
1000
0001
,
0010
0000
0100
0000
1000
0000
0001
0000
0100
0000
0010
1000
0010
1000
0010
0000
,
1001
0000
0010
0000
0001
0010
0001
0000
1000
0000
0001
0010
0000
0100
1000
0000
,
0010
0000
0100
0000
0001
0000
1000
0000
0010
0000
1000
0100
0000
1000
0010
0000
,
0100
0001
0010
0001
0100
1000
0100
1001
,
0000
0110
0000
1001
0000
0020
2000
0030
,
3001
0000
1000
0000
0100
0000
0010
0000
0100
1000
0000
0010
0100
0000
0001
0000
,
1000
0000
0010
0000
0100
0000
0001
0000
1000
0010
0000
0100
0001
0000
0100
0000
,
0010
0100
0010
0000
1000
0000
0001
0000
0010
0100
0000
1000
0100
0000
2000
0000
,
0001
0000
3001
0000
0100
0000
0000
0000
0001
0000
0001
0100
0000
0100
0010
0000
,
1010
0000
1000
0000
1001
0000
0101
0000
0110
0000
1000
0001
0000
1000
0001
0000
,
0100
0000
0001
0000
0001
0000
1000
0000
0010
1000
0000
1000
0100
0000
0010
0000
,
0001
1000
0001
0000
0100
0000
0010
0000
0100
0001
0000
0001
1000
0000
0001
0000
,
1000
0000
0100
0000
1000
0010
1000
0000
0101
0000
0000
1010
0000
0000
0100
0000
,
1001
0000
0000
0000
;

//---------------dance-single - ----------------
#NOTES:
     dance-single:
     :
     Hard:
     8:
     0.539,0.497,0.167,0.222,0.139:
0000
0000
0000
0000
,
0000
0000
0000
0000
,
0000
0000
0000
0000
,
0000
0000
0000
0110
,
1001
0100
0010
0100
,
0001
1000
0010
1000
,
1001
0001
0010
0000
1001
1000
0010
0000
,
0100
0010
0100
0010
1000
0100
0010
0001
,
0000
0000
0000
0000
0000
0000
0000
0000
0000
0000
0010
0000
1000
0001
1000
0000
,
0001
0000
0010
0000
0001
0000
0000
0000
0100
0000
0000
0010
0000
0000
0100
0000
,
0000
0010
1000
0001
0010
0001
0100
0010
,
0000
0100
1000
0100
0001
1000
0010
1000
,
0000
0000
0001
0000
0010
0000
0001
0000
1000
0000
0100
0000
1000
0001
1000
0000
,
0000
0000
0001
0000
0010
0000
0001
0000
1000
0000
0000
0010
0000
0000
0100
0000
,
0000
0001
1000
0100
1000
0010
1000
0100
,
0000
1000
0010
0100
0001
0010
0001
1000
,
0010
0000
0010
0000
0010
0000
0100
0000
0010
0000
0000
0100
0010
0000
1000
0000
,
1002
0000
0100
0000
1003
0001
0100
0001
,
0000
0010
0100
1000
0010
0100
0010
0001
,
0000
0010
0100
0001
0010
0100
1000
0001
,
0000
0010
0001
1000
0100
0100
1000
0000
,
1020
0000
0001
0000
0130
0010
1000
0100
,
0000
1000
0001
0010
0100
1000
0001
0010
,
0000
0001
0100
0010
0100
0001
1000
0020
,
0000
0230
0000
0302
0000
0013
0001
1000
,
0010
0100
0020
0000
1030
0100
1000
0002
,
0000
1003
0020
0000
0130
0010
1000
0200
,
0000
1300
0200
0000
0310
0100
0010
0002
,
0000
0000
0103
0000
2000
0000
0000
0000
3100
0000
0000
0001
0000
0000
1001
0000
,
0010
0000
0100
0000
0001
0000
0000
0000
1000
0000
0000
0010
0000
0000
0100
0000
,
0001
0000
1000
0000
0001
0000
0000
0000
0010
0000
0000
0100
0000
0000
1000
0000
,
0001
0000
0000
0010
0000
0000
0100
0000
1000
0000
0000
0001
0000
0000
0010
0000
,
0001
1000
0001
1000
0010
0100
0010
1000
,
0002
0000
1000
0000
0000
0100
0000
0000
,
1000
0000
0000
0010
0000
0000
1003
0000
,
2001
0000
0010
0000
0000
0001
0000
0000
,
0100
0000
0000
0010
0000
0000
3001
0000
,
0210
0000
0001
0000
0000
1000
0000
0000
,
0010
0000
0000
0001
0000
0000
0310
0000
,
0120
0000
1000
0000
0000
0100
0000
0000
,
0001
0000
0000
0130
1001
0000
0000
0020
,
0000
0000
0000
1030
0000
0000
0001
0000
1000
0000
0001
0000
1000
0000
0000
0010
0000
0000
0000
0000
0000
0200
0000
0000
,
0000
0000
0000
0310
0000
0000
1000
0000
0001
0000
1000
0000
0001
0000
0000
0010
0000
0000
0000
0000
0000
0002
0000
0000
,
0000
0000
0000
1003
0000
0000
0010
0000
0100
0000
0010
0000
0100
0000
0000
0001
0000
0000
0000
0000
0000
2000
0000
0000
,
0000
0000
0000
3001
0000
0000
0100
0000
0010
0000
0100
0000
0010
0000
0000
1000
0000
0000
0000
0000
0000
0001
0000
0000
,
1000
0100
1000
0000
0010
0100
0001
1000
,
0010
0000
1000
0100
0001
0100
1000
0001
,
0010
0001
0010
0001
1000
0100
1000
0100
,
1000
0010
0100
0001
1000
0001
0010
0100
,
2002
0000
0000
0000
,
0000
0000
0000
3003
0000
1000
0100
0010
,
1001
0000
0001
0000
0001
0000
0000
0000
1000
0000
0000
0100
0000
0000
0010
0000
,
0000
0000
0001
0000
0100
0000
0010
0000
1000
0000
0000
0001
0000
0000
0001
0000
,
1000
0100
1000
0100
0001
0100
0001
0100
,
1000
0000
0001
0000
0100
0010
1000
0001
,
0100
0000
0010
0000
0010
0000
0000
0000
0100
0000
0000
0001
0000
0000
1000
0000
,
0100
0000
1000
0000
0010
0000
0000
0000
0100
0000
0000
0010
0000
0000
1000
0000
,
0001
0000
0010
0000
0100
0000
1000
0200
,
0000
2300
0000
3010
0000
0100
0101
0000
,
1000
0000
0100
0000
1000
0000
0010
0000
0100
0000
0000
0010
0000
0000
0100
0000
,
0000
0000
0001
0000
0010
0000
0001
0000
0100
0000
0000
0001
0000
0000
0010
0000
,
0000
0000
0100
0000
1000
0000
0010
0000
1000
0000
0000
0100
0000
0000
0100
0000
,
0000
0000
0000
0000
1100
0000
0000
0000
0001
0000
0000
0010
0000
0000
0100
0000
,
1000
0000
1000
0000
0001
0000
0001
0000
0100
0000
0000
0010
0000
0000
0100
0000
,
0000
0000
0001
0000
0010
0000
0100
0000
0010
0000
0000
0100
0000
0000
1000
0000
,
0000
0000
0010
0000
0100
0000
0010
0000
1000
0000
0000
0001
0000
0000
0100
0000
,
0000
0000
0000
0000
1010
0000
0000
0000
0011
0000
0000
0100
0000
0000
0010
0000
,
1100
0000
0000
0000
;

//---------------dance-single - ----------------
#NOTES:
     dance-single:
     :
     Medium:
     6:
     0.449,0.466,0.167,0.343,0.051:
0000
0000
0000
0000
,
0000
0000
0000
0000
,
0000
0000
0000
0000
,
0000
0000
0000
1100
,
0011
1000
0010
0100
,
0001
0010
0001
1000
,
1001
0100
1001
0010
,
0001
0000
0100
0000
0010
1000
0010
0100
,
0000
0000
0000
0000
0000
0100
0100
1000
,
1001
0000
0000
0000
1000
0000
0000
0000
0010
0000
0000
1000
0000
0000
0001
0000
,
0000
0000
0010
0000
0001
0100
0001
0000
,
1000
0000
1100
0000
0010
0100
0010
0000
,
0100
0000
1001
0000
0010
0001
0010
0001
,
0100
0000
0000
0000
0010
0000
0000
0000
1000
0000
0000
1000
0000
0000
0100
0000
,
0000
0000
0010
0000
0001
0100
0001
0000
,
1000
0000
0110
0000
1000
0100
1000
0000
,
0010
0100
0010
0100
0010
0000
1001
0000
,
0210
0000
0301
0000
1000
0100
0010
0001
,
0000
0000
0100
0000
0010
0000
1000
0100
,
0000
0000
1000
0000
0001
0000
0010
0100
,
0000
0000
0010
0000
0001
1000
0001
0000
,
0120
0000
1030
0000
0001
0010
0100
1000
,
0000
0000
0001
0000
1000
0000
0100
0010
,
0000
0000
1000
0000
0010
0000
0001
0100
,
0000
0100
0000
0010
0000
0010
1000
0010
,
0001
0000
0010
0000
0100
0001
0000
1000
,
0000
0000
1000
0000
0010
1000
0000
0001
,
0000
0000
0010
0000
0001
0100
0000
0001
,
0000
0000
1000
0000
0100
0000
0000
0000
1000
0000
0000
1000
0000
0000
0001
0000
,
0010
0000
0000
0000
0001
0000
0000
0000
0100
0000
0000
0010
0000
0000
0100
0000
,
0000
0000
0000
0000
1001
0000
0000
0000
0010
0000
0000
0010
0000
0000
1000
0000
,
0001
0000
0000
0001
0000
0000
0100
0000
0010
0000
0000
0010
0000
0000
1000
0000
,
0001
1000
0001
0100
,
2001
0000
3020
0000
0000
0230
0000
0000
,
0302
0000
0000
0023
0000
0000
0230
0000
,
0302
0000
0203
0000
0000
2300
0000
0000
,
3020
0000
0000
0230
0000
0000
0301
0000
,
1002
0000
0203
0000
0000
0320
0000
0000
,
2030
0000
0000
3200
0000
0000
0302
0000
,
2003
0000
3020
0000
0000
0032
0000
0000
,
2003
0000
0000
3010
1002
0000
0000
0103
,
0000
0001
2000
0000
3100
0000
0000
0020
,
0000
0031
0200
0000
0310
0000
0000
2000
,
0000
3001
0200
0000
0301
0000
0000
2000
,
0000
3100
0002
0000
0103
0000
0000
1000
,
0100
0000
1000
0000
0010
0000
0100
0001
,
0100
0000
0010
0000
1000
0000
0001
0010
,
0200
2300
3020
0230
,
0301
0000
0100
0000
0001
0100
0001
1000
,
0020
0000
0000
0000
,
0100
0000
0100
0000
0130
0010
1000
0000
,
1001
0000
0000
0000
0010
0000
0000
0000
1000
0000
0000
0001
0000
0000
1000
0000
,
0000
0001
0010
0001
,
0100
0010
0100
0010
0100
0000
0001
0000
,
1000
0100
1000
0100
1000
0100
0100
0000
,
1001
0000
0000
0000
1000
0000
0000
0000
0001
0000
0000
0010
0000
0000
0001
0000
,
0000
0100
0010
1000
,
0001
0010
0001
0010
0001
0000
1000
0100
,
0000
0100
0000
0010
0000
0001
0002
0000
,
1003
1000
0100
0100
0010
0000
0001
0000
,
0000
0100
0100
0010
0010
0000
1000
0000
,
0000
0001
0001
0010
0010
0000
0001
0000
,
0000
0000
0000
0000
0100
0000
0000
0000
0010
0000
0000
1000
0000
0000
0001
0000
,
0100
0100
0100
0010
0100
0000
0010
0000
,
0000
1000
1000
0001
0001
0000
0010
0000
,
0000
0100
0100
1000
1000
0000
0001
0000
,
0000
0000
0000
0000
0110
0000
0000
0000
1000
0000
0000
0100
0000
0000
0010
0000
,
0001
0000
0000
0000
;

//---------------dance-single - ----------------
#NOTES:
     dance-single:
     :
     Beginner:
     1:
     0.134,0.217,0.120,0.139,0.000:
0000
0000
0000
0000
,
0000
0000
0000
0000
,
0000
0000
0000
0000
,
0000
0000
0000
0001
,
0001
0000
0000
0000
,
0000
0000
0000
0000
,
0100
0000
0100
0000
,
0200
0000
0000
0000
0000
0000
0000
0300
,
0000
0000
0010
0000
,
1001
0000
0000
0000
,
1000
0000
0000
0000
,
0010
0000
0000
0000
,
0100
0000
0001
0000
,
1001
0000
0000
0000
,
1000
0000
0000
0000
,
0100
0000
0000
0000
,
0010
0000
0100
0100
,
0100
0000
0000
0000
,
1000
0000
0000
0000
,
0001
0000
0000
0000
,
0100
0000
0010
0000
,
0110
0000
0000
0000
,
0100
0000
0000
0000
,
0002
0000
0000
0000
0000
0000
0000
0003
,
0000
0000
0000
0000
,
1001
0000
0000
0000
,
0010
0000
0000
0000
,
0100
0000
0000
0000
,
0001
0000
0000
0000
,
1000
0000
0000
0000
,
0100
0000
0000
0000
,
0010
0000
0010
0000
,
0001
0000
0001
0000
,
2002
0000
0000
0000
,
0000
0000
0000
3003
,
0000
1000
1000
0000
,
0001
0000
0000
0000
,
0220
0000
0000
0000
,
0000
0000
0000
0330
,
0000
0010
0000
0010
,
0000
0000
0100
0000
,
0000
1001
0000
0000
,
0000
0110
0000
0000
,
0000
1001
0000
0000
,
0000
0110
0000
0000
,
0001
0000
0000
0000
,
1000
0000
0000
0000
,
0010
0000
0000
0000
,
0100
0000
0100
0000
,
0200
0000
0000
0000
,
0300
0000
0001
0000
,
1001
0000
0000
0000
,
0100
0000
0000
0000
,
0010
0000
0000
0000
,
1000
0000
0001
0000
,
1001
0000
0000
0000
,
0010
0000
0000
0000
,
0200
0000
0000
0000
0000
0000
0000
0300
,
0000
0000
0000
0000
,
2000
0000
3000
0000
,
0020
0000
0030
0000
,
0200
0000
0300
0000
,
0001
0000
0001
0000
,
0220
0000
0330
0000
,
0002
0000
0003
0000
,
2000
0000
3000
0000
,
0100
0000
0100
0000
,
0100
0000
0000
0000
;

//---------------dance-single - ----------------
#NOTES:
     dance-single:
     :
     Easy:
     4:
     0.327,0.404,0.204,0.260,0.000:
0000
0000
0000
0000
,
0000
0000
0000
0000
,
0000
0000
0000
0000
,
0000
0000
0000
1000
,
1001
0010
0100
0001
,
0010
0100
1000
0010
,
1001
0000
0110
0000
,
0001
0010
0100
1000
,
0000
0000
0000
0001
,
0010
0000
0001
0000
,
1000
0100
1000
0000
,
0010
0000
0100
0010
,
0000
1000
0100
0010
,
0000
0001
0010
0001
,
0000
0100
0010
1000
,
0000
0001
0010
0001
,
0100
0100
0100
0010
,
1001
0000
1000
0001
,
0000
0010
0001
1000
,
0000
0010
0100
0010
,
0000
1000
0100
1000
,
0001
0001
0010
0100
,
0000
0010
0001
1000
,
0000
0100
1000
0020
,
0000
0000
0030
1001
,
0100
0010
2000
0000
,
3010
0100
0002
0000
,
0013
0100
0020
0000
,
0130
1000
1000
0001
,
0110
0000
1000
0010
,
1001
0000
0001
0100
,
0020
1030
2000
3100
,
1000
0001
0010
0100
,
2001
0200
0000
3000
,
0000
0020
0330
0001
,
1000
0002
0020
0033
,
0001
0100
1000
0010
,
1001
0000
0100
0000
0000
2000
0200
0000
,
0000
3300
1000
0001
,
0100
0000
0010
0000
0000
0002
0200
0000
,
0303
0001
2002
3003
,
0010
0220
0330
1000
,
0001
0202
0303
1000
,
0010
2020
3030
0001
,
1000
0022
0033
0100
,
0010
1000
0001
0000
,
0010
0001
1000
0010
,
0100
0010
1000
0001
,
0010
0001
0010
0100
,
2000
0000
0000
0000
,
0001
0001
3001
0110
,
1001
1000
0010
0000
,
0100
0010
0100
0000
,
0001
0010
0100
1000
,
0001
0010
0200
0310
,
1001
1000
0100
0000
,
1000
0010
0100
0000
,
0010
1000
0010
0200
,
0000
0000
0300
1001
,
0010
0001
0100
0000
,
0010
1000
0001
0000
,
0100
0010
0100
0000
,
0010
1000
0100
0010
,
1001
0110
1001
0000
,
0010
1000
0001
0000
,
1000
0001
0100
0010
,
0000
0100
0001
1000
,
1001
0000
0000
0000
;

//---------------dance-double - ----------------
#NOTES:
     dance-double:
     :
     Challenge:
     10:
     0.683,0.621,0.352,0.167,0.357:
00000000
00000000
00000000
00000000
,
00000000
00000000
00000000
00000000
,
00000000
00000000
00000000
00000000
,
00000000
00000000
00000000
00000000
00000000
00000000
00000000
00000000
00000000
00000000
00000000
00000001
00000010
00000000
00000000
00000000
,
00001100
00000000
00000000
00000010
00000000
00010000
00000000
00000100
00000000
00000000
00010000
00001000
00010000
00000000
01000000
00000000
,
10000000
00000000
00000000
00100000
00000000
01000000
00000000
00010000
00000000
00000000
10000000
01000000
00100000
00000000
01000000
00000000
,
11000000
01000000
00010000
00000000
01010000
00010000
00001000
00000000
,
00010000
00000000
00000100
00000000
00001000
00000000
00000010
00000000
00000100
00000000
00000001
00000010
00000001
00000010
00000100
00001000
,
00000000
00000000
00000000
00000000
00000000
00000000
00000000
00000000
00000000
00000000
00000100
00010000
00000100
00001000
00000100
00000000
,
00010000
00000000
00001000
00000000
00100000
00010000
00100000
00000000
00010000
00000000
00000000
01000000
00000000
00000000
00100000
00000000
,
10000000
00000000
00100000
00000000
01000000
00010000
00000000
00100000
00010000
00000000
00100000
00000000
00001000
00000000
00010000
00000000
,
00001000
00000000
00000100
00000000
00000010
00000100
00000000
00000010
00000100
00000000
00000001
00000000
00000010
00000000
00000100
00000000
,
00010000
00000000
00000100
00000000
00001000
00000000
00000100
00000000
00010000
00000000
00001000
00010000
00001000
00100000
00010000
00000000
,
01000000
00000000
00010000
00000000
10000000
01000000
10000000
00000000
00010000
00000000
00000000
00001000
00000000
00000000
00000100
00000000
,
00000010
00000000
00000100
00000000
00010000
00000100
00000000
00001000
00000100
00000000
00000010
00000000
00000100
00000000
00000010
00000000
,
00000001
00000000
00000100
00000000
00000010
00001000
00000000
00000010
00000100
00000000
00000010
00000000
00010000
00000000
00001000
00000000
,
00010000
00000000
00010000
00000000
00010000
00000000
00001000
00000000
00010000
00000000
00000000
00000100
00001000
00000000
00000100
00000000
,
00001100
00000000
00020100
00000000
00031000
00010000
01000000
10000000
,
00010000
00000000
00100000
00000000
00010000
00100000
00000000
00100000
00001000
00000000
00010000
00000000
00000100
00000000
00001000
00000000
,
00010000
00000000
00001000
00000000
00000100
00000010
00000000
00000100
00000001
00000000
00000100
00000000
00001000
00000000
00000010
00000000
,
00000100
00000000
00000010
00000000
00001000
00000100
00000000
00010000
00001000
00000000
00001000
00000000
00100000
00000000
00000000
00000000
,
01010000
00000000
00102000
00000000
00013000
00001000
00100000
00010000
,
10000000
00000000
00100000
00000000
01000000
00100000
00000000
10000000
01000000
00000000
00100000
00000000
00010000
00000000
00100000
00000000
,
00010000
00000000
00001000
00000000
00000100
00001000
00000000
00000100
00001000
00000000
00000010
00000000
00000100
00000000
00000011
00000000
,
00000000
00001010
00000000
00001100
00000000
00000011
00001000
00000010
,
00001100
00000010
00000200
00000000
00000310
00001000
00000001
00000110
,
00000001
00010000
00002000
00000000
00103000
01000000
00100000
00110000
,
10000000
00100000
02000000
00000000
13000000
01000000
00010000
01010000
,
00010000
00000000
01000000
00000000
00001000
00000000
00000000
00000000
10010000
00000000
00000000
00011000
00000000
00000000
00001001
00000000
,
00000001
00001000
00000100
00001000
00000010
00001000
00010000
02000000
,
00100000
03100000
10000000
01000000
00010000
00001000
00000010
00000001
,
00000100
00000010
00001000
00000010
00000100
00000010
00001000
00000010
,
00001000
00000000
00000100
00000000
00010000
00000000
01000000
00000000
10000000
00100000
10000000
00100000
01000000
00010000
10000000
00100000
,
01000000
00000000
01020000
00000000
00000000
00100000
00000000
00000000
,
00001000
00000000
00000000
01000000
00000000
00000000
00130000
00000000
,
00020010
00000000
00000100
00000000
00000000
00100000
00000000
00000000
,
00001000
00000000
00000000
00000001
00000000
00000000
00030100
00000000
,
00001020
00000000
00000001
00000000
00000000
00010000
00000000
00000000
,
00000100
00000000
00000000
00001000
00000000
00000000
00000130
00000000
,
00012000
00000000
00100000
00000000
00000000
00000010
00000000
00000000
,
00010000
00000000
00000000
00003100
00001000
00000000
00000000
00201000
,
00000000
00000000
00000000
00301000
00000000
00000000
00100000
00000000
00010000
00000000
10000000
00000000
01000000
00000000
00000000
00100000
00000000
00000000
00001000
00000000
00000000
00001200
00000000
00000000
,
00000000
00000000
00000000
00000301
00000000
00000000
00000010
00000000
00000001
00000000
00000010
00000000
00000100
00000000
00000000
00010000
00000000
00000000
00000010
00000000
00000000
00002010
00000000
00000000
,
00000000
00000000
00000000
00003100
00000000
00000000
00010000
00000000
00001000
00000000
01000000
00000000
00010000
00000000
00000000
10000000
00000000
00000000
00100000
00000000
00000000
01200000
00000000
00000000
,
00000000
00000000
00000000
10300000
00000000
00000000
01000000
00000000
00100000
00000000
00010000
00000000
10000000
00000000
00000000
00010000
00000000
00000000
00100000
00000000
00000000
00001000
00000000
00000000
,
00011000
00010000
00000100
00000000
00001000
00000010
00000100
00000001
,
00000010
00000100
00001000
00000100
00000000
00010000
00000010
00000100
,
00001000
00010000
01000000
10000000
00100000
00010000
00001000
00000100
,
00000001
00000000
00010000
00000000
00001000
00000000
10000000
00000000
00001000
00010000
00001000
00100000
00001000
00010000
00000100
00001000
,
00000200
00000000
00000000
00000000
,
00010000
00000000
00000000
00000000
00010000
00000000
00000000
00000000
00010300
00000000
00001000
00010000
00001000
00010000
00001000
00000000
,
00011000
00000000
00010000
00000000
00001000
00100000
00001000
00000000
01000000
00000000
00000000
00100000
00000000
00000000
10000000
00000000
,
00010000
00000000
00100000
00000000
01000000
00000000
10000000
00000000
00010000
00000000
00000000
00010000
00000000
00000000
00100000
00000000
,
00001000
00010000
00000100
00001000
00000010
00001000
00000010
00000001
,
00000010
00000000
00000100
00000000
00000001
00000000
00001000
00000000
00000100
00000000
00001000
00000010
00001000
00000001
00001000
00000000
,
00001100
00000000
00000100
00000000
00010000
00001000
00010000
00000000
01000000
00000000
00000000
00100000
00000000
00000000
00010000
00000000
,
10000000
00000000
00100000
00000000
00100000
00000000
01000000
00000000
00010000
00000000
00000000
10000000
00000000
00000000
00100000
00000000
,
00010000
00001000
00000100
00000001
00000100
00001000
00010000
00011000
,
00000000
01010000
00000000
10010000
00100000
02000000
00020000
03000000
,
00130000
00000000
00010000
00000000
00100000
00000000
00001000
00000000
00010000
00001000
00000000
00001000
00000100
00000000
00000010
00000000
,
00001000
00000000
00000100
00000000
00010000
00000000
00000100
00000000
00000010
00000001
00000000
00000001
00001000
00000000
00000100
00000000
,
00010000
00000000
00001000
00000000
00100000
00000000
00010000
00000000
01000000
00100000
00000000
00100000
10000000
00000000
00010000
00000000
,
01000000
00000000
00100000
00000000
20000000
00000000
00000000
00000000
30010000
00000000
00000000
10000000
00000000
00000000
00010000
00000000
,
00110000
00000000
00110000
00000000
00011000
00000000
00011000
00000000
00001100
00000000
00000000
00000010
00000000
00000000
00000001
00000000
,
00001000
00000000
00000100
00000000
00010000
00000000
00001000
00000000
00010000
01000000
00000000
01000000
10000000
00000000
00100000
00000000
,
10000000
01000000
00100000
00010000
01000000
00100000
00010000
00001000
,
00100000
00000000
00010000
00000000
00001000
00000000
00000100
00000000
00000010
00000000
00000000
00001000
00000000
00000000
00010000
00000000
,
00011000
00000000
00000000
00000000
;

//---------------dance-double - ----------------
#NOTES:
     dance-double:
     :
     Hard:
     8:
     0.536,0.497,0.250,0.185,0.134:
00000000
00000000
00000000
00000000
,
00000000
00000000
00000000
00000000
,
00000000
00000000
00000000
00000000
,
00000000
00000000
00000000
00110000
,
00101000
01000000
00010000
00100000
,
00001000
00000100
00000010
00001000
,
00001100
00001000
00010000
00000000
00011000
00010000
00100000
00000000
,
00010000
00100000
10000000
00100000
00010000
00001000
00000100
00000010
,
00000000
00000000
00000000
00000000
00000000
00000100
00000010
00000001
,
00001001
00000000
00000100
00000000
00000100
00000000
00000000
00000000
00000010
00000000
00000000
00010000
00000000
00000000
00000100
00000000
,
00000000
00010000
00001000
00010000
01000000
10000000
00100000
01000000
,
00000000
00010000
10000000
01000000
00100000
00001000
00100000
00010000
,
00000000
00000000
00001000
00000000
00000100
00000000
00001000
00000000
00000001
00000000
00000100
00000000
00000010
00001000
00000010
00000000
,
00000000
00000000
00001000
00000000
00000100
00000000
00010000
00000000
00000010
00000000
00000000
00001000
00000000
00000000
00000100
00000000
,
00000000
00010000
00001000
00010000
01000000
00100000
00010000
10000000
,
00000000
00100000
01000000
00001000
00010000
00001000
00000100
00000010
,
00001000
00000000
00001000
00000000
00001000
00000000
00000100
00000000
00010000
00000000
00000000
00001000
00100000
00000000
00001000
00000000
,
00011000
00000000
00010100
00000000
00001000
00000010
00000001
00000010
,
00000000
00000100
00000010
00001000
00001000
00000100
00010000
00001000
,
00000000
00100000
00010000
01000000
00010000
00001000
00000100
00000010
,
00000000
00000100
00010000
00000100
00010000
00001000
00010000
00000000
,
00011000
00000000
00101000
00000000
00010000
00100000
01000000
10000000
,
00000000
00100000
01000000
00010000
10000000
00100000
00010000
00001000
,
00000000
00010000
01000000
10000000
00100000
01000000
00010000
00100000
,
00000000
00110000
00000000
10010000
00000000
10000000
01000000
00010000
,
01000000
10000000
00010000
00000000
00100000
00001000
00010000
00000100
,
00000000
00001000
00000100
00000000
00000010
00000001
00000100
00010000
,
00000000
00000100
00000010
00000000
00001000
00000010
00001000
00000100
,
00000000
00000000
00010000
00000000
00001000
00000000
00000000
00000000
00100000
00000000
00000000
00010000
00000000
00000000
01000000
00000000
,
00020000
00000000
10000000
00000000
10030000
00000000
00000000
00000000
00010000
00000000
00000000
00001000
00000000
00000000
00000100
00000000
,
00000010
00000000
00000001
00000000
00000100
00000000
00000000
00000000
00000010
00000000
00000000
00001000
00000000
00000000
00000001
00000000
,
00000100
00001100
00010000
00101000
,
00010000
00000000
00100000
00000000
01000000
00000000
10000000
00000000
00010000
00000000
01000000
00000000
00001000
00000000
00010000
00001000
,
00020000
00000000
02030000
00000000
00000000
23000000
00000000
00000000
,
30200000
00000000
00000000
00320000
00000000
00000000
00031000
00000000
,
00012000
00000000
00003200
00000000
00000000
00000302
00000000
00000000
,
00000023
00000000
00000000
00002030
00000000
00000000
00013000
00000000
,
00021000
00000000
00100000
00000000
00000000
01000000
00000000
00000000
,
10000000
00000000
00000000
00100000
00000000
00000000
00031000
00000000
,
00012000
00000000
00000010
00000000
00000000
00000001
00000000
00000000
,
00000100
00000000
00000000
00013000
00001000
00000000
00000000
00200000
,
00000000
00000000
00000000
00310000
00000000
00000000
01000000
00000000
00010000
00000000
01000000
00000000
00001000
00000000
00000000
00010000
00000000
00000000
00000000
00000000
00000000
00000200
00000000
00000000
,
00000000
00000000
00000000
00001300
00000000
00000000
00000010
00000000
00000100
00000000
00000010
00000000
00000100
00000000
00000000
00000010
00000000
00000000
00000000
00000000
00000000
00002000
00000000
00000000
,
00000000
00000000
00000000
00003100
00000000
00000000
00010000
00000000
00001000
00000000
00010000
00000000
00001000
00000000
00000000
01000000
00000000
00000000
00000000
00000000
00000000
00200000
00000000
00000000
,
00000000
00000000
00000000
01300000
00000000
00000000
00010000
00000000
00100000
00000000
01000000
00000000
10000000
00000000
00000000
00010000
00000000
00000000
00000000
00000000
00000000
00100000
00000000
00000000
,
00101000
00000000
00001000
00000000
00010000
00000000
00000100
00001000
,
00000010
00000000
00001000
00000000
00000100
00010000
00001000
00010000
,
00100000
01000000
00010000
10000000
,
00100000
01000000
00010000
00100000
00001000
00010000
00000100
00001000
,
00000020
00000000
00000000
00000000
,
00000100
00000000
00000100
00000000
00000130
00000010
00010000
00001000
,
00011000
00000000
00000000
00000000
00001000
00000000
00000100
00000000
00000100
00000000
00000000
00000001
00000000
00000000
00000010
00000000
,
00000000
00000000
00001000
00000000
00010000
00000000
00001000
00000000
00010000
00000000
00000000
01000000
00000000
00000000
00100000
00000000
,
00010000
10000000
00100000
01000000
,
00001000
00000000
00010000
00000000
00001000
00000000
00000000
00000000
00010000
00000000
00000100
00000000
00001000
00000100
00001000
00000000
,
00000000
00000000
00000100
00000000
00010000
00000000
00001000
00000000
00100000
00000000
00000000
00100000
00000000
00000000
01000000
00000000
,
00000000
00000000
10000000
00000000
00010000
00000000
01000000
00000000
00100000
00000000
00000000
00010000
00000000
00000000
00100000
00000000
,
10000000
00000000
00010000
00000000
00100000
00001000
00010000
00011000
,
00000000
00101000
00000000
00010100
00000000
00002000
00020000
00003000
,
00031000
00000000
00000100
00000000
00000010
00000000
00000100
00000000
00000001
00000000
00000000
00001000
00000000
00000000
00000100
00000000
,
00000000
00000000
00001000
00000000
00000100
00000000
00000100
00000000
00010000
00000000
00000000
00001000
00000000
00000000
00100000
00000000
,
00000000
00000000
00001000
00000000
00010000
00000000
01000000
00000000
10000000
00000000
00000000
00100000
00000000
00000000
01000000
00000000
,
00000000
00000000
00000000
00000000
00010000
00000000
00000000
00000000
00100000
00000000
00000000
00001000
00000000
00000000
00010000
00000000
,
00001000
00000000
00001000
00000000
00010000
00000000
00010000
00000000
00000100
00000000
00000000
00001000
00000000
00000000
00000010
00000000
,
00000000
00000000
00001000
00000000
00000100
00000000
00010000
00000000
00001000
00000000
00000000
00100000
00000000
00000000
00001000
00000000
,
00011000
00000000
00000000
00000000
00010000
00000000
00000000
00000000
00010100
00000000
00000000
00001000
00000000
00000000
00000010
00000000
,
00001010
00000000
00000000
00000000
00011000
00000000
00000000
00000000
00101000
00000000
00000000
00100000
00000000
00000000
01000000
00000000
,
10010000
00000000
00000000
00000000
;

//---------------dance-double - ----------------
#NOTES:
     dance-double:
     :
     Medium:
     6:
     0.410,0.435,0.185,0.195,0.019: // measure 1
00000000
00000000
00000000
00000000
,  // measure 2
00000000
00000000
00000000
00000000
,  // measure 3
00000000
00000000
00000000
00000000
,  // measure 4
00000000
00000000
00000000
00000011
,  // measure 5
00001100
00001000
00000010
00000001
,  // measure 6
00000010
00001000
00010000
01000000
,  // measure 7
10000000
01000000
00010000
00000000
10000000
00100000
00010000
00000000
,  // measure 8
00100000
01000000
00001000
00010000
,  // measure 9
00000000
00000000
00000000
00001000
,  // measure 10
00011000
00100000
00001000
00010000
,  // measure 11
00000100
00000000
00001000
00000100
00010000
00000000
00001000
00000000
,  // measure 12
00100000
00000000
00010000
01000000
00010000
00000000
00100000
00000000
,  // measure 13
00001000
00000000
00010000
00000000
00000100
00001000
00001000
00000000
,  // measure 14
00010100
00001000
00100000
00010000
,  // measure 15
10000000
00000000
00010000
00100000
00001000
00000000
00000100
00000000
,  // measure 16
00000010
00000000
00001000
00000001
00000010
00000000
00000100
00000000
,  // measure 17
00001000
00001000
00001000
00000100
00001000
00000000
00010100
00000000
,  // measure 18
00011000
00000000
00100000
00000000
00010000
01000000
00010000
10000000
,  // measure 19
00000000
00000000
00100000
00000000
00100000
00000000
01000000
00010000
,  // measure 20
00000000
00000000
00100000
00000000
00001000
00000000
00010000
00000100
,  // measure 21
00000000
00000000
00001000
00000000
00000100
00010000
00001000
00000000
,  // measure 22
00011000
00000000
00101000
00000000
00100000
00000000
00001000
00010000
,  // measure 23
00000000
00000000
01000000
00000000
10000000
00000000
00100000
00010000
,  // measure 24
00000000
00000000
00001000
00000000
00000100
00000000
00000001
00002000
,  // measure 25
00000000
00003200
00000000
00002300
00000000
00003020
00001000
00000000
,  // measure 26
00010030
00000000
00010010
00000000
00010000
00001000
00000000
00100000
,  // measure 27
00010000
00000000
01000000
00000000
00100000
00010000
00000000
00010000
,  // measure 28
00100000
00000000
01000000
00000000
00001000
00010000
00000000
00001000
,  // measure 29
00000100
00000000
00000000
00000000
00000010
00000000
00000000
00000000
00001000
00000000
00000000
00000100
00000000
00000000
00010000
00000000
,  // measure 30
00001000
00000000
00100000
00000000
00010000
00000000
10000000
00100000
,  // measure 31
01000000
00000000
00001000
00000000
00010000
00000000
00000100
00000010
,  // measure 32
00000002
00000203
00002300
00003200
,  // measure 33
00000310
00001000
00000100
00010000
00001000
00100000
00010000
00000000
,  // measure 34
00100000
00000000
10000000
00000000
00000000
01000000
00000000
00000000
,  // measure 35
00100000
00000000
00000000
00010000
00000000
00000000
00100000
00000000
,  // measure 36
00001000
00000000
00010000
00000000
00000000
00000100
00000000
00000000
,  // measure 37
00001000
00000000
00000000
00000001
00000000
00000000
00000100
00000000
,  // measure 38
00000110
00000000
00001000
00000000
00000000
00000010
00000000
00000000
,  // measure 39
00001000
00000000
00000000
00000100
00000000
00000000
00010000
00000000
,  // measure 40
00001000
00000000
00100000
00000000
00000000
00010000
00000000
00000000
,  // measure 41
10000000
00000000
00000000
00100000
01000000
00000000
00000000
00010000
,  // measure 42
00000000
00100000
00002000
00000000
00013000
00001000
00000000
00010000
,  // measure 43
00000000
00000100
00002000
00000000
00003100
00000010
00000000
00000100
,  // measure 44
00000000
00000010
00000002
00000000
00000103
00000001
00000000
00001000
,  // measure 45
00000000
00000100
00020000
00000000
00031000
00100000
00000000
01000000
,  // measure 46
10000000
00000000
00010000
00000000
01000000
00000000
00100000
10000000
,  // measure 47
00010000
00000000
00100000
00000000
00001000
00010000
01000000
00000000
,  // measure 48
10000000
00100000
00010000
00100000
,  // measure 49
01000000
00001000
00010000
00000100
00001000
00000000
00000010
00000000
,  // measure 50
00002002
00000000
00000000
00000000
,  // measure 51
00000000
00000000
00003003
00000100
,  // measure 52
00011000
00000000
00000000
00000000
00100000
00000000
00000000
00000000
00001000
00000000
00000000
00100000
00000000
00000000
00001000
00000000
,  // measure 53
00000000
01000000
01000000
00010000
,  // measure 54
00200000
00302000
00023000
02030000
,  // measure 55
13000000
00000000
00100000
00000000
01000000
00001000
00010000
00000000
,  // measure 56
00011000
00000000
00000000
00000000
00000100
00000000
00000000
00000000
00000001
00000000
00000000
00001000
00000000
00000000
00000010
00000000
,  // measure 57
00000000
00000100
00001000
00000100
,  // measure 58
00000002
00000000
00002003
00000000
00003200
00000000
00010300
00001000
,  // measure 59
00000000
00100000
00000000
00010000
00000000
00100000
00001000
00000000
,  // measure 60
00010000
00010000
00010100
00001000
,  // measure 61
00000000
00100000
00110000
01000000
,  // measure 62
00000000
00001000
00101000
00010000
,  // measure 63
00000000
00001000
00001000
00000010
,  // measure 64
00001000
00000100
00000010
00000001
00001000
00000000
00000100
00000000
,  // measure 65
00011000
00100000
00001000
00010000
,  // measure 66
00011000
00100000
00101000
01000000
,  // measure 67
00010000
00000000
00000000
00000000
00100000
00000000
00000000
00000000
00010000
00000000
00000000
00100000
00000000
00000000
00001000
00000000
,  // measure 68
01001000
00000000
00000000
00000000
;

//---------------dance-double - ----------------
#NOTES:
     dance-double:
     :
     Easy:
     4:
     0.330,0.342,0.287,0.167,0.000:
00000000
00000000
00000000
00000000
,
00000000
00000000
00000000
00000000
,
00000000
00000000
00000000
00000000
,
00000000
00000000
00000000
00001000
,
00011000
00000100
00001000
00000001
,
00000010
00000100
00001000
00000100
,
00020000
00000000
00032000
00000000
,
00103000
00100000
00010000
01000000
,
00000000
00000000
00000000
00010000
,
10010000
00100000
01000000
01000000
,
00000000
00010000
00100000
00001000
,
00000000
00010000
00000100
00000100
,
00000000
00001000
00010000
01000000
,
00100000
10000000
00010000
00100000
,
00000000
00001000
00010000
00000010
,
00000000
00000100
00000100
00000001
,
00001000
00001000
00000010
00000100
,
00020010
00000010
00031000
00010000
,
00000000
00001000
00100000
00100000
,
00000000
01000000
10000000
00010000
,
00000000
01000000
00001000
00010000
,
00102000
00100000
01003000
00010000
,
00000000
00100000
00001000
00010000
,
00000000
00000010
00000010
00002000
,
00000000
00000000
00000000
00003100
,
00010000
00010000
00001000
00100000
,
00010000
10000000
01000000
00100000
,
00001000
00010000
00000100
00000010
,
00000001
00001000
00000100
00000000
,
00001100
00001000
00000010
00000000
,
00001010
00000010
00010000
00000000
,
00011000
00010000
00011000
00001000
,
00100000
00010000
00001000
00000100
,
00020000
00002000
00000000
00030000
,
00000000
00103000
00000000
00001000
,
00010000
00000200
00002000
00000300
,
00003001
00000000
00000100
00000001
,
00001010
00010000
00001000
00100000
,
00000000
00000000
01000000
10000000
,
00010000
02000000
00000000
03100000
,
01000000
00010000
00202000
00300000
,
00003000
00011000
00010100
00000000
,
00000010
00001010
00000101
00000000
,
00001000
00001010
00010100
00000000
,
00001000
00101000
10010000
00000000
,
01000000
00010000
10000000
00000000
,
00100000
01000000
00000000
00010000
,
00100000
00001000
00010000
00000100
,
00001000
00000010
00000100
00000001
,
00002000
00000000
00000000
00000000
,
00000100
00000100
00003100
00001100
,
00011000
00001000
00100000
00100000
,
00000000
00010000
01000000
01000000
,
00200000
00000000
20300000
00000000
,
30010000
00100000
00002000
00013000
,
00101000
00100000
00001000
00000000
,
00010000
00000100
00001000
00001000
,
00000200
00000000
00002300
00000000
,
00003010
00000100
00000001
00001001
,
00001000
00000100
00010000
00000000
,
00001000
00100000
00001000
00000000
,
00010000
01000000
10000000
00000000
,
00100000
01000000
00100000
00010000
,
00001000
00001000
00011000
00000000
,
00000100
00001000
00001100
00000000
,
00011000
00000000
00101000
00000000
,
00010100
00011000
00010100
00101000
,
00011000
00000000
00000000
00000000
;
