#TITLE:探検ノート;
#SUBTITLE:(Street style);
#ARTIST:PON;
#TITLETRANSLIT:Tanken Note;
#SUBTITLETRANSLIT:;
#ARTISTTRANSLIT:;
#GENRE:;
#CREDIT:;
#MENUCOLOR:;
#METERTYPE:DDR;
#BANNER:Tanken Note (Street style)-bn.png;
#BACKGROUND:Tanken Note (Street style)-bg.png;
#LYRICSPATH:;
#CDTITLE:TUNE STREET-cdtitle.png;
#MUSIC:Tanken Note (Street style).mp3;
#OFFSET:-0.720;
#SAMPLESTART:13.840;
#SAMPLELENGTH:14.000;
#SELECTABLE:YES;
#LISTSORT:;
#BPMS:0.000=284.000,56.000=142.000,60.000=284.000,184.000=142.000,208.000=284.000;
#STOPS:60.000=0.423
,62.000=0.423
;
#BGCHANGES:;
#ATTACKS:;

//---------------dance-single - ----------------
#NOTES:
     dance-single:
     :
     Hard:
     9:
     0.659,0.906,0.362,0.512,0.000:
0000
0000
0000
0000
,
0000
0000
0000
0000
,
0000
0000
0000
0000
,
0000
0000
0000
0000
,
1100
0000
1010
0000
,
0101
0000
1001
0000
,
0000
0000
0010
0000
0000
0110
0000
0000
,
2002
0000
3003
0000
,
1000
0100
1000
0100
,
0010
0001
0010
0001
,
0100
0010
0100
0001
,
1000
0100
0010
0001
,
1000
0000
0010
0000
0100
0001
0000
1001
,
0000
0000
1000
0000
0001
0100
0000
2002
,
0000
0000
0000
3003
,
0110
0000
1001
0000
,
0010
1000
0010
1000
,
0001
0000
0100
0001
0000
0001
1000
0000
,
0001
0010
0001
0100
,
0010
1000
0001
0100
,
0001
1000
1000
2200
,
0300
0001
3001
0100
,
0110
0000
0100
0001
,
1000
0100
1000
0001
,
1000
0000
1000
0001
0000
1000
0200
0000
,
1000
0310
0001
0100
,
0010
0100
0001
1000
,
0100
1000
0010
0100
,
0010
0000
0010
0000
,
1000
0000
1000
0000
,
0001
0100
0001
0000
,
1000
0100
0010
0001
,
1001
1000
0010
0100
,
0001
0000
0010
0001
0000
0001
0100
0000
,
0001
1000
0010
1000
,
0001
0000
1000
0010
0000
0010
0100
0000
,
0001
1000
0010
0100
,
0001
0000
0010
0100
0000
0100
1000
0000
,
1000
0001
0001
0022
,
0030
0100
0103
0010
,
1000
0000
0000
1000
0001
0000
0000
0001
,
0100
0000
0000
0010
0100
0000
0000
0010
,
1000
0000
0000
1000
0100
0000
0000
0100
,
0010
0000
0000
0001
0010
0000
0000
0100
,
1000
0000
1001
0000
,
0011
0000
1001
1000
,
1100
1000
1000
1000
,
1000
0000
1000
0000
0001
0100
0010
0100
,
0001
0010
0100
1000
0010
0100
1000
0100
,
0001
1000
0100
0010
0001
0100
0010
1000
,
0200
0000
1300
0020
0100
0130
0001
1000
,
0000
0001
0101
0000
2002
0000
0003
0000
,
3010
1000
0010
1000
,
0001
0010
0100
1000
,
0010
0100
0001
1000
,
0001
0000
0100
0001
0000
1000
0010
0000
,
0200
0000
0000
0302
0000
0000
2003
0000
,
3200
0000
0000
0320
0000
0000
0032
0000
,
0203
0000
0000
2300
0000
0000
3200
0000
,
0000
0320
0000
1030
,
1001
0000
0000
0101
0000
0000
2100
0000
,
0000
0000
3000
0000
0101
0000
0000
1100
,
0000
2002
0000
3003
,
0010
0100
0001
1000
,
0200
0000
0000
0320
0000
0000
0032
0000
,
0103
0010
0100
0001
,
2000
0000
0000
3020
0000
0000
0230
0000
,
1300
0100
0010
1000
,
0001
0000
0101
0000
,
1000
1000
1100
0000
,
0001
0000
0100
0000
0001
0000
1000
0001
,
1000
0100
2000
0000
,
3010
0100
0001
0010
,
0100
1000
0001
0010
,
0100
0010
0100
0001
,
0100
1000
0001
0100
,
0101
0000
1010
0000
,
1000
0100
0010
0001
,
1000
0000
1000
0100
0000
0100
0010
0000
,
0010
0001
0000
0001
1000
0000
1000
0000
,
0001
0000
0001
0010
0000
0010
0100
0000
,
0100
1000
0000
1000
0001
0000
1000
0000
,
0200
0000
1000
0000
,
0310
0100
1000
0001
,
0200
0000
0000
0302
0000
0000
0023
0000
,
0031
1000
1100
0000
,
0010
0100
0001
0100
,
0010
1000
0100
0010
,
0011
0000
1100
0000
,
1010
1000
0101
0000
,
0100
0001
0100
0010
,
1000
0001
0010
1000
,
0020
0000
0000
0230
0000
0000
2300
0000
,
3010
0100
0101
0000
,
1000
0010
0100
0001
,
0010
0100
1000
0001
,
0100
0000
0000
0000
0010
0000
0000
0100
,
0010
0100
0010
0000
0200
0000
0000
0000
,
0310
0000
1000
0000
0001
0010
0000
0200
,
0000
0000
1300
0000
0010
0100
0000
0002
,
0000
0000
0013
0000
0001
0010
0000
0200
,
0000
1300
0010
0100
,
0101
0000
1100
0000
,
1010
0000
0011
0000
,
1000
0000
0100
0000
1000
0100
0000
0010
,
0001
0100
0002
0000
,
1003
0000
0100
0000
1000
0010
0000
0200
,
0000
0000
0310
0000
0100
0001
0000
0020
,
0000
0000
0130
0000
0010
0100
0000
2000
,
0000
0000
3001
0000
1000
0010
1000
0000
,
0001
0000
0100
0000
0010
0100
0000
0020
,
0000
0000
1030
0000
0100
0010
0000
0001
,
1000
0000
1000
0000
,
0001
0000
0010
0000
,
0001
0000
0001
0000
1000
0100
0000
2000
,
0000
0000
3010
0000
0100
0001
0000
0200
,
0000
0300
0000
0000
,
0020
0000
0000
2030
0000
0000
3002
0000
,
0103
0000
0000
0010
0100
0000
0010
0000
,
2000
0010
0020
3030
,
2002
0000
0000
0000
0000
3003
0000
0000
;

//---------------dance-single - ----------------
#NOTES:
     dance-single:
     :
     Medium:
     7:
     0.500,0.746,0.318,0.318,0.000:
0000
0000
0000
0000
,
0000
0000
0000
0000
,
0000
0000
0000
0000
,
0000
0000
0000
0000
,
0002
0000
0023
0000
,
0230
0000
2300
0000
,
3001
0000
0100
0000
0000
0001
0000
0000
,
2001
0000
3010
0100
,
0001
1000
0100
0000
,
1000
0010
0100
0000
,
0010
0000
0100
0000
0001
0000
0000
0001
,
0000
0000
1000
0100
,
1000
0000
0001
0000
1000
0000
0000
0100
,
0000
0000
0010
0000
0100
0000
0000
2000
,
0000
0000
0000
3001
,
1001
0000
1001
0000
,
0001
0000
0100
0000
,
0010
0000
0000
1000
0000
0000
0001
0000
,
0100
0000
0001
0000
,
1000
0100
0010
0000
,
0100
0100
0010
0011
,
0000
0001
0001
1000
,
0010
0000
1000
0000
,
0010
0100
0001
0010
,
0100
0000
0000
1000
0000
0000
0100
0000
,
0000
1000
0000
0001
,
0100
0000
1000
0100
,
0001
0000
0100
0001
,
1000
0000
0001
0000
,
1000
0000
0001
0000
,
1000
0000
0001
0000
,
1001
0000
0110
0000
,
0001
1000
0001
0100
,
0010
0000
1000
0001
,
0100
0000
0110
0000
,
0100
0000
1001
0000
,
1000
0100
0010
0001
,
1000
0100
0010
0000
,
0001
0100
0001
2000
,
0000
3001
1001
0000
,
0010
0100
0010
0000
,
1000
0100
0010
0000
,
0100
0000
0000
0010
0000
0000
1001
0000
,
0000
0000
0100
0000
,
0001
0100
0010
1000
,
0000
1000
0100
0010
,
0001
0001
0001
0001
,
0001
0000
0001
0000
0001
1000
0001
0000
,
1001
0000
1000
0100
0010
0000
0100
0010
,
0001
0000
0100
0000
0010
0100
0010
0000
,
2000
0000
3002
0000
0103
0001
0000
0101
,
0000
1010
0000
0000
1000
0000
0010
0000
,
1001
0000
0100
0000
,
0010
0100
0010
0000
,
1000
0000
0001
0010
,
0100
0000
1000
0000
,
0001
0000
0000
0001
0000
0000
0001
0000
,
1000
0000
0000
1000
0000
0000
1000
0000
,
0010
0000
0000
0010
0000
0000
0010
0000
,
0000
0110
0000
2000
,
0200
0000
0000
3300
,
0000
0000
0001
0000
0100
0000
0000
0100
,
0000
0200
0000
0000
,
0310
0100
0010
0100
,
0001
0000
0000
1000
0000
0000
1001
0000
,
0000
1000
0100
0000
,
1000
0000
0000
0010
0000
0000
1010
0000
,
0000
0001
0010
0000
,
0002
0000
0203
0000
,
0320
1000
1030
0000
,
0001
0010
0100
2000
,
0000
0000
0001
3000
,
1001
0000
0100
0000
,
0010
0000
0100
0010
,
1000
0000
0001
0000
,
0100
0010
0100
0001
,
0010
0000
0100
0000
,
1100
0000
1000
0000
,
1001
0000
1000
0001
,
1000
0001
1000
0000
,
0110
0000
0100
0010
,
0100
0010
0100
0010
,
2000
0000
3001
0000
,
1000
0100
0010
0001
,
0010
0000
0000
0001
0000
0000
2000
0000
,
0000
0200
3300
1000
,
0001
0100
0001
0010
,
0000
0010
0001
1000
,
0100
0000
1100
0000
,
1001
0000
0101
0000
,
0001
0100
0001
1000
,
0001
0000
1000
0100
,
0010
0000
0000
0100
0000
0000
0020
0000
,
0000
0002
0033
0001
,
1000
0100
0010
0100
,
0000
0010
0100
1000
,
0002
0000
0000
0000
,
1003
0100
1000
0100
,
0010
0000
0001
0000
0020
0000
0000
0130
,
0000
0000
0100
0000
2000
0000
0000
3001
,
0000
0000
0100
0000
0002
0000
0000
0013
,
0000
0100
1000
0001
,
0100
0000
1001
0000
,
1001
0000
0110
0000
,
0000
0000
2000
0000
0000
3200
0000
0000
,
0310
0001
0010
0000
,
0001
0000
0100
0000
0002
0000
0000
1003
,
0000
0000
1000
0000
0200
0000
0000
0310
,
0000
0000
0001
0000
2000
0000
0000
3100
,
0000
1000
0010
0000
,
0110
0000
1000
0000
,
1001
0000
0001
0000
,
0101
0000
1100
0000
,
0011
0000
1010
0000
,
0001
0000
1000
0000
0001
0000
0000
1001
,
0000
0000
1000
0000
0001
0000
0000
1001
,
0000
0000
0000
0000
,
0002
0000
0000
0023
0000
0000
0230
0000
,
1300
0001
1000
0000
,
2002
0000
0000
3003
,
0200
0000
0000
0000
0000
0300
0000
0000
;

//---------------dance-single - ----------------
#NOTES:
     dance-single:
     :
     Easy:
     5:
     0.386,0.586,0.212,0.221,0.000:
0000
0000
0000
0000
,
0000
0000
0000
0000
,
0000
0000
0000
0000
,
0000
0000
0000
0000
,
0010
0000
1000
0000
,
0001
0000
0100
0000
,
0000
0000
0001
0000
0000
1000
0000
0000
,
0002
0000
0103
0000
,
0010
0000
0010
0000
,
1000
0000
1000
0000
,
0001
0000
0100
0000
,
0001
0000
0000
0000
,
1001
0000
0100
0000
,
1001
0000
0000
0000
0020
0000
0000
0200
,
0000
0000
0000
0330
,
1001
0000
0110
0000
,
1000
0000
0100
0000
,
1000
0000
0001
0000
,
0100
0010
0100
0000
,
0001
0000
1000
0000
,
0001
1000
0001
0200
,
0000
0000
0310
0000
,
0100
0000
0001
0000
,
1000
0000
0100
0000
,
1000
0000
0000
0001
0000
0000
1000
0000
,
0000
0100
0000
1000
,
0001
0000
0100
0000
,
0010
0100
0010
0000
,
1001
0000
1000
0000
,
0001
0000
0010
0000
,
0001
0000
0100
0000
,
0101
0000
1010
0000
,
0001
0100
0001
0000
,
1000
0100
1000
0000
,
0010
0000
0100
0000
,
0010
0000
1000
0000
,
0001
0010
0100
0000
,
0010
0100
1000
0000
,
0001
0010
0100
2000
,
0000
0000
3001
0000
,
0100
0000
0001
0000
,
1000
0000
0010
0000
,
1000
0000
1000
0000
,
0100
0000
0100
0000
,
1000
0000
0001
0000
,
0001
0000
0010
0000
,
2002
0000
0000
3003
,
0100
0000
0100
0100
,
0020
0000
1030
0001
,
0200
0000
0301
1000
,
0100
0010
1000
0010
,
0002
0200
0303
1000
,
1001
0000
0000
0001
,
0100
0000
0001
0000
,
1000
0000
0000
0100
0000
0000
1000
0000
,
0100
0000
1000
0000
,
0001
0000
0000
0001
0000
0000
1000
0000
,
0001
0000
0000
1000
0000
0000
1000
0000
,
0001
0000
0000
1000
0000
0000
0001
0000
,
0000
0100
0000
0010
,
2000
0000
0000
3001
,
0000
0000
0002
0000
,
0000
1003
0000
0000
,
0010
1000
0010
0000
,
0100
0000
0000
0010
0000
0000
0100
0000
,
0010
0000
1000
0000
,
0001
0000
0000
1000
0000
0000
0001
0000
,
1000
0000
0100
0000
,
1000
0000
1100
0000
,
0001
0000
0101
0000
,
0001
1000
0001
0100
,
0000
0000
0010
0000
,
1000
0000
0100
0000
,
0010
0000
0001
0000
,
1000
0000
0001
0000
,
0100
0000
0010
0000
,
0100
0000
0101
0000
,
1000
0000
1100
0000
,
2000
0001
3001
0000
,
0002
0100
0103
0000
,
0200
0010
0310
0000
,
0020
1000
1030
0000
,
1001
0000
1000
0000
,
0001
0100
0001
0000
,
1000
0000
0000
0100
0000
0000
2000
0000
,
0000
0002
3003
0001
,
1000
0000
0001
0000
,
1000
0100
0010
0000
,
0011
0000
0011
0000
,
0011
0000
0011
0000
,
1001
0000
0001
0000
,
1000
0100
1000
0000
,
0001
0000
0000
0010
0000
0000
0002
0000
,
0000
0200
0303
0001
,
2000
0000
0000
0000
,
3001
0000
0000
0000
,
0100
0000
0000
0000
,
0010
0000
0010
0000
,
0100
0000
0010
0000
,
1000
0000
0001
0000
,
0010
0000
0100
0000
,
1000
0000
0001
0000
,
1100
0000
1100
0000
,
1001
0000
1001
0000
,
0000
0000
0010
0000
0000
0100
0000
0000
,
0020
0000
0100
0030
,
0100
0000
0001
0000
,
1000
0000
0100
0000
,
1000
0000
0001
0010
,
0001
0000
1000
0000
,
0010
0000
1000
0000
,
0010
0000
1000
0000
,
0001
0000
0010
0000
,
0100
0000
1000
0000
,
0001
0000
0001
0000
,
1000
0000
0000
0000
0100
0000
0000
1100
,
0000
0000
0000
0000
,
1000
0000
0000
1000
0000
0000
0001
0000
,
0100
0000
0010
0000
,
2000
0000
0000
0000
,
0002
0000
0000
0000
0000
3003
0000
0000
;

//---------------dance-single - ----------------
#NOTES:
     dance-single:
     :
     Beginner:
     2:
     0.188,0.320,0.097,0.203,0.000:
0000
0000
0000
0000
,
0000
0000
0000
0000
,
0000
0000
0000
0000
,
0000
0000
0000
0000
,
0010
0000
0010
0000
,
0010
0000
0010
0000
,
0000
0000
0100
0000
,
0100
0000
0000
0000
,
0001
0000
0000
0000
,
1000
0000
0000
0000
,
0001
0000
0000
0000
,
1000
0000
0000
0000
,
0001
0000
0000
0000
,
0001
0000
0000
0000
,
1001
0000
0000
0000
,
0010
0000
0010
0000
,
1000
0000
0000
0000
,
1000
0000
0000
0000
,
0100
0000
0000
0000
,
1000
0000
0000
0000
,
0001
0000
0000
0000
,
0000
0000
0000
0000
,
0110
0000
0000
0000
,
0000
0000
0000
0000
,
0100
0000
0000
0000
,
0100
0000
0000
0000
,
0010
0000
0000
0000
,
0010
0000
0000
0000
,
1000
0000
0000
0000
,
0000
0000
0000
0000
,
0000
0000
0000
0000
,
0001
0000
0001
0000
,
0001
0000
0000
0000
,
0001
0000
0000
0000
,
1000
0000
0000
0000
,
0001
0000
0000
0000
,
0100
0000
0000
0000
,
0010
0000
0000
0000
,
1000
0000
0000
0000
,
0100
0000
0000
0000
,
1000
0000
0000
0000
,
1000
0000
0000
0000
,
0001
0000
0000
0000
,
0001
0000
0000
0000
,
0200
0000
0300
0000
,
0020
0000
0030
0000
,
1001
0000
0000
0000
,
0000
0000
0000
0000
,
0100
0000
0010
0000
,
0010
0000
0000
0000
,
1000
0000
1000
0000
,
0001
0000
0000
0000
,
1001
0000
0000
0000
,
0000
0000
0000
0000
,
0100
0000
0000
0000
,
0100
0000
0000
0000
,
0020
0000
0030
0000
,
0020
0000
0030
0000
,
0200
0000
0300
0000
,
0200
0000
0300
0000
,
2002
0000
0000
0000
,
3003
0000
0220
0000
,
0000
0000
0330
0000
,
0001
0000
0001
0000
,
0001
0000
0000
0000
,
1000
0000
0000
0000
,
0100
0000
0000
0000
,
1000
0000
0000
0000
,
0020
0000
0030
0000
,
0200
0000
0300
0000
,
0001
0000
0000
0000
,
1000
0000
0000
0000
,
0200
0000
0300
0000
,
0010
0000
0000
0000
,
0002
0000
0003
0000
,
1000
0000
0000
0000
,
0001
0000
0000
0000
,
1000
0000
0000
0000
,
0020
0000
0000
0000
,
0030
0000
0100
0000
,
0200
0000
0000
0000
,
0300
0000
0000
0000
,
1001
0000
0000
0000
,
1000
0000
0000
0000
,
0100
0000
0100
0000
,
0100
0000
0000
0000
,
0010
0000
0000
0000
,
0001
0000
0000
0000
,
2002
0000
0000
0000
,
3003
0000
0000
0000
,
1000
0000
0000
0000
,
0010
0000
0000
0000
,
0100
0000
0000
0000
,
0001
0000
0000
0000
,
2000
0000
0000
0000
,
0000
0000
3000
0000
,
0001
0000
0000
0000
,
0000
0000
0000
0000
,
0100
0000
0000
0000
,
0010
0000
0000
0000
,
0100
0000
0000
0000
,
0001
0000
0000
0000
,
1000
0000
1000
0000
,
1000
0000
1000
0000
,
0000
0000
0010
0000
,
0010
0000
0000
0000
,
0100
0000
0000
0000
,
0001
0000
0000
0000
,
0010
0000
0000
0000
,
0100
0000
0000
0000
,
1000
0000
0000
0000
,
0001
0000
0000
0000
,
0002
0000
0003
0000
,
2000
0000
3000
0000
,
0100
0000
0000
0000
,
0010
0000
0000
0000
,
0001
0000
0000
0000
,
0000
0000
0000
0000
,
1001
0000
0000
0000
,
0110
0000
0000
0000
,
2002
0000
0000
0000
0000
3003
0000
0000
;

//---------------dance-double - ----------------
#NOTES:
     dance-double:
     :
     Hard:
     9:
     0.616,0.852,0.265,0.327,0.000: // measure 1
00000000
00000000
00000000
00000000
,  // measure 2
00000000
00000000
00000000
00000000
,  // measure 3
00000000
00000000
00000000
00000000
,  // measure 4
00000000
00000000
00000000
00000000
,  // measure 5
00000011
00000000
00001100
00000000
,  // measure 6
00011000
00000000
01010000
00000000
,  // measure 7
00000000
00000000
10000000
00000000
00000000
01010000
00000000
00000000
,  // measure 8
20010000
00000000
01000000
31000000
,  // measure 9
00100000
00000000
00010000
00000000
00100000
00000000
00000000
00101000
,  // measure 10
00000000
00000000
00010000
00000000
00000100
00000000
00000000
00010100
,  // measure 11
00000000
00000000
00001000
00000000
00000001
00000000
00000000
00001001
,  // measure 12
00000000
00000000
00000100
00000000
00000001
00000000
00000100
00000001
,  // measure 13
00000100
00000000
00000010
00000000
00001000
00000100
00000000
00020000
,  // measure 14
00000000
00000000
00030100
00000000
00001000
00000010
00000000
00002000
,  // measure 15
00000000
00000000
00000000
00003100
,  // measure 16
00010100
00000000
00101000
00000000
,  // measure 17
01000000
00010000
00100000
00001000
,  // measure 18
01000000
00000000
00010000
00100000
00000000
00010000
00100000
00000000
,  // measure 19
01000000
10000000
00100000
00010000
,  // measure 20
00001000
00000100
00000001
00000100
,  // measure 21
00000010
00001000
00000001
00000202
,  // measure 22
00000300
00000000
00001000
00000000
00001003
00000000
00000100
00010000
,  // measure 23
00000010
00000100
00000010
00001000
,  // measure 24
00000100
00010000
00001000
01000000
,  // measure 25
00020000
00000000
00000000
02030000
00000000
00000000
03200000
00000000
,  // measure 26
01300000
00001000
01000000
00010000
,  // measure 27
00001000
00000010
00000100
00000001
,  // measure 28
00000010
00000100
00010000
00002000
,  // measure 29
00020000
00000000
00000000
00000000
,  // measure 30
00000000
00000000
00033000
00000000
,  // measure 31
00010000
00000000
00001000
00000000
,  // measure 32
00011000
00000000
00010100
00000000
,  // measure 33
00001000
00000010
00000100
00001000
,  // measure 34
00000100
00000000
00000010
00001000
00000000
00000100
00001000
00000000
,  // measure 35
00000100
00010000
00000100
00010000
,  // measure 36
00001000
00000000
00100000
00001000
00000000
00100000
00010000
00000000
,  // measure 37
01000000
00100000
10000000
00010000
,  // measure 38
00100000
01000000
10000000
00010000
,  // measure 39
00100000
00001000
00001000
00022000
,  // measure 40
00003000
00000100
00030100
00001000
,  // measure 41
00000001
00000000
00000000
00000010
00000001
00000000
00000000
00000001
,  // measure 42
00000100
00000000
00000000
00000100
00001000
00000000
00000000
00001000
,  // measure 43
00010000
00000000
00000000
00010000
01000000
00000000
00000000
01000000
,  // measure 44
10000000
00000000
00000000
10000000
00100000
00000000
00000000
00100000
,  // measure 45
01000000
00000000
00000000
01000000
00001000
00000000
00000000
00001000
,  // measure 46
00010000
00000000
00000000
00010000
00000100
00000000
00000000
00000100
,  // measure 47
00002000
00000000
00000100
00000100
,  // measure 48
00000100
00000000
00000100
00000000
00003100
00001000
00000100
00010000
,  // measure 49
00001000
00100000
00010000
01000000
00100000
10000000
01000000
00100000
,  // measure 50
00020000
00000000
01030000
00000000
00010000
00100000
00001000
00010000
,  // measure 51
00000100
00001000
00000010
00000200
00000000
00000301
00000010
00000001
,  // measure 52
00000000
00000100
00000001
00000000
00002002
00000000
00003003
00000000
,  // measure 53
00001100
00001000
00000010
00010000
,  // measure 54
00001000
00000000
00100000
00000000
00010000
00000000
01000000
00010000
,  // measure 55
00100000
01000000
00100000
00002000
,  // measure 56
00023000
00000100
00030100
00001000
,  // measure 57
00000001
00000000
00000000
00000010
00000000
00000000
00001000
00000000
,  // measure 58
00010000
00000000
00000000
01000000
00000000
00000000
10000000
00000000
,  // measure 59
00100000
00000000
00000000
01000000
00000000
00000000
00010000
00000000
,  // measure 60
00000000
00100000
00000000
00001000
,  // measure 61
00010000
00000000
00000100
00001000
00000100
00000000
00001000
00000000
,  // measure 62
00000000
00000000
00000100
00000000
00010000
00000000
00001000
00100000
,  // measure 63
00001000
00010000
00000000
01000000
,  // measure 64
20000000
30100000
02000000
03010000
,  // measure 65
00100000
00000000
00000000
00001000
00000000
00000000
00010000
00000000
,  // measure 66
00000100
00001000
00000010
00000100
,  // measure 67
00000001
00000000
00000000
00000010
00000000
00000000
00001000
00000000
,  // measure 68
00010000
00100000
10000000
00010000
,  // measure 69
02000000
00000000
03020000
00000000
,  // measure 70
00130000
00001000
00000010
00000100
,  // measure 71
00001000
00000001
00001000
00000100
,  // measure 72
00000000
00010000
00000010
00000100
,  // measure 73
00000010
00000000
00000000
00001000
00000000
00000000
00000001
00000000
,  // measure 74
00001000
00000100
00010000
00001000
,  // measure 75
00010000
00000000
00000000
01000000
00000000
00000000
10000000
00000000
,  // measure 76
00100000
01000000
00010000
00100000
,  // measure 77
01000000
00000000
10000000
00000000
,  // measure 78
00010000
01000000
00100000
01000000
,  // measure 79
00010000
00000000
00000000
00100000
00000000
00000000
00001000
00000000
,  // measure 80
00000000
00010000
00000000
00000000
00001000
00000000
00000100
00000000
,  // measure 81
00000010
00000000
00000010
00001000
00000000
00001000
00000001
00000000
,  // measure 82
00000001
00000010
00000000
00000010
00000100
00000000
00001000
00000000
,  // measure 83
00001100
00000000
00010000
00000000
,  // measure 84
00001000
00100000
00101000
00000000
,  // measure 85
00010000
00000000
00010000
01000000
00000000
01000000
00100000
00000000
,  // measure 86
01000000
00010000
10000000
01000000
,  // measure 87
10000000
00000000
00010000
00000000
,  // measure 88
00100000
00001000
00001000
00000000
,  // measure 89
01010000
00000000
00011000
00000000
,  // measure 90
00001010
00000000
00011000
00000000
,  // measure 91
00000010
00010000
00000010
00010000
,  // measure 92
00000100
00001000
00000100
00001000
,  // measure 93
00000001
00000000
00001000
00000010
00000000
00000010
00001000
00000000
,  // measure 94
00000001
00000100
00001000
00100000
,  // measure 95
00020000
00000000
01000000
00000000
,  // measure 96
20000000
00000000
30030000
00000000
,  // measure 97
01000000
00000000
00000000
00000000
10010000
00000000
00000000
01000000
,  // measure 98
00010000
01000000
00010000
00000000
00200000
00000000
00302000
00000000
,  // measure 99
00013000
00000000
00001000
00000000
00010000
00000010
00000000
00001010
,  // measure 100
00000000
00000000
00000001
00000000
00000010
00000100
00000000
00001100
,  // measure 101
00000000
00000000
00010000
00000000
00001000
00100000
00000000
00110000
,  // measure 102
00000000
00000000
00010000
00000000
10000000
00010000
10000000
00010000
,  // measure 103
02000000
00000000
03020000
00000000
,  // measure 104
00230000
00000000
00320000
00000000
,  // measure 105
00031000
00000000
00000100
00000000
00000010
00000001
00000000
00000001
,  // measure 106
00000100
00000000
00000010
00000000
00001000
00000010
00001000
00000010
,  // measure 107
00000100
00000000
00000001
00000000
00000010
00000100
00000000
00002000
,  // measure 108
00000000
00000000
00003100
00000000
00010000
00001000
00000000
00200000
,  // measure 109
00000000
00000000
00310000
00000000
10000000
01000000
00000000
00200000
,  // measure 110
00000000
00310000
01000000
00010000
,  // measure 111
00100000
00001000
00000100
00000001
,  // measure 112
00001000
00000100
00010000
00000100
,  // measure 113
00001000
00000000
00001100
00000000
,  // measure 114
00010000
00000000
00011000
00000000
,  // measure 115
01000000
00000000
00010000
00000000
00100000
00010000
00000000
10000000
,  // measure 116
00000000
00000000
00100000
00000000
01000000
00010000
01000000
00200000
,  // measure 117
00000000
00000000
01300000
00000000
,  // measure 118
00010000
00000000
00000000
01000000
00000000
00000000
00001000
00000000
,  // measure 119
00010000
01000000
10000000
00010000
,  // measure 120
10000000
00010000
10000000
00010000
10000000
00000000
00000000
00000000
,  // measure 121
02200000
00000000
03300000
00000000
;

//---------------dance-double - ----------------
#NOTES:
     dance-double:
     :
     Medium:
     7:
     0.466,0.692,0.221,0.168,0.000:
00000000
00000000
00000000
00000000
,
00000000
00000000
00000000
00000000
,
00000000
00000000
00000000
00000000
,
00000000
00000000
00000000
00000000
,
00000101
00000000
00000110
00000000
,
00001010
00000000
00001001
00000000
,
00000000
00000000
00001000
00000000
00000000
00000100
00000000
00000000
,
00010000
00000000
00002000
00000000
,
00103000
00001000
00010000
00000000
,
00001000
00010000
00000100
00000000
,
00001000
00000100
00000001
00000000
,
00000001
00000100
00001000
00000000
,
00000100
00000000
00010000
00000000
00001000
00000000
00000000
01000000
,
00000000
00000000
00010000
00000000
00100000
00000000
00000000
02000000
,
00000000
00000000
00000000
13000000
,
10010000
00000000
00011000
00000000
,
00001001
00000000
00000010
00000100
,
00001000
00000000
00000100
00010000
,
00001000
00010000
00001000
00000000
,
01000000
00010000
00100000
00000000
,
00100000
00001000
00100000
00002000
,
00000000
00010000
00013000
00000000
,
00011000
00000000
00000100
00000000
,
00010000
00000100
00001000
00000000
,
00000001
00000000
00000000
00000010
00000000
00000000
00000001
00000000
,
00000010
00000100
00000000
00000010
,
00000100
00000000
00010000
00000000
,
00000010
00000000
00010000
00000100
,
00020000
00000000
00001000
00000000
,
00001000
00000000
00001000
00000000
,
00031000
00000000
00000000
00000000
,
00011000
00000000
00110000
00000000
,
10000000
00000000
00010000
01000000
,
00010000
00100000
01000000
00000000
,
10000000
00010000
00100000
00000000
,
00001000
00000000
00010000
00001000
00000000
00001000
00010000
00000000
,
00000100
00001000
00000010
00000000
,
00000100
00000010
00000100
00000000
,
00000001
00000010
00000001
00000200
,
00000000
00000301
00001000
00001000
,
00000100
00000000
00010000
00000000
,
00001000
00000000
01000000
00000000
,
01010000
00000000
00110000
00000000
,
10100000
00000000
11000000
00000000
,
10000000
00000000
00010000
00000000
,
00001000
00000000
00000001
00000000
,
00000202
00000000
00000000
00000300
,
00001000
00000000
00001000
00000000
00001003
00000001
00001000
00000001
,
00000010
00000000
00000100
00001000
00000100
00000000
00010000
00001000
,
00010000
00000000
00001000
00000000
00100000
00010000
00100000
00010000
,
01000000
00000000
00100000
00000000
10000000
00000000
00010000
00100000
,
00000000
00110000
00000000
00000000
20020000
00000000
00030000
00000000
,
30010000
00000000
01000000
00000000
,
00010000
00100000
00010000
00000000
,
00100000
00000000
00000000
00001000
00000000
00000000
00010000
00000000
,
00000100
00001000
00000100
00000000
,
00000010
00000000
00000000
00000001
00000000
00000000
00000010
00000000
,
00000100
00000000
00000000
00001000
00000000
00000000
00000100
00000000
,
00010000
00000000
00000000
00001000
00000000
00000000
00100000
00000000
,
00000000
01000000
00000000
10000000
,
00010000
00000000
00000000
10000000
00000000
00000000
00010000
00000000
,
00000000
00000000
00100000
00000000
00001000
00000000
00000000
00010000
,
00000000
00001000
00000000
00010000
,
00000100
00001000
00000100
00001000
,
00000001
00000000
00000000
00000010
00000000
00000000
00000100
00000000
,
00000000
00010000
00001000
00000000
,
00010000
00000000
00000000
01000000
00000000
00000000
10000000
00000000
,
00000000
00010000
01000000
00000000
,
00100000
01000000
00010000
00000000
,
00100000
00001000
00100000
00010000
,
00001000
00000000
00000100
00000000
,
00000010
00000001
00002000
00003200
,
00010300
00000000
00000000
00001000
00000000
00000000
00010000
00000000
,
00000000
00001000
01000000
00100000
,
10000000
00000000
00000000
00010000
00000000
00000000
00100000
00000000
,
00000000
00010000
00100000
00001000
,
00010000
00000000
00000100
00000010
,
00000001
00000100
00000001
00000100
,
00000010
00000000
00000000
00001000
00000000
00000000
00001000
00000000
,
00000000
00000100
00000000
00000000
00001000
00000000
00000000
00000000
,
00000010
00000000
00000000
00001000
00000000
00000000
00000100
00000000
,
00000000
00010000
00000000
00000000
01000000
00000000
00000000
00000000
,
20020000
00000000
30030000
00000000
,
00100000
01000000
00100000
00000000
,
01000000
00000000
00000000
00010000
00000000
00000000
10000000
00000000
,
01000000
00100000
00000000
00001000
,
00100000
00000000
00001000
00010000
,
00000100
00001000
00000001
00000000
,
00001001
00000000
00011000
00000000
,
01010000
00000000
10100000
00000000
,
00010000
00100000
00010000
00000000
,
01000000
00001000
00010000
00001000
,
00000010
00000000
00000000
00000001
00000000
00000000
00000100
00000000
,
00000000
00000010
00000100
00000001
,
00002000
00000000
00000100
00000000
,
00003100
00000000
00000000
00000000
,
00001100
00000000
00010000
00000000
,
00000100
00001000
00000020
00000000
,
00000130
00000000
00000001
00000000
00001000
00000000
00000000
00001000
,
00000000
00000000
00000100
00000000
00010000
00000000
00000000
00010000
,
00000000
00000000
00001000
00000000
00100000
00000000
00000000
00100000
,
00000000
00010000
01000000
00010000
,
10000000
00000000
11000000
00000000
,
00010000
00000000
01010000
00000000
,
00100000
00000000
00001000
00000000
00000000
00001000
00000000
00000000
,
00020000
00000000
00000200
00030300
,
00010000
00000000
00000000
00000000
00000100
00000000
00000000
00001000
,
00000000
00000000
00000010
00000000
00000100
00000000
00000000
00000001
,
00000000
00000000
00000010
00000000
00000001
00000000
00000000
00000010
,
00000000
00000100
00001000
00000100
,
00001000
00000000
00000001
00000000
,
00000100
00000010
00001000
00000000
,
00010000
00000000
01000000
00010000
,
10000000
00000000
00000000
00000000
00100000
00000000
01000000
00100000
,
01000000
00000000
00000000
00000000
00010000
00000000
00000000
00100000
,
00000000
00000000
00010000
00000000
10000000
00000000
00000000
02000000
,
00000000
00000000
13000000
00000000
,
00010000
00000000
00000000
01000000
00000000
00000000
00010000
00000000
,
00100000
00000000
00001000
00000000
,
00010000
00001000
00010000
00000000
,
00002000
00000000
00003000
00000000
;

//---------------dance-double - ----------------
#NOTES:
     dance-double:
     :
     Easy:
     5:
     0.360,0.479,0.115,0.097,0.000:
00000000
00000000
00000000
00000000
,
00000000
00000000
00000000
00000000
,
00000000
00000000
00000000
00000000
,
00000000
00000000
00000000
00000000
,
10000000
00000000
00010000
00000000
,
00001000
00000000
00000001
00000000
,
00000000
00000000
00000100
00000000
00000000
00000100
00000000
00000000
,
00000200
00000000
00000310
00000000
,
00001000
00000000
00000100
00000000
,
00010000
00000000
00001000
00000000
,
01000000
00000000
00010000
00000000
,
10000000
00000000
00100000
00000000
,
01000000
00000000
00000000
00000000
00010000
00000000
00000000
00010000
,
00000000
00000000
00000000
00000000
10000000
00000000
00000000
20000000
,
00000000
00000000
00000000
30010000
,
10010000
00000000
10010000
00000000
,
00010000
00000000
01000000
00000000
,
00100000
00000000
00010000
00000000
,
00001000
00000000
00010000
00000000
,
00000100
00000000
00000010
00000000
,
00000001
00000100
00000001
00000100
,
00000000
00000010
00001000
00000000
,
00001100
00000000
00010000
00000000
,
00001000
00000000
00100000
00010000
,
00100000
00000000
01000000
00000000
,
10000000
00010000
00000000
00000000
,
01000000
00000000
00100000
00000000
,
01000000
00010000
00100000
00000000
,
00002000
00000000
00000000
00000000
,
00000000
00000000
00000000
00000000
,
00013000
00000000
00000000
00000000
,
00001100
00000000
00000011
00000000
,
00001001
00000000
00000100
00000000
,
00000010
00000100
00000010
00000000
,
00001000
00000000
00000001
00000000
,
00000010
00000000
00000100
00010000
,
00001000
00000000
00100000
00000000
,
00010000
01000000
00010000
00000000
,
10000000
01000000
10000000
01000000
,
00000000
00100000
00010000
00000000
,
01000000
00000000
01000000
00000000
,
00010000
00000000
00010000
00000000
,
00100000
00000000
00100000
00000000
,
00001000
00000000
00001000
00000000
,
00010000
00000000
00010000
00000000
,
00001000
00000000
00001000
00000000
,
00000200
00000000
00000010
00000000
,
00000010
00000000
00000010
00000301
,
00000101
00000000
00001000
00000100
,
00001100
00000000
00010000
00000100
,
00010000
00000000
00001000
00000000
,
00010000
01000000
20000000
30000000
,
10010000
00000000
01000000
00000000
,
01000000
00000000
00100000
00000000
,
01000000
00000000
00010000
00000000
,
00100000
00000000
00000000
00000000
,
00001000
00000000
00001000
00000000
,
00010000
00000000
00010000
00000000
,
00000100
00000000
00001000
00000000
,
00000010
00000100
00000010
00000000
,
00000100
00000000
00000000
00000100
00000000
00000000
00000100
00000000
,
00000000
00000000
00000000
00000000
00000001
00000000
00000000
00000001
,
00000000
00000001
00000000
00000000
,
00001001
00000000
00001100
00000000
,
00010000
00000000
00000000
00001000
00000000
00000000
00010000
00000000
,
00000000
00000000
01000000
00000000
,
10000000
00000000
00000000
00010000
00000000
00000000
10000000
00000000
,
00000000
00000000
00100000
00000000
,
00010000
00000000
00001000
00000000
,
00010000
00001000
00000100
00000000
,
00000010
00000100
00000001
00000100
,
00000000
00000010
00001000
00000001
,
00001000
00000000
00000000
00000100
00000000
00000000
00001000
00000000
,
00000000
00000000
00000100
00000000
,
00010000
00000000
00000000
00001000
00000000
00000000
00100000
00000000
,
00000000
00000000
00010000
00000000
,
00100000
00001000
00010000
00000000
,
00001000
00100000
00010000
01000000
,
00200000
00000000
10000000
00000000
,
01000000
00000000
10000000
00000000
,
02300000
00000000
00010000
00000000
,
03100000
00000000
00010000
10000000
,
00010000
00000000
00100000
00000000
,
00001000
00010000
00001000
00000000
,
00010000
00000000
00000000
00000010
00000000
00000000
00000100
00000000
,
00000000
00000001
00000000
00000010
,
00000100
00000000
00000010
00000000
,
00001000
00000010
00000001
00000000
,
00000001
00000000
00001000
00000000
,
00010000
00000000
10000000
00000000
,
10010000
00000000
01000000
00000000
,
00010000
10000000
00010000
00000000
,
00100000
00000000
00000000
00001000
00000000
00000000
00010000
00000000
,
00000000
00000100
00000000
00010000
,
00001000
00000000
00000020
00000000
,
00000002
00000000
00000033
00000000
,
00001001
00000000
00001000
00000000
,
00000001
00000100
00000001
00000000
,
00001000
00000000
00000000
00000000
00000100
00000000
00000000
00010000
,
00000000
00000000
00001000
00000000
00001000
00000000
00000000
00100000
,
00000000
00000000
00010000
00000000
00010000
00000000
00000000
01000000
,
00000000
00100000
10000000
00000000
,
10000000
00000000
00010000
00000000
,
00001000
00000000
00000001
00000000
,
00000000
00000000
00000100
00000000
00000000
00000010
00000000
00000000
,
00000200
00000000
00000310
00000000
,
00001000
00000000
00000100
00000000
,
00010000
00000000
00000100
00000000
,
00010000
00000000
00001000
00000000
,
00100000
00010000
00100000
00000000
,
01000000
00000000
10000000
00000000
,
00010000
00000000
01000000
00000000
,
10000000
00000000
01000000
00000000
,
00010000
00000000
00100000
00000000
,
00001000
00000000
00000000
00000000
00000100
00000000
00000000
00000010
,
00000000
00000000
00000100
00000000
00000001
00000000
00000000
00000100
,
00000000
00000000
00000000
00000000
,
00000010
00000000
00000000
00001000
00000000
00000000
00000100
00000000
,
00010000
00000000
00001000
00000000
,
01000000
00010000
01000000
00000000
,
00200000
00000000
00300000
00000000
;
