#TITLE:So good!!;
#SUBTITLE:;
#ARTIST:Sota Fujimori feat. Kanae;
#TITLETRANSLIT:;
#SUBTITLETRANSLIT:;
#ARTISTTRANSLIT:;
#GENRE:;
#CREDIT:;
#MENUCOLOR:;
#METERTYPE:DDR;
#BANNER:So good!!-bn.png;
#BACKGROUND:So good!!-bg.png;
#LYRICSPATH:;
#CDTITLE:TUNE STREET-cdtitle.png;
#MUSIC:So good!!.mp3;
#OFFSET:-0.440;
#SAMPLESTART:53.020;
#SAMPLELENGTH:13.400;
#SELECTABLE:YES;
#LISTSORT:;
#BPMS:0.000=146.000;
#STOPS:;
#BGCHANGES:;
#ATTACKS:;

//---------------dance-single - ----------------
#NOTES:
     dance-single:
     :
     Hard:
     8:
     0.524,0.553,0.194,0.243,0.045:
0000
0000
0000
0000
,
0000
0000
0000
0000
,
0000
0000
0000
0000
,
0000
0000
0000
0000
,
0002
0000
0203
0000
0302
0000
1003
0001
,
0010
0000
0000
1000
0000
0000
0010
0000
0001
0000
0000
0000
1001
0000
0000
0000
,
0100
0000
0011
0000
1100
0000
0010
0100
,
0001
0000
0000
1000
0000
0100
2000
0000
0000
0000
0100
0000
3100
0000
0000
0000
,
1001
0001
0100
0010
0000
1000
0000
0001
,
0010
0001
1000
1000
0001
0000
0100
0000
,
0010
0001
0010
0100
0000
0001
0000
1000
,
0100
0010
0100
0000
1000
0001
1001
0000
,
0010
0100
0010
1000
0000
0001
0010
0001
,
0000
1000
0100
0010
1000
0000
0010
0000
,
0001
0100
1000
0100
0010
0001
0010
1000
,
0100
0000
1000
0000
2000
0010
3010
0000
,
1000
0000
0001
0010
0001
0000
0100
0010
,
0100
0001
1000
0100
1000
0000
1001
0000
,
0010
0100
1000
0100
0001
0100
0010
0002
,
0000
0203
0010
0000
0310
1000
0100
0000
,
1000
0001
0100
0010
0000
1000
0010
0001
,
0000
0010
0100
0000
0001
0010
0100
0000
,
0010
0100
1000
0001
0100
0001
0000
1000
,
0010
0110
0202
0303
,
2000
0000
0010
0000
3001
1000
0002
0000
,
0023
0000
0100
0000
0001
0000
0130
1000
,
0002
0010
1000
0013
,
1000
0001
0100
0010
0000
1000
0100
1000
,
0000
0002
0100
0000
1003
0001
0200
0000
,
0320
1000
0100
0031
,
0200
0001
0001
0310
,
0001
0100
0000
1100
0000
1000
0001
0101
,
1001
0000
0001
0100
0001
1000
0100
0001
,
0000
0100
0010
0000
0100
1000
0100
1000
,
0001
0000
0010
0001
0000
0100
0010
0100
,
0001
1000
0001
0010
0001
0000
1001
0000
,
1010
0000
0100
0010
0100
0001
1000
0100
,
0000
0100
1000
0001
0100
0010
0000
1000
,
0100
0000
1000
0001
0001
0100
0001
1000
,
0000
0100
1000
0000
1000
0001
0010
0001
,
0101
0000
1000
0010
0100
0001
0000
0001
,
1000
0100
1000
0000
0100
1000
0001
0010
,
0100
0000
0001
0100
0000
1000
0100
0010
,
0000
0100
0010
0010
0001
0100
0010
1000
,
0010
0000
1001
0000
0001
0010
0001
0010
,
0000
0100
1000
0000
0001
0100
1000
0100
,
0001
0000
1000
0010
0000
0100
0010
0100
,
0000
0001
2000
0000
3001
0010
0000
1100
,
1002
0000
0100
0000
,
1003
0000
0000
0100
0000
0000
0020
0000
0000
0000
0000
0000
0000
0000
0000
0000
,
0230
0000
1000
0000
,
0310
0000
0000
0001
0000
0000
2000
0000
0000
0000
0000
0000
3010
0000
0000
0000
,
0101
0000
1000
0000
,
0001
0000
0000
0200
0000
0000
0002
0000
0300
0000
0000
0000
1003
0000
0000
0000
,
1010
0010
0100
0010
0000
0000
1000
0100
,
1000
0000
0000
1000
0000
0000
0002
0000
0000
0000
0000
0000
0013
0000
0000
0000
,
0100
1000
0100
1000
0001
0100
0000
0100
,
0001
0010
0100
1000
0000
1000
0001
0001
,
0100
0010
1000
0100
1000
0001
0000
0001
,
0100
0000
0000
0101
0000
0000
0020
0000
0000
0000
1030
0000
0100
0000
0010
0000
,
0001
1000
1000
0001
0010
0100
0000
0010
,
0001
1000
0010
0001
0000
0010
0100
0001
,
1000
0100
1000
0010
0100
0010
0100
0001
,
0010
0000
0000
0110
0000
0000
2000
0000
0000
0000
3001
0000
0100
0000
0010
0000
,
1001
0000
0010
0001
0100
0001
1000
0200
,
0000
1300
0010
0100
0010
0001
0010
0100
,
0002
0000
0000
0000
0103
0000
0001
0000
0001
0000
0010
0000
0100
0000
1000
0001
,
0000
1000
0001
0000
0010
0000
0001
0000
2000
0000
0010
0000
3001
0000
1000
0000
,
0001
0100
0100
0010
1000
0001
0010
1000
,
0010
0001
1000
0010
0001
0010
1000
0001
,
0100
0010
1000
0001
0010
0100
1000
0001
,
0000
0001
0100
0001
0000
1000
1100
1001
;

//---------------dance-single - ----------------
#NOTES:
     dance-single:
     :
     Medium:
     5:
     0.343,0.408,0.138,0.178,0.008:
0000
0000
0000
0000
,
0000
0000
0000
0000
,
0000
0000
0000
0000
,
0000
0000
0000
0000
,
0010
0000
1000
0000
0001
0000
0100
0001
,
0000
1000
0000
0000
1001
0000
0010
0000
,
0100
0000
0010
0000
1000
0000
0001
0010
,
0000
0100
0000
0000
1001
0000
0100
0000
,
0010
0000
0000
0100
0000
0010
0000
1000
,
0000
0001
0010
0000
0002
0000
1003
0000
,
1000
0000
0000
0100
0000
0001
0000
0100
,
0000
0010
0001
0000
0020
0000
0130
0000
,
1000
0000
0000
0001
0000
0100
0000
0010
,
0000
1000
0001
0000
2000
0000
3100
0000
,
1000
0000
0000
0010
0000
0001
0000
0010
,
0000
0100
0010
0000
0200
0000
0300
0000
,
1001
0000
0001
0000
0010
0000
0000
0001
,
0000
1000
0000
0001
0000
0100
0000
0001
,
0000
0000
1000
0000
0100
0000
1000
0100
,
0000
0020
0000
0000
0001
0000
0031
0000
,
1000
0000
0010
0000
0100
0000
0000
0001
,
0000
0100
0000
0010
0000
1000
0000
0001
,
0000
0000
0001
0000
0010
0000
0001
0100
,
0000
0002
0000
0000
0100
0000
0103
0000
,
2001
0001
0001
3010
,
0102
1000
1000
0013
,
1000
0100
1000
0100
,
0010
0000
0000
0001
0000
0011
0000
0011
,
0000
0002
0100
0000
0100
0000
1003
0000
,
0200
0010
0001
0301
,
0002
1003
2000
3100
,
0000
1100
0000
1001
0000
0101
0000
1001
,
0000
0010
0100
0010
,
1000
0000
1000
0000
0100
0000
0010
0001
,
0000
0100
0010
0100
,
0001
1000
1000
0000
,
1001
0100
0010
0100
,
0001
0000
0010
0000
0100
0000
1000
0001
,
0000
0010
0001
0100
,
0010
0100
1000
0100
,
0110
1000
1000
0000
,
0001
0000
0010
0000
0100
0000
0010
0001
,
0000
1000
0010
0100
,
0001
1000
1000
0010
,
0000
0100
0001
0000
,
0010
0000
0100
0000
1000
0000
1000
0100
,
0000
1000
0001
0100
,
0010
0010
1000
0100
,
0210
0000
1000
0000
,
0010
0000
0000
0020
0000
0000
0330
0000
,
0201
0000
0010
0000
,
0001
0000
0000
0002
0000
0000
0303
0000
,
1020
0000
0001
0000
,
1000
0000
0000
2000
0000
0000
3030
0000
,
2001
0000
0000
0100
0000
0000
0000
0000
,
0010
0000
0000
0020
0000
0000
3030
0000
,
0001
0100
0010
1000
,
0001
0000
0001
1000
0000
0001
1000
0000
,
0100
0010
0100
1000
,
0001
0000
0000
1000
0000
0000
0002
0000
0000
0000
0003
0000
0000
0000
0000
0000
,
0100
0010
1000
1000
,
0001
0000
0010
0001
0000
0010
0001
0000
,
0010
0100
0010
0001
,
1000
0000
0000
0100
0000
0000
2000
0000
0000
0000
0000
0000
3001
0000
0000
0000
,
0100
0010
1000
0001
,
0100
0000
0010
0000
1000
0010
0100
0000
,
0001
0000
1000
0000
0100
0010
0001
0000
,
0100
0000
0001
1000
1000
0000
0001
0000
,
0010
0100
0010
0000
0001
0000
1000
0000
,
0001
0000
0010
0000
0001
0100
0001
0000
,
1000
0100
0010
0001
,
1000
0001
0100
0010
0000
1000
0001
0001
;

//---------------dance-single - ----------------
#NOTES:
     dance-single:
     :
     Easy:
     3:
     0.274,0.321,0.105,0.227,0.000:
0000
0000
0000
0000
,
0000
0000
0000
0000
,
0000
0000
0000
0000
,
0000
0000
0000
0000
,
0001
0001
0100
0000
,
0010
1000
0002
0000
,
1003
1000
0100
0000
,
1000
0010
1001
0000
,
0010
0100
0001
1000
,
0100
0000
1000
0000
,
0010
0100
0001
0010
,
0100
0000
1000
0002
,
0013
0001
0100
0010
,
1000
0000
0001
0000
,
0010
0100
0010
0001
,
0100
0000
0200
0000
,
0310
1000
0001
0000
,
1000
0100
1000
0001
,
0000
0100
0010
0100
,
0020
1000
0000
1030
,
0001
1000
0100
0000
,
1000
0100
0010
0001
,
0000
0100
0001
0100
,
0020
0000
1030
0000
,
2000
0000
3200
0000
,
0320
0001
0032
0000
,
2003
0000
3002
0000
,
0103
0010
0100
1001
,
0000
0010
0100
0010
,
1000
0000
0001
0010
,
0001
0000
1000
0000
,
0220
0000
0000
0330
,
1000
0010
1000
0000
,
0001
0000
0010
0100
,
0010
0000
0001
0100
,
0002
1000
0103
0000
,
0010
0100
0001
0000
,
1000
0001
0010
0000
,
0100
1000
0100
1000
,
0001
0000
0001
0100
,
1001
0000
0010
0100
,
0001
0000
0010
0000
,
0100
1000
0001
0100
,
0001
0000
1000
1000
,
1100
0000
1000
0010
,
0100
0000
0001
0010
,
0001
0100
0100
0000
,
0010
0100
0010
0000
,
1002
0000
0000
0000
,
0203
0000
0000
0000
,
2300
0000
0000
0000
,
3020
0000
0000
0000
,
0031
0000
0000
0000
,
2002
0000
0000
3000
0000
0000
0003
0000
0000
0000
0000
0000
0000
0000
0000
0000
,
0220
0000
0000
0030
0000
0000
0000
0300
,
0002
0000
0000
0003
0000
0000
1001
0000
,
0100
0010
1000
0000
,
0001
0010
0000
0001
,
0100
0010
0100
0001
,
2200
0000
0000
0300
0000
0000
3000
0000
0000
0000
0000
0000
1100
0000
0000
0000
,
0001
0100
0001
0000
,
0010
0100
1000
0000
,
0010
0100
0010
1000
,
0202
0000
0000
0300
0000
0000
0003
0000
0000
0000
0000
0000
1001
0000
0000
0000
,
0001
0010
0100
1000
,
0000
0010
0100
0010
,
1000
0001
0010
0001
,
0100
0020
0100
0130
,
0010
1000
0100
1000
,
0001
0001
0010
0100
,
0010
0001
1000
0001
,
0100
1000
1000
0100
,
0010
0000
0000
0000
;

//---------------dance-single - ----------------
#NOTES:
     dance-single:
     :
     Beginner:
     1:
     0.123,0.175,0.049,0.122,0.000:
0000
0000
0000
0000
,
0000
0000
0000
0000
,
0000
0000
0000
0000
,
0000
0000
0000
0000
,
0001
0000
0000
0000
,
1000
0000
1000
0000
,
0100
0000
0000
0000
,
0010
0000
0010
0000
,
0001
0000
0000
0000
,
0100
0000
0000
0000
,
0010
0000
0000
0000
,
1000
0000
0000
0000
,
0100
0000
0000
0000
,
0001
0000
0000
0000
,
0100
0000
0000
0000
,
1000
0000
0000
0000
,
0110
0000
0000
0000
,
0100
0000
0100
0000
,
0001
0000
0000
0000
,
1000
0000
1000
0000
,
0100
0000
0000
0000
,
0010
0000
0100
0000
,
0010
0000
0000
0000
,
0001
0000
1000
0000
,
0002
0000
0000
0000
,
0003
0000
0000
0000
,
2000
0000
0000
0000
,
3000
0000
0000
0000
,
0200
0000
0000
0000
,
0300
0000
0000
0000
,
0020
0000
0000
0000
,
0030
0000
0000
0000
,
1001
0000
0000
0000
,
0010
0000
0001
0000
,
0010
0000
0000
0000
,
0100
0000
1000
0000
,
0100
0000
0000
0000
,
1000
0000
0001
0000
,
1000
0000
0000
0000
,
0001
0000
0100
0000
,
0001
0000
0000
0000
,
0010
0000
0100
0000
,
0010
0000
0000
0000
,
0001
0000
1000
0000
,
0001
0000
0000
0000
,
1000
0000
0010
0000
,
1000
0000
0000
0000
,
0100
0000
1000
0000
,
2002
0000
0000
0000
,
0000
0000
0000
3000
0000
0000
0003
0000
0000
0000
0000
0000
0000
0000
0000
0000
,
0220
0000
0000
0000
,
0000
0000
0000
0030
0000
0000
0300
0000
0000
0000
0000
0000
0000
0000
0000
0000
,
2002
0000
0000
0000
,
0000
0000
0000
0003
0000
0000
3000
0000
0000
0000
0000
0000
0000
0000
0000
0000
,
0220
0000
0000
0000
,
0000
0000
0000
0300
0000
0000
0030
0000
0000
0000
0000
0000
0000
0000
0000
0000
,
1000
1000
1000
0000
,
0001
0000
0000
0000
,
0010
0010
0010
0000
,
0100
0000
0000
0000
,
1000
0000
0001
0000
,
0001
0000
0000
0000
,
0100
0000
0001
0000
,
0100
0000
0000
0000
,
0020
0000
0030
0000
,
1000
0000
0001
0000
,
2000
0000
3000
0000
,
0100
0000
0010
0000
,
0001
0000
1000
0000
,
0010
0000
0100
0000
,
0001
0000
1000
0000
,
0200
0000
0000
0000
0000
0000
0000
0300
;

//---------------dance-double - ----------------
#NOTES:
     dance-double:
     :
     Hard:
     8:
     0.523,0.524,0.211,0.267,0.049: // measure 1
00000000
00000000
00000000
00000000
,  // measure 2
00000000
00000000
00000000
00000000
,  // measure 3
00000000
00000000
00000000
00000000
,  // measure 4
00000000
00000000
00000000
00000000
,  // measure 5
00002010
00000000
00003001
00000000
00000100
00000000
00000010
00010000
,  // measure 6
00001000
00000000
00000000
00100000
00000000
00000000
00010000
00000000
00000000
00000000
01000000
00000000
10000000
00000000
10000000
00000000
,  // measure 7
01000000
00000000
00100000
00000000
01000000
00010000
00100000
00001000
,  // measure 8
00010000
00000000
00000000
00000100
00000000
00001000
00000200
00000000
00000000
00000000
00000000
00000000
00001300
00000000
00000000
00000000
,  // measure 9
00000010
00001000
00000100
00010000
00000000
00000100
00000000
00001000
,  // measure 10
00000001
00000010
00000100
00000000
00000110
00000000
00011000
00000000
,  // measure 11
00100000
00001000
00010000
00001000
00000000
01000000
00000000
00010000
,  // measure 12
00100000
10000000
00100000
00000000
00110000
00000000
10010000
00000000
,  // measure 13
00100000
00001000
00100000
01000000
00000000
10000000
00000000
00010000
,  // measure 14
01000000
00010000
00100000
00000000
00001000
00000000
00011000
00000000
,  // measure 15
00000100
00001000
00000010
00000100
00000000
00000001
00000010
00001000
,  // measure 16
00000000
00000001
00000100
00000000
00001000
00000010
00000010
00000000
,  // measure 17
00001001
00000000
00000010
00001000
00000010
00000000
00000100
00000001
,  // measure 18
00000000
00000010
00000100
00001000
00000000
00000100
00001000
00010000
,  // measure 19
00100000
00010000
10000000
00000000
00010000
00000000
01000000
00100000
,  // measure 20
00000000
00100000
01000000
00000000
10010000
00000000
01010000
00000000
,  // measure 21
10000000
00100000
01000000
00010000
00000000
00100000
01000000
00100000
,  // measure 22
00000000
10000000
00100000
00000000
00010000
00000000
00100000
00001000
,  // measure 23
00010000
00000010
00000100
00001000
00000000
00001000
00000100
00000001
,  // measure 24
00001000
00000001
00000100
00000000
00002002
00000000
00003003
00000000
,  // measure 25
00000120
00002030
00003200
00000320
,  // measure 26
00000230
00000000
00020300
00000000
00230000
00000000
01300000
00010000
,  // measure 27
20000000
32000000
03200000
00320000
,  // measure 28
02030000
00000000
03010000
10000000
00000000
01010000
00000000
00101000
,  // measure 29
00000000
00001000
00020000
00000000
00030200
00000000
00002300
00000000
,  // measure 30
00003020
00002030
00023000
02030000
,  // measure 31
03200000
01000000
01000000
10300000
,  // measure 32
00010000
00100000
00000000
00110000
00000000
00001000
00010000
00001000
,  // measure 33
00000100
00000000
00000010
00000100
00000001
00000010
00000000
00000001
,  // measure 34
00001000
00000100
00010000
00000000
00000100
00010000
00001000
01000000
,  // measure 35
00100000
00000000
10000000
01000000
00000000
00100000
00010000
00001000
,  // measure 36
00000000
00000100
00000000
00000110
00000000
00000001
00001000
00000001
,  // measure 37
00000200
00000000
00000310
00000100
00000001
00000010
00000000
00001100
,  // measure 38
00000000
00000100
00010000
00000000
01000000
10000000
00010000
01000000
,  // measure 39
00100000
00000000
01000000
00010000
00000000
10000000
01000000
00020000
,  // measure 40
00000000
00031000
00000200
00000000
00000301
00000100
00000010
00010000
,  // measure 41
00011000
00000000
00010000
00000100
00001000
00000100
00000000
00010000
,  // measure 42
00100000
01000000
00010000
00000000
10000000
01000000
00100000
01000000
,  // measure 43
00100000
00000000
00010000
00100000
00000000
00010000
00100000
00001000
,  // measure 44
00000000
00011000
00000000
00010100
00000000
00000100
00001000
00000001
,  // measure 45
00000010
00000000
00000001
00001000
00000010
00000100
00000000
00001000
,  // measure 46
00000100
00000010
00000100
00000000
00000010
00001000
00000000
00000100
,  // measure 47
00010000
00000000
00001000
00100000
00010000
01000000
10000000
01000000
,  // measure 48
00010000
00100000
00001000
00100000
00001000
00010000
00000000
00011000
,  // measure 49
00020000
00000000
02030000
00000000
,  // measure 50
13000000
00000000
00000000
00100000
00000000
00000000
00020000
00000000
00000000
00000000
00000000
00000000
00000000
00000000
00000000
00000000
,  // measure 51
00032000
00000000
00003200
00000000
,  // measure 52
00000301
00000000
00000000
00000010
00000000
00000000
00002000
00000000
00000000
00000000
00000000
00000000
00000000
00000000
00000000
00000000
,  // measure 53
00013000
00001000
00001000
00000000
,  // measure 54
00101000
00000000
00000000
00010100
00000000
00000000
00010000
00000000
,  // measure 55
00001000
00000000
00100000
00001000
00100000
00000000
00001000
00000000
00000000
00000000
00000000
00000000
00010000
00000000
00000100
00000000
,  // measure 56
00001100
00000000
00000000
00010000
00000000
00000000
00010000
00000000
00000000
00000000
00001000
01000000
00001000
00000000
00000000
00000000
,  // measure 57
00010000
00000100
00001000
00000010
00001000
00000001
00000000
00000010
,  // measure 58
00000001
00000010
00000100
00001000
00000000
00000100
00001000
00010000
,  // measure 59
01000000
00100000
01000000
00010000
10000000
00100000
00010000
00100000
,  // measure 60
01000000
00000000
00000000
00010000
00000000
00000000
10010000
00000000
00000000
00000000
00100000
00000000
01000000
00000000
00010000
00000000
,  // measure 61
00100000
00001000
00001000
00010000
00000100
00001000
00000001
00000010
,  // measure 62
00001000
00000010
00000001
00000100
00000000
00000010
00010000
00000010
,  // measure 63
00001000
00000100
00010000
00001000
00100000
01000000
10000000
00010000
,  // measure 64
00100000
00000000
00000000
00010000
00000000
00000000
00110000
00000000
00000000
00000000
00010000
00000000
01000000
00000000
00001000
00000000
,  // measure 65
00010000
00000000
00001000
00001000
00010000
00000100
00000010
00000001
,  // measure 66
00000000
00001000
00000010
00000100
00000010
00001000
00000100
00010000
,  // measure 67
01000000
00000000
00010000
00000000
00001000
00000000
00100000
00000000
00000010
00000000
00100000
00000000
00010000
00000000
00100000
00001000
,  // measure 68
00000000
00100000
00001000
00000000
00010000
00000000
00001000
00000000
00010000
00000000
00000100
00000000
00000010
00000000
00001000
00000000
,  // measure 69
00100000
01000000
01000000
10000000
00010000
00100000
00001000
00010000
,  // measure 70
00000010
00000100
00000001
00000010
00000100
00001000
00000001
00000100
,  // measure 71
00001000
00000100
00000010
00001000
00000100
00010000
00001000
00000100
,  // measure 72
00000000
00000010
00000100
00000001
00000000
00000001
00000010
00001100
;

//---------------dance-double - ----------------
#NOTES:
     dance-double:
     :
     Medium:
     5:
     0.321,0.349,0.049,0.130,0.028:
00000000
00000000
00000000
00000000
,
00000000
00000000
00000000
00000000
,
00000000
00000000
00000000
00000000
,
00000000
00000000
00000000
00000000
,
20000000
30020000
20030000
30000000
,
00100000
00000000
00000000
01000000
00000000
00000000
00010000
00000000
00000000
00000000
00000000
00000000
00110000
00000000
00000000
00000000
,
00002000
00023000
00032000
00003000
,
00000100
00000000
00000000
00000001
00000000
00000000
00002000
00000000
00000000
00000000
00000000
00000000
00003000
00000000
00000000
00000000
,
00000010
00000000
00000000
00001000
00000000
00000100
00000000
00001000
,
00000000
00010000
00001000
00010000
,
01000000
00000000
00000000
00010000
00000000
10000000
00000000
00010000
,
00000000
00100000
00100000
00000000
,
00010000
00000000
00000000
00100000
00000000
00001000
00000000
00100000
,
00000000
00001000
00001000
00010000
,
00000010
00000000
00000000
00000100
00000000
00000001
00000000
00000100
,
00000000
00000010
00000100
00000000
,
00001001
00000000
00001000
00000000
00000200
00000000
00000000
00001300
,
00000000
00000100
00001000
00000000
00000000
00000010
00000000
00000100
,
00000000
00000000
00000010
00000000
00001000
00000000
00000100
00020000
,
00000000
00002000
00000000
00033000
00000000
00000000
00011000
00000000
,
00110000
00000000
00010000
00000000
02000000
00000000
00000000
03010000
,
00000000
01000000
00010000
00000000
00000000
10000000
00000000
00010000
,
00000000
00000000
00100000
00000000
00001000
00000000
00010000
00001000
,
00000000
00000100
00000010
00000000
,
00001000
00000010
00000001
00000010
,
00001000
00000100
00010000
00001000
,
00200000
00010000
00010000
01300000
,
10000000
00000000
00010000
01000000
00000000
00010000
00000000
10000000
,
00000000
01000000
00100000
00000000
00010000
00000000
00100000
00000000
,
00010000
00001000
00000100
00000010
,
00000001
00000100
00000001
00001000
,
00000010
00000100
00000000
00000001
00000000
00001000
00000100
00000010
,
00000001
00000000
00001000
00000000
00000100
00000000
00000000
00010000
,
00000000
00000100
00010000
00000000
00001000
00000000
00000000
00100000
,
00000000
00000000
00010000
00000000
00000000
00010000
00000000
10000000
,
00000000
00100000
00000000
00010000
00000000
00000000
00001000
00000000
,
00011000
00000000
00001000
00000000
00010000
00001000
00000000
00000100
,
00000000
00000000
00000001
00000000
00001000
00000100
00000000
00000010
,
00000000
00000000
00001000
00000000
00000010
00000000
00000001
00001000
,
00000000
00000100
00010000
00000000
00001000
00000000
00000000
00001000
,
00010000
00000000
01000000
00000000
00100000
00000000
00000000
00010000
,
00000000
00000000
01000000
00000000
00100000
01000000
00000000
00010000
,
00000000
00000000
10000000
00000000
00000000
01000000
00000000
00100000
,
00000000
00010000
00000000
00100000
00000000
00001000
00000000
00000000
,
00010000
00000000
00000100
00000000
00001000
00000000
00000000
00000010
,
00000000
00000000
00000100
00000000
00000001
00000010
00000000
00000001
,
00000000
00000000
00001000
00000000
00000000
00000100
00000000
00010000
,
00000000
00000000
00000100
00000000
00001000
00000010
00000000
00000010
,
00000200
00000000
00000000
00000000
,
00000301
00000000
00000000
00001000
00000000
00000000
00000100
00000000
,
00020000
00000000
00000000
00000000
,
00031000
00000000
00000000
01000000
00000000
00000000
00100000
00000000
,
20000000
00000000
00010000
30000000
,
01000000
00000000
00000000
00010000
00000000
00000000
10000000
00000000
00000000
00000000
00000000
00000000
00010000
00000000
00000000
00000000
,
00200000
00000000
00000000
00001000
00000000
00000000
00300000
00000000
,
00010000
00000000
00000000
00001000
00000000
00000000
00010000
00000000
00000000
00000000
00000000
00000000
00011000
00000000
00000000
00000000
,
00000100
00001000
00000001
00000010
,
00000100
00000000
00010000
00000100
00000000
00000100
00010000
00000000
,
00001000
00100000
01000000
10000000
,
00010000
00000000
00000000
01000000
00000000
00000000
00010000
00000000
00000000
00000000
00000000
00000000
10000000
00000000
00000000
00000000
,
00010000
00100000
01000000
01000000
,
00100000
00000000
00001000
00010000
00000000
00001000
00010000
00000000
,
00000100
00001000
00000010
00000100
,
00000010
00000000
00000000
00001000
00000000
00000000
00000001
00000000
00000000
00000000
00000000
00000000
00000100
00000000
00000100
00000000
,
00000010
00000000
00001000
00000000
00000001
00000010
00000100
00000000
,
00001000
00000000
00000100
00000000
00010000
00001000
00010000
00000000
,
01000000
00000000
00000000
00000000
10000000
00000000
00000000
00000000
00010000
00000000
00000000
00000000
01000000
00000000
00000000
00100000
,
00000000
01000000
00100000
00000000
10000000
00000000
00010000
00000000
,
00100000
00001000
00100000
00000000
00010000
00000000
01000000
00000000
,
00001000
00010000
00000100
00001000
,
00000010
00001000
00000001
00000010
,
00000000
00000100
00010000
00000100
00000000
00010000
00001000
00010000
;

//---------------dance-double - ----------------
#NOTES:
     dance-double:
     :
     Easy:
     4:
     0.313,0.349,0.146,0.146,0.000:
00000000
00000000
00000000
00000000
,
00000000
00000000
00000000
00000000
,
00000000
00000000
00000000
00000000
,
00000000
00000000
00000000
00000000
,
00011000
00000000
00000100
00000000
,
00001000
00000100
00010000
00000000
,
00001000
00000000
00010000
00000000
,
00001000
00100000
00010000
00000000
,
10010000
00100000
00010000
01000000
,
00100000
01000000
00010000
00010000
,
00100000
00001000
00010000
00000100
,
00001000
00001000
00000020
00000030
,
00000100
00000001
00000010
00000100
,
00001000
00000100
00010000
00000100
,
00010000
00001000
00100000
00010000
,
00100000
01000000
02000000
03000000
,
10010000
01000000
01000000
00000000
,
10000000
00010000
00100000
00001000
,
00100000
00010000
00001000
00000010
,
00000100
00000001
00000001
00000000
,
00001000
00000010
00001000
00000100
,
00010000
00000100
00001000
00000001
,
00000010
00000100
00001000
00100000
,
00010000
00001000
00011000
00000000
,
00100000
00010000
00100000
00010000
,
10000000
01000000
10000000
00100000
,
00010000
00001000
00000100
00000001
,
00000100
00000000
00000001
00000100
,
00000101
00001100
00001000
00000100
,
00010000
00001000
00000100
00000001
,
00000100
00000010
00001000
00000100
,
00010000
00001000
00100000
00110000
,
01010000
10000000
10000000
00010000
,
00010000
00100000
00010000
00001000
,
00000000
00000100
00000010
00000100
,
00000001
00000010
00000100
00001000
,
00000001
00000001
00000100
00000010
,
00001000
00000100
00000010
00000100
,
00000000
00001000
00000100
00010000
,
00000100
00001000
00010000
01000000
,
01100000
10000000
00010000
00100000
,
00001000
00100000
01000000
10000000
,
00000000
00010000
00100000
00001000
,
00010000
00000100
00001000
00001000
,
00000110
00000100
00000001
00000010
,
00000100
00001000
00000001
00000100
,
00000010
00000000
00001000
00000100
,
00010000
00100000
01000000
00010000
,
20020000
00000000
30030000
00000000
,
00020000
00000000
00130000
00000000
,
00022000
00000000
00033000
00000000
,
00000200
00000000
00001300
00000000
,
00000202
00000000
00000303
00000000
,
00001000
00000000
00000000
00000010
00000000
00000000
00000000
00000000
,
00002000
00000200
00003300
00000000
,
00010000
00000000
00000000
00001000
00000000
00000000
00011000
00000000
,
00100000
00010000
01000000
00000000
,
00100000
01000000
00010000
10000000
,
01000000
00100000
00010000
00100000
,
00002000
00200000
00303000
00010000
,
00000100
00001100
00000010
00000000
,
00000100
00000001
00000010
00000100
,
00001000
00000100
00010000
00000100
,
00020000
00002000
00033000
00011000
,
00100000
00001000
00100000
01000000
,
10000000
00010000
00100000
00001000
,
00010000
00000010
00000100
00000002
,
00002003
00003100
00010000
00001000
,
00011000
00101000
00010000
01000000
,
00100000
00010000
00100000
01000000
,
00010000
00100000
00001000
00010000
,
00001000
00010000
00100000
00010000
;
