#TITLE:左脳スパーク;
#SUBTITLE:;
#ARTIST:742;
#TITLETRANSLIT:Sanou Spark;
#SUBTITLETRANSLIT:;
#ARTISTTRANSLIT:;
#GENRE:;
#CREDIT:;
#MENUCOLOR:;
#METERTYPE:DDR;
#BANNER:Sanou Spark-bn.png;
#BACKGROUND:Sanou Spark-bg.png;
#LYRICSPATH:;
#CDTITLE:TUNE STREET-cdtitle.png;
#MUSIC:Sanou Spark.mp3;
#OFFSET:-0.480;
#SAMPLESTART:12.940;
#SAMPLELENGTH:12.000;
#SELECTABLE:YES;
#LISTSORT:;
#BPMS:0.000=192.000,139.000=96.000,141.000=192.000,153.000=96.000,155.000=192.000;
#STOPS:102.000=0.312
,225.000=0.313
;
#BGCHANGES:;
#ATTACKS:;

//---------------dance-single - ----------------
#NOTES:
     dance-single:
     :
     Challenge:
     10:
     0.822,0.788,0.442,0.138,0.161:
0000
0000
0000
0000
,
0000
0000
0000
0000
,
0000
0000
0000
0000
,
0000
0000
0000
0000
,
2001
0000
0000
0000
3100
0000
1000
0100
,
0010
0001
0010
0001
0100
0000
0010
0000
,
0100
0001
0100
0010
0000
1000
1001
0000
,
0000
0000
0110
0000
2000
0002
0000
3003
,
0000
0100
0010
0100
0001
0010
0100
1000
,
0000
0101
0000
0000
1100
0011
0000
0000
,
1001
0000
0100
0010
0100
0010
0100
0001
,
0010
0100
1000
0100
0001
0100
1000
0001
,
0100
0000
0010
0100
0010
0100
0001
0010
,
0001
0000
1000
0010
1000
0000
0000
0000
0010
0000
0100
0010
0100
0000
0001
0000
,
0101
0000
1000
0100
1000
0100
1000
0001
,
0100
0010
0100
1000
0100
0001
0010
0100
,
1000
0000
0001
0100
0001
0000
0000
0000
1000
0000
0010
0000
0100
0000
0001
0000
,
1000
0000
0100
0000
0100
0000
1000
0001
1000
0001
0100
0000
0010
0000
0100
0000
,
0001
0010
1000
0001
0100
1000
0001
0010
,
0100
1000
0100
0010
0001
0100
1000
0100
,
0010
0000
1000
0001
1000
0000
0010
0000
0100
0000
0001
0000
0010
0000
0100
0000
,
1000
0000
0010
0100
0000
0010
0100
0000
0001
0000
0000
0000
0101
0000
0000
0000
,
1000
0100
0001
1000
0010
0001
1000
0100
,
0010
0001
0010
0100
1000
0001
0100
0001
,
0011
0000
1001
0000
0010
0100
0010
1000
,
0001
0000
0100
0001
0000
1000
0010
0000
2001
0000
0000
0000
3001
0000
0100
0000
,
0001
0100
0010
1000
0010
0100
0010
0100
,
0001
0000
0010
0000
0001
0000
1000
0000
0010
0000
1000
0000
0001
0000
0100
0010
,
0100
0010
0100
0010
0100
0000
0001
0000
1000
0000
0100
0000
1000
0000
0010
0100
,
0000
0001
0010
0000
0001
0000
0000
0000
1001
0000
0000
0000
1010
0000
1000
0000
,
0001
0000
1000
0000
0010
0000
0100
0000
0010
0000
1000
0000
0100
0000
1000
0001
,
1000
0001
1000
0001
1000
0000
0100
0000
0010
0000
0100
0000
0110
0000
0000
0000
,
0000
0000
1000
0000
0001
0000
0010
0000
0100
0000
1000
0000
0001
0000
0100
0001
,
0000
1000
0001
0000
0100
0000
0010
0000
0110
0000
0000
0000
1000
0000
0001
0000
,
0010
0000
0001
0000
1000
0000
0100
0000
0001
0000
0100
0000
1000
0001
0100
0010
,
0000
0100
0001
0000
1100
0000
0000
0000
0001
0000
0100
0000
0001
0000
1000
0000
,
0100
0010
0002
0000
0023
0000
0130
0010
,
0100
0000
1000
0000
0001
0100
0001
0000
1000
0000
0100
0000
0010
0000
1000
0000
,
0010
0000
0100
0000
1000
0100
0010
0001
0000
0001
0100
0000
0010
0000
1000
0000
,
0001
0000
0010
0000
0100
0000
0010
0000
0001
0000
1000
0000
0010
1000
0010
1000
,
0020
0000
0000
0000
0030
0000
0100
0001
,
0010
0100
1000
0001
0100
0010
1000
0100
,
1000
0001
0100
0001
0010
0100
1000
0100
,
0010
0001
0100
0001
0100
0010
0100
1000
,
0100
0010
0100
0001
1000
0100
0011
0000
,
1100
0000
0110
0000
0001
0011
0000
0110
,
0000
1100
0001
0010
0100
1000
1100
0000
,
0110
0000
1010
0000
0001
0101
0000
0011
,
0000
1000
0002
0000
0203
0000
0301
0010
,
0100
1000
0010
0100
0001
0010
1000
0010
,
0001
1000
0010
0001
0010
0100
1000
0100
,
0001
1000
0100
0010
0100
1000
0001
0010
,
0100
1000
0010
0100
0001
0100
0110
0000
,
1100
0000
0011
0000
1000
1010
0000
1001
,
0000
0011
0001
0010
0100
1000
1100
0000
,
1001
0000
1010
0000
0100
0101
0000
0011
,
0000
0110
0020
0000
0031
0010
0001
1000
,
0100
1000
0010
0100
0001
0100
0010
2000
,
0000
3100
0020
0000
0031
0000
1000
0100
,
1000
0001
0100
0010
0100
0000
0110
0000
,
0001
0000
0010
0000
0100
0000
1000
0000
0001
0100
0001
0000
1000
0000
0100
0000
,
1000
0010
0100
0010
0001
0010
0100
0002
,
0000
1003
0020
0000
1030
0001
0010
0100
,
0010
0000
0001
0000
1000
0000
0100
0000
1000
0001
1000
0001
2000
0000
0000
0000
,
0000
0000
3000
0000
1001
0000
0001
0010
,
0001
1000
0100
0001
0100
1000
0100
1000
,
0000
0010
0100
0001
0100
0010
1000
0100
,
0010
0100
1000
0001
0100
0000
0101
0000
,
0011
0000
1010
0000
0110
1000
0010
0100
,
0001
0010
0100
0010
1000
0010
0001
0100
,
1000
0100
0010
0100
0001
0010
0100
0001
,
0100
0000
0010
0000
1000
0000
0010
0000
0001
0000
1000
0000
1000
0000
0010
1000
,
0010
1000
0010
0000
0100
0000
0001
0000
1000
0000
0010
0000
0100
0000
0001
0000
,
1000
0010
1000
0000
0001
0010
0001
0100
,
0010
1000
0001
0100
1000
0100
0010
0100
,
0001
1000
0100
0001
0100
1000
0010
0100
,
0010
1000
1001
0000
0010
0100
0010
0100
,
0001
1000
0100
1000
0010
0001
0010
0100
,
0001
0010
0100
0000
1000
0100
0010
0001
,
0100
0010
1000
0100
0010
0001
0100
0001
,
1000
0000
0100
1000
0100
0000
0000
0000
0000
0000
0001
0000
0010
0000
0100
0000
,
1000
0010
0100
0001
0011
0000
0000
0000
;

//---------------dance-single - ----------------
#NOTES:
     dance-single:
     :
     Hard:
     9:
     0.686,0.638,0.451,0.350,0.037:
0000
0000
0000
0000
,
0000
0000
0000
0000
,
0000
0000
0000
0000
,
0000
0000
0000
0000
,
0020
0000
0000
0000
0130
0000
0010
0100
,
0010
1000
0010
0100
0001
0000
1000
0000
,
0001
0000
0000
0010
0000
0000
0200
0000
,
0000
0000
1000
0000
1300
0100
0000
0000
,
0000
1000
0001
1000
0001
1000
0001
1000
,
0000
0110
0000
0000
1001
1001
0000
0000
,
0110
0000
0001
0100
0001
0100
0001
1000
,
0100
0000
1000
0010
0000
0100
0001
0000
,
0010
0000
0100
0010
0100
0010
0001
1000
,
0001
0101
1000
1010
,
1001
0000
0100
0010
0100
0010
0100
0001
,
0010
0000
0100
1000
0000
0001
1000
0000
,
0001
0000
1000
0010
1000
0010
1000
0010
,
0100
0001
0001
1000
0010
0100
0100
0000
,
0001
0010
0100
0010
0001
1000
0100
0010
,
0100
1000
0001
1000
0001
0000
0100
0000
,
0002
0000
0000
0000
1003
0100
1000
0000
,
0010
0000
0000
0100
0000
0000
0010
0000
1000
0000
0000
0000
1100
0000
0000
0000
,
0001
0010
0001
1000
0100
0010
0100
0010
,
0001
1000
0010
0100
0001
0010
1000
0010
,
0001
0000
0202
0000
0303
1000
0100
1000
,
0001
0000
0000
0100
0000
0000
0010
0000
1002
0000
0000
0000
0103
0000
0000
0000
,
0001
0000
1000
0100
0010
0000
0100
1000
,
0001
0100
0001
0000
0010
0000
0202
0000
,
0303
0000
0000
0000
1001
0000
0000
0000
1010
0000
0000
0000
0100
0000
0000
0001
,
0000
1000
0020
0000
1030
0000
0001
0010
,
0100
0000
0010
0100
1000
0000
0001
0100
,
0010
0001
0010
1000
0100
0010
0001
0000
,
0000
0000
1000
0000
0100
0000
0000
0000
1001
0000
0000
0000
1000
0000
0000
0001
,
0000
1000
0010
0000
1001
0000
0100
0000
,
0001
0000
0100
0000
0010
0000
1000
0000
0100
0000
0000
0000
1000
0000
0001
1000
,
0000
1000
0001
0000
0010
0000
0000
0000
0100
0000
1000
0000
0001
0000
0100
0000
,
1000
0100
0020
0000
0230
0000
0310
1000
,
0100
0010
0100
0000
0010
0001
0100
0001
,
1000
0000
0000
0000
0010
0000
0100
0010
0000
0010
0100
0000
0001
0000
0000
0000
,
1000
0100
1000
0100
0010
0001
0020
0000
,
0002
0000
0033
1002
,
2003
0000
3200
0000
1300
0010
0100
0002
,
0000
0013
0001
1000
0100
1000
2000
0000
,
3020
0000
0230
0000
0310
0100
0001
0020
,
0000
0130
0010
0100
1000
0001
0101
0000
,
1001
0000
1010
0000
0000
0110
0000
0110
,
0000
0001
0101
0000
1000
0000
1010
0000
,
1100
0000
1001
0000
0000
0011
0000
1100
,
0000
0001
1002
0000
0103
0000
2000
0000
,
3200
0000
2300
0000
3001
0010
0001
0200
,
0000
0310
0100
1000
0200
0000
0302
0000
,
2003
0000
3020
0000
1030
0010
0100
0002
,
0000
0013
0100
1000
0100
0000
1001
0000
,
0110
0000
1001
0000
0000
1010
0000
0101
,
0000
1000
1100
0000
0001
0000
0011
0000
,
1010
0000
0110
0000
0000
0101
0000
0110
,
0000
0001
0012
0000
1003
0000
0010
0100
,
0010
0100
0001
0010
0100
0000
1000
0100
,
0000
1000
0100
0000
0010
0000
0100
0010
,
0001
1000
0010
0001
0020
0000
0230
0000
,
0301
0010
0100
1000
0001
0000
1000
0100
,
1000
0001
0010
0001
0010
0000
0001
0100
,
0000
0001
0100
0000
0010
0100
0010
1000
,
0100
0010
0001
0000
2000
0000
0020
0000
,
0000
0000
3030
0000
1001
0000
0010
0100
,
0010
0100
0010
1000
0100
0000
0010
0001
,
0000
0001
0100
0000
0001
0000
1000
0100
,
1000
0100
1000
0010
0100
0000
0101
0000
,
1100
0000
0101
0000
1001
0000
0001
0010
,
0001
0010
0001
0100
0001
0000
1000
0100
,
0000
0010
0100
0000
0110
0000
0001
0010
,
0001
0100
0010
1000
0100
1000
1000
0000
,
1001
0000
0120
0000
0130
0001
0100
0001
,
0000
0001
0100
0000
0001
0100
0000
0001
,
0100
0001
1000
0000
0010
1000
0010
1000
,
0000
1000
0010
0000
1000
0010
0000
0100
,
0001
1000
0002
0000
0013
0100
0010
0100
,
0000
0100
0010
0000
0100
0010
0000
0100
,
0010
0001
1000
0000
0100
1000
0100
1000
,
0000
1000
0100
0000
1000
0100
0000
1000
,
0010
0100
0001
0000
0000
1000
0100
0010
,
0001
0100
0010
1000
1001
0000
0000
0000
;

//---------------dance-single - ----------------
#NOTES:
     dance-single:
     :
     Medium:
     7:
     0.542,0.563,0.341,0.184,0.028:
0000
0000
0000
0000
,
0000
0000
0000
0000
,
0000
0000
0000
0000
,
0000
0000
0000
0000
,
0020
0000
0000
0000
0130
0000
0010
0100
,
0010
1000
0100
1000
,
0001
0000
0000
0100
0000
0000
2002
0000
,
0000
0000
0000
3003
,
0000
1000
0001
1000
0001
1000
0001
1000
,
0000
0010
0000
0000
0100
0010
0000
0000
,
1001
0000
0100
0001
0100
0000
0001
0000
,
1000
0000
0010
0100
0000
0100
0010
0000
,
1000
0000
0001
0010
0001
0000
0100
0000
,
0101
0101
1001
1001
,
0110
0000
1000
0100
0010
0000
0100
0000
,
0010
0000
0001
0100
0000
0100
0001
0000
,
1000
0000
0100
1000
0100
0000
1000
0000
,
0010
0100
0100
0010
0100
0000
1001
0000
,
0010
0000
0100
0001
0000
0100
0001
0000
,
1000
0010
0000
1000
0010
0000
0100
0000
,
2002
0003
3010
1000
,
0001
0000
0000
1000
0000
0000
0001
0000
1000
0000
0000
0000
0010
0000
0000
0000
,
0100
0000
0001
0010
0000
0100
1000
0000
,
0001
0100
0000
0010
1000
0000
0001
0000
,
2000
0000
0200
0000
3000
0000
1300
0010
,
0100
0000
0000
0100
0000
0000
0010
0000
1000
0000
0000
0000
1001
0000
0000
0000
,
1000
0100
0000
1000
0010
0000
0100
0001
,
0000
0010
0001
0000
0100
0001
2000
0000
,
0000
0000
0000
0000
3001
0000
0000
0000
1001
0000
0000
0000
0010
0000
0000
0100
,
0000
0001
2000
0000
0100
0000
3100
0000
,
1000
0010
0000
0100
0001
1000
0002
0000
,
1003
0000
0110
0000
1000
0001
2000
0000
,
3000
0000
0100
0000
0010
0000
0000
0000
0110
0000
0000
0000
0001
0000
0000
0001
,
0000
1000
0001
0000
0110
0000
0001
0000
,
0010
0000
0000
0000
0100
0000
1000
0000
0100
0000
0000
0000
1000
0000
0000
0010
,
0000
0100
0001
0000
0001
0000
1000
0100
,
0010
0000
0100
0000
0100
0000
1000
0100
,
1000
0000
0001
0000
0100
0010
0100
0000
,
0001
0000
0000
0000
0010
0000
0000
0001
0000
0000
0100
0000
0010
0000
0000
0000
,
0010
0000
1000
0000
0001
0000
0100
0020
,
0200
0000
0330
1001
,
0010
0000
0010
0000
1000
0100
0000
1000
,
0000
0001
0100
0000
0100
0000
0010
0000
,
0100
0000
0100
0000
0001
0100
0000
0001
,
0000
1000
0100
0000
1000
0000
1001
0000
,
1001
0000
1001
0000
0000
0010
0000
0100
,
0000
0010
0100
0000
0001
0000
1100
0000
,
1100
0000
0101
0000
0000
1000
0000
0001
,
0000
1000
0002
0000
0203
0000
0310
0000
,
1000
0000
0001
0000
0010
0001
0000
0100
,
0000
0001
0010
0000
0010
0000
0100
0000
,
1000
0000
0001
0000
1000
0010
0000
0100
,
0000
0010
1000
0000
0001
0000
0110
0000
,
0110
0000
0110
0000
0000
1000
0000
0001
,
0000
1000
0010
0000
1000
0000
1001
0000
,
0110
0000
1001
0000
0000
0010
0000
1000
,
0000
0001
0200
0000
0310
0000
0000
0000
,
0010
0000
0100
0000
0001
0000
0010
0100
,
0000
1000
0010
0000
0100
0000
0001
0000
,
0010
0000
2100
3002
,
0013
0001
0010
0000
0001
0000
1000
0000
,
1000
0000
0010
0000
0100
0000
0010
1000
,
0000
0001
0100
0000
0010
0000
1000
0100
,
1000
0000
0001
0000
0010
0002
0020
0000
,
0000
0000
0033
0000
1001
0000
0010
0100
,
0010
0000
1000
0000
0001
0000
1000
0100
,
0000
0100
1000
0000
0001
0000
0100
0000
,
0010
0100
0010
0000
0100
0000
0110
0000
,
1001
0000
0110
0000
1001
0000
0001
0010
,
0001
0000
1000
0000
0010
0000
1000
0001
,
0000
0001
1000
0000
0100
0000
1000
0010
,
0100
0000
0001
0000
0010
0010
0001
0010
,
0001
0000
1001
0000
0010
0000
0100
0001
,
0000
0100
0001
0000
1000
0010
0000
1000
,
0010
0000
0100
0000
0001
0000
0010
0001
,
0000
0010
0001
0000
1000
0001
0000
1000
,
0001
0000
0100
0000
0110
0000
0010
1000
,
0000
0010
1000
0000
0010
0100
0000
0010
,
0100
0000
0001
0000
1000
0000
0100
0010
,
0000
0100
0010
0000
0001
0010
0000
0001
,
0010
0000
1001
0000
0000
1000
0100
1000
,
0100
0010
0110
0000
;

//---------------dance-single - ----------------
#NOTES:
     dance-single:
     :
     Beginner:
     2:
     0.204,0.300,0.083,0.120,0.000:
0000
0000
0000
0000
,
0000
0000
0000
0000
,
0000
0000
0000
0000
,
0000
0000
0000
0000
,
0000
0000
0000
0000
,
0000
0000
0000
0000
,
0000
0000
0000
0000
,
0000
0000
0000
0000
,
0000
0100
0100
0100
,
0000
0000
0010
0000
,
1001
0000
0000
0000
,
0001
0000
0100
0000
,
0001
0000
0000
0000
,
1000
1000
1000
1000
,
1000
0000
0010
0000
,
1000
0000
0000
0000
,
0001
0000
0010
0000
,
0001
0001
0001
0000
,
0200
0000
0300
0000
,
0020
0000
0030
0000
,
1000
0000
1000
0000
,
0010
0010
0010
0000
,
0100
0000
0000
0000
,
0001
0000
1000
1000
,
1000
0000
0000
0000
,
0010
0000
2002
3003
,
0000
0000
0000
0100
,
0000
0000
0000
0001
,
0000
1000
0000
0100
,
0100
0100
0000
0010
,
0000
0001
0000
0010
,
0010
0010
0000
0100
,
0000
0000
0000
1000
,
0000
0001
0000
2002
,
0000
3003
0000
0110
,
0000
2002
0000
3003
,
0000
0001
0000
0001
,
0000
2002
0000
3003
,
0000
0110
0000
2002
,
0000
3003
0000
0010
,
0010
0000
0000
0100
,
0000
0000
0000
0010
,
0000
1000
0000
0100
,
0000
0000
0000
0010
,
0000
0100
0000
0010
,
0000
0010
0000
0010
,
0010
0010
0000
0010
,
0000
0010
0000
0010
,
0010
0010
0000
0001
,
0000
0100
0000
0001
,
0000
0000
0000
1000
,
0000
1000
0000
0010
,
0000
0000
0000
0100
,
0100
0100
0000
0100
,
0000
0100
0000
0100
,
0100
0100
0000
0100
,
0000
0020
0030
0000
,
0000
0000
1000
0000
,
0100
0000
0010
0000
,
0000
0000
0001
0000
,
0100
0000
0001
0000
,
0000
0000
1000
0000
,
0100
0000
0010
0000
,
0000
0000
0100
0100
,
0000
0000
1001
0000
,
0000
0000
1000
0000
,
0010
0000
0100
0000
,
0000
0000
0001
0001
,
0001
0001
0001
0000
,
0100
0000
0001
0000
,
0100
0000
0010
0000
,
1000
0000
0010
0000
,
0000
0000
0100
0000
,
0000
0000
0100
0000
,
0010
0000
1000
0000
,
0000
0000
1000
0000
,
0001
0000
1000
0000
,
0000
0000
0001
0000
,
0010
0000
0001
0000
,
0000
0000
0100
0000
,
0010
0010
0000
0100
,
0100
0100
0100
0000
;

//---------------dance-single - ----------------
#NOTES:
     dance-single:
     :
     Easy:
     5:
     0.427,0.450,0.304,0.147,0.000:
0000
0000
0000
0000
,
0000
0000
0000
0000
,
0000
0000
0000
0000
,
0000
0000
0000
0000
,
0001
0000
1000
1000
,
0100
1000
0001
0000
,
0010
0000
0000
0100
0000
0000
0020
0000
,
0000
0000
0000
0030
,
0000
0001
1000
0000
0001
0000
0100
0000
,
0000
0010
0000
0000
0100
0000
0000
0000
,
1001
1000
1000
0001
,
0100
0000
0000
0001
0000
0000
0010
0000
,
0100
0010
0100
1000
,
0001
0001
1000
0001
,
0011
0010
0010
0100
,
1000
0000
0000
0010
0000
0000
0100
0000
,
0001
1000
1000
0010
,
0200
0010
0001
0310
,
1001
0001
0100
0001
,
1000
0010
0100
0001
,
0010
0010
0100
1000
,
0001
0001
0110
0110
,
1000
1000
0001
0100
,
0010
0100
0001
0010
,
0100
0000
0100
0000
0000
1000
0100
0000
,
0020
0032
1003
0110
,
1000
0100
1000
0001
,
0100
0001
0010
0200
,
0000
1000
1300
0001
,
0100
0010
1001
0100
,
0010
0100
0001
1000
,
0001
1000
0001
0000
0100
0000
0010
0000
,
0000
1000
0100
1010
,
0011
1001
0110
1002
,
0000
0203
0000
0310
,
1000
1000
0001
0000
0000
0000
1000
0000
,
0010
0200
0302
1003
,
1000
0010
0100
0001
,
1001
0000
0010
0000
0001
0001
1000
0000
,
0100
0100
0010
0002
,
0200
0000
0303
1001
,
0010
0010
0001
1000
,
0100
1000
0010
0100
,
0001
0010
0100
1000
,
0100
0100
1000
1010
,
1010
1010
0000
0001
,
0100
0001
0100
1001
,
1001
1001
0000
0010
,
1000
0100
0010
0001
,
0010
0001
0100
0010
,
1000
0001
0001
0010
,
0100
0010
0010
0100
,
1000
1000
0010
0110
,
0110
0110
0000
0001
,
1000
0010
0100
0101
,
0101
0101
0000
1000
,
0001
0020
0130
0000
,
0100
0000
1000
0001
,
1000
0001
0010
0000
,
0001
0000
0100
0100
,
0001
0010
0100
1000
,
0001
0100
0020
0000
,
2030
0000
3001
0100
,
0100
0001
0020
0200
,
0000
0330
1001
0100
,
0100
0000
0010
0000
0001
0000
0000
1000
,
0000
0001
0010
0001
,
0001
1000
0010
0110
,
1001
0011
1001
1000
,
0001
1000
0010
0010
,
0100
0100
0001
0010
,
0001
0001
1000
0100
,
1000
1000
1000
0000
0010
0000
0100
0000
,
0000
0001
0000
0000
0010
0000
0000
0100
,
0000
1000
0100
1000
,
0000
0010
0000
0000
0100
0000
0000
0100
,
0000
1001
0100
0001
,
0000
1000
0000
0000
0010
0000
0000
0100
,
0000
0001
0010
0001
,
0000
0100
0000
0000
0010
0000
0000
0010
,
0000
0000
1001
0000
0000
1000
0001
0000
,
0100
0010
1000
0000
;

//---------------dance-double - ----------------
#NOTES:
     dance-double:
     :
     Challenge:
     10:
     0.771,0.788,0.479,0.074,0.124: // measure 1
00000000
00000000
00000000
00000000
,  // measure 2
00000000
00000000
00000000
00000000
,  // measure 3
00000000
00000000
00000000
00000000
,  // measure 4
00000000
00000000
00000000
00000000
,  // measure 5
00210000
00000000
00000000
00000000
01300000
00000000
10000000
01000000
,  // measure 6
00100000
00010000
00100000
00010000
00001000
00000000
00000100
00000000
,  // measure 7
00001000
00000010
00000100
00000001
00000000
00000010
00000002
00000000
,  // measure 8
00000000
00000100
00000200
00000303
,  // measure 9
00000000
00000001
00000010
00000100
00001000
00010000
00100000
01000000
,  // measure 10
00000000
11000000
00000000
00000000
00010000
01010000
00000000
00000000
,  // measure 11
10010000
00000000
01000000
00100000
01000000
00100000
01000000
00010000
,  // measure 12
00100000
00001000
00010000
01000000
10000000
00010000
00100000
00001000
,  // measure 13
00010000
00000000
00000100
00010000
00000100
00010000
00000100
00001000
,  // measure 14
00000010
00001010
00000101
00000011
,  // measure 15
00001001
00000000
00001000
00000100
00001000
00000100
00001000
00000100
,  // measure 16
00000010
00000000
00000001
00000100
00001000
00010000
00001000
00000000
,  // measure 17
00101000
00000000
00010000
00001000
00010000
00001000
00100000
00010000
,  // measure 18
10000000
00000000
01000000
00000000
01000000
00000000
10000000
01000000
10000000
00000000
01000000
00000000
00100000
00000000
00010000
00000000
,  // measure 19
01010000
00000000
00010000
00100000
00001000
00010000
00001000
00010000
,  // measure 20
00000100
00010000
00000100
00001000
00000100
00000010
00000001
00000010
,  // measure 21
00000001
00000000
00001000
00000010
00001000
00000000
00000100
00000000
00001000
00000000
00000010
00000000
00000001
00000000
00000010
00000000
,  // measure 22
00000100
00000000
00000010
00000100
00000000
00000010
00001000
00000000
00000100
00000000
00000000
00000000
00011000
00000000
00000000
00000000
,  // measure 23
00100000
00001000
00100000
00001000
01000000
00010000
01000000
00100000
,  // measure 24
10000000
00100000
01000000
00100000
10000000
01000000
00100000
00010000
,  // measure 25
00110000
00000000
00011000
00000000
00000100
00010000
00000100
00001000
,  // measure 26
00000010
00000000
00010000
00000100
00000000
00010000
00000100
00000000
00001000
00000000
00000000
00000000
00000101
00000000
00000000
00000000
,  // measure 27
00001000
00000100
00010000
00001000
00010000
00001000
00100000
00001000
,  // measure 28
00100000
00000000
00010000
00000000
00100000
00000000
01000000
00000000
10000000
00000000
01000000
00000000
00100000
00000000
00010000
00100000
,  // measure 29
00010000
00000000
00100000
00010000
00100000
00000000
00010000
00000000
01000000
00000000
00100000
00000000
10000000
00000000
00010000
01000000
,  // measure 30
00000000
00010000
01000000
00000000
00001000
00000000
00000000
00000000
00011000
00000000
00000000
00000000
00000100
00000000
00010000
00000000
,  // measure 31
00000100
00000000
00010000
00000000
00001000
00000000
00000100
00000000
00001000
00000000
00000100
00000000
00000001
00000000
00000100
00000001
,  // measure 32
00000100
00000000
00000010
00000100
00000010
00000000
00001000
00000000
00000100
00000000
00001000
00000000
00001200
00000000
00000000
00000000
,  // measure 33
00001300
00000000
00000100
00000000
00010100
00000000
00000000
00000000
00011000
00000000
00000000
00000000
00100000
00000000
00010000
00100000
,  // measure 34
00000000
00001000
00100000
00000000
00010000
00000000
00100000
00000000
01000000
00000000
10000000
00000000
00010000
00000000
00100000
00000000
,  // measure 35
10000000
00000000
00100000
00000000
00010000
00000000
01000000
00000000
00001000
00000000
00010000
00000000
00000100
00001000
00000001
00001000
,  // measure 36
00000000
00000100
00010000
00000000
00001000
00000000
00010000
00000000
01000000
00000000
10000000
00000000
00100000
00000000
01000000
00000000
,  // measure 37
00010000
00100000
00001000
00000000
00011000
00000000
00001000
00000100
,  // measure 38
00000010
00000100
00000001
00000010
00000100
00001000
00000100
00010000
,  // measure 39
00001000
00000000
00100000
00000000
00010000
10000000
00100000
01000000
00000000
00010000
00100000
00000000
01000000
00000000
10000000
00000000
,  // measure 40
00010000
00000000
00100000
00000000
00001000
00000000
00010000
00000000
00000100
00000000
00000010
00000000
00000001
00001000
00000001
00001000
,  // measure 41
00000002
00000000
00000003
00001000
,  // measure 42
00000100
00001000
00000100
00010000
00001000
00010000
00001000
00100000
,  // measure 43
00010000
10000000
01000000
00100000
00010000
00100000
00001000
00010000
,  // measure 44
00000100
00001000
00000100
00001000
00000010
00000001
00000010
00000100
,  // measure 45
00000010
00000100
00000001
00000010
00000100
00001000
00000100
00000000
,  // measure 46
00001100
00000000
00011000
00000000
00000000
00110000
00000000
01010000
,  // measure 47
00000000
00110000
00110000
00000000
00001000
00000000
00011000
00000000
,  // measure 48
00001100
00000000
00011000
00000000
00000000
00001010
00000000
00001100
,  // measure 49
00000000
00000101
00000101
00000000
00001000
00000000
00000010
00001000
,  // measure 50
00000010
00001000
00000001
00000010
00000001
00000010
00000100
00001000
,  // measure 51
00000100
00010000
00001000
00010000
00001000
00010000
01000000
00010000
,  // measure 52
01000000
10000000
01000000
10000000
01000000
00100000
00010000
00100000
,  // measure 53
00010000
01000000
00010000
01000000
00001000
00000000
01001000
00000000
,  // measure 54
00110000
00000000
01001000
00000000
00000000
00011000
00000000
00011000
,  // measure 55
00000000
00001100
00001100
00000000
00000000
00000000
00001010
00000000
,  // measure 56
00001100
00000000
00010010
00000000
00000000
00011000
00000000
00101000
,  // measure 57
00000000
00011000
00021000
00000000
00031000
00000000
00100000
00010000
,  // measure 58
01000000
00100000
10000000
01000000
00010000
00000000
00001000
00000100
,  // measure 59
00000000
00000001
00000100
00000000
00000010
00000000
00001000
00000010
,  // measure 60
00001000
00000100
00010000
00000000
00002000
00000000
00010000
00000000
,  // measure 61
00013000
00001000
00000100
00000001
00000100
00000000
00000010
00000100
,  // measure 62
00000010
00000000
00001000
00000000
00000001
00000010
00001000
00010000
,  // measure 63
00000000
00100000
10000000
00000000
00010000
00100000
00010000
00100000
,  // measure 64
00001000
00000000
00010000
00000000
01000000
00000000
00100000
00000000
00010000
00100000
00010000
00100000
00020000
00000000
00000000
00000000
,  // measure 65
00000000
00000000
00030000
00000000
00100010
00000000
00010000
00000010
,  // measure 66
00010000
00001000
00100000
00010000
01000000
00000000
00100000
10000000
,  // measure 67
01000000
00100000
00010000
00000000
00100000
00000000
00001000
00010000
,  // measure 68
00000100
00001000
00000010
00000100
00001000
00000000
00011000
00000000
,  // measure 69
00110000
00000000
00011000
00000000
00101000
00000000
00010000
00100000
,  // measure 70
01000000
00010000
01000000
10000000
00100000
01000000
00010000
00100000
,  // measure 71
00000000
00001000
00100000
00001000
00010000
00000100
00000010
00000100
,  // measure 72
00000001
00000000
00000100
00000000
00001000
00000000
00000010
00000000
00000100
00000000
00000001
00000000
00000001
00000000
00001000
00000100
,  // measure 73
00001000
00000100
00010000
00000000
00000100
00000000
00001000
00000000
00000100
00000000
00010000
00000000
00000100
00000000
00010000
00000000
,  // measure 74
00001000
00100000
00001000
00000000
00010000
01000000
10000000
00100000
,  // measure 75
01000000
00010000
00100000
01000000
00100000
00010000
10000000
01000000
,  // measure 76
00100000
00010000
01000000
00000000
00001000
00010000
00100000
00010000
,  // measure 77
00001000
00100000
00101000
00000000
00000100
00010000
00001000
00100000
,  // measure 78
00010000
00100000
01000000
10000000
01000000
00100000
00010000
00100000
,  // measure 79
00001000
00010000
00000100
00001000
00000100
00010000
00000100
00000010
,  // measure 80
00000100
00000010
00000001
00001000
00000100
00010000
00001000
00000100
,  // measure 81
00000010
00000000
00000100
00000001
00000100
00000000
00000000
00000000
00000000
00000000
00000001
00000000
00000010
00000000
00000100
00000000
,  // measure 82
00001000
00010000
00100000
01000000
10000000
00000000
00000000
00000000
;

//---------------dance-double - ----------------
#NOTES:
     dance-double:
     :
     Hard:
     9:
     0.697,0.675,0.488,0.138,0.055: // measure 1
00000000
00000000
00000000
00000000
,  // measure 2
00000000
00000000
00000000
00000000
,  // measure 3
00000000
00000000
00000000
00000000
,  // measure 4
00000000
00000000
00000000
00000000
,  // measure 5
00001200
00000000
00000000
00000000
00001300
00000000
00000100
00010000
,  // measure 6
00001000
00000100
00000010
00000100
00000001
00000000
00001000
00000000
,  // measure 7
00000100
00000000
00000000
00020000
00000000
00000000
00002000
00000000
,  // measure 8
00033000
00000000
00101000
00000000
00020200
00000000
00000000
00030000
,  // measure 9
00000300
00010000
00000010
00001000
00000100
00010000
00001000
00100000
,  // measure 10
00000000
00110000
00000000
00000000
10000000
10010000
00000000
00000000
,  // measure 11
01100000
00000000
00010000
00100000
00010000
00100000
00010000
00000000
,  // measure 12
10000000
00000000
00100000
01000000
00100000
01000000
00010000
00000000
,  // measure 13
00100000
00000000
00001000
00010000
01000000
10000000
00010000
00000000
,  // measure 14
00100000
00110000
01010000
00011000
,  // measure 15
00001100
00000000
00010000
00000100
00010000
00000100
00001000
00000010
,  // measure 16
00000100
00000000
00000001
00000010
00000000
00000100
00010000
00000000
,  // measure 17
00000100
00000000
00001000
00000100
00001000
00000100
00000010
00000100
,  // measure 18
00001000
00000000
00000100
00000000
00000100
00000000
00000000
00000000
00010000
00000100
00010000
00000000
00001000
00000000
00000000
00000000
,  // measure 19
00100000
00010000
00100000
00010000
01000000
00010000
10000000
00000000
,  // measure 20
00100000
10000000
01000000
00100000
00010000
00100000
00001000
00010000
,  // measure 21
00000100
00001100
00010000
00011000
,  // measure 22
00000100
00000000
00000000
00010000
00000000
00000000
00001000
00000000
00100000
00000000
00000000
00000000
00011000
00000000
00000000
00000000
,  // measure 23
00000010
00001000
00000010
00000100
00000001
00000010
00000100
00000000
,  // measure 24
00001000
00000100
00010000
00001000
00020000
00000000
00031000
00100000
,  // measure 25
00001000
00000000
00000100
00000000
00000001
00000010
00000100
00001000
,  // measure 26
00000100
00000000
00000000
00010000
00000000
00000000
00001000
00000000
01000000
00000000
00000000
00000000
01010000
00000000
00000000
00000000
,  // measure 27
10000000
01000000
10000000
00010000
00100000
00001000
00010000
00100000
,  // measure 28
01000000
00000000
00000000
00000000
00010000
00000000
00000000
00000000
10000000
00000000
01000000
00000000
10000000
00000000
00000000
00100000
,  // measure 29
01000000
00000000
00100000
00000000
01000000
00000000
00001000
00000000
00010000
00000000
00000100
00000000
00001000
00000000
00000000
00000010
,  // measure 30
00000000
00000010
00000100
00000000
00001001
00000000
00000010
00000100
,  // measure 31
00000001
00000010
00000001
00001000
00000100
00000000
00001000
00000010
,  // measure 32
00000010
00000100
00000010
00000000
00001000
00000100
00010000
00000000
,  // measure 33
00000000
00000000
00001000
00000000
00010000
00000000
01000000
00000000
00100000
00000000
00010000
00000000
10000000
00000000
00100000
01000000
,  // measure 34
00000000
00100000
01000000
00000000
00010000
00000000
10000000
00000000
01000000
00000000
00000000
00000000
10000000
00000000
00010000
00000000
,  // measure 35
00100000
00000000
00001000
00000000
00010000
00000000
00000010
00000000
00001000
00000000
00000001
00000000
00000010
00000000
00000001
00001000
,  // measure 36
00000000
00001000
00000001
00000000
00000010
00000000
00000001
00000000
00001000
00000000
00000100
00000000
00000010
00000000
00000100
00000000
,  // measure 37
00001000
00000011
00000110
00001100
,  // measure 38
00001001
00000000
00000001
00001000
00000010
00010000
00001000
00100000
,  // measure 39
00010000
00000000
10000000
00000000
00100000
00000000
10000000
01000000
00000000
01000000
10000000
00000000
00010000
00000000
00100000
00000000
,  // measure 40
00001000
00010000
01000000
10000000
00010000
00000000
02100000
00000000
,  // measure 41
00020000
00000000
03030000
10000000
,  // measure 42
10000000
00100000
01000000
00010000
00100000
00010000
00000000
01000000
,  // measure 43
00100000
01000000
00010000
00100000
00001000
00000000
00010000
00000100
,  // measure 44
00010000
00001000
00000010
00000001
00000100
00001000
00000000
00000100
,  // measure 45
00000010
00001000
00000100
00010000
00010000
00000000
00110000
00000000
,  // measure 46
00011000
00000000
00001010
00000000
00000000
00001100
00000000
00011000
,  // measure 47
00000000
01000000
01020000
00000000
00130000
00000000
00011000
00000000
,  // measure 48
00110000
00000000
01010000
00000000
00000000
11000000
00000000
10010000
,  // measure 49
00000000
00100000
02100000
00000000
03020000
00000000
00130000
00001000
,  // measure 50
00010000
00000100
00000010
00000001
00001000
00000010
00000000
00001000
,  // measure 51
00000100
00010000
00001000
00100000
01000000
00000000
10000000
00010000
,  // measure 52
00100000
00001000
00010000
00001000
00100000
00010000
00000000
10000000
,  // measure 53
01000000
00100000
00010000
00100000
00010000
00000000
00110000
00000000
,  // measure 54
00011000
00000000
00001100
00000000
00000000
00001010
00000000
00011000
,  // measure 55
00000000
01000000
01020000
00000000
00130000
00000000
00011000
00000000
,  // measure 56
00010100
00000000
00001010
00000000
00000000
00000011
00000000
00001001
,  // measure 57
00000000
00001000
00001200
00000000
00001300
00000100
00000010
00000100
,  // measure 58
00001000
00000100
00000010
00000000
00000001
00000000
00001000
00000100
,  // measure 59
00000000
00000100
00010000
00000000
00001000
00010000
00100000
00010000
,  // measure 60
00001000
00010000
00100000
00000000
01000000
00000000
10010000
00000000
,  // measure 61
10000000
01000000
00100000
00010000
00100000
00001000
00010000
00000010
,  // measure 62
00000100
00001000
00010000
00000000
00001000
00000010
00000001
00001000
,  // measure 63
00000000
00000100
00000010
00000000
00000001
00000100
00000001
00000100
,  // measure 64
00000010
00001000
00000010
00001000
00001020
00000000
00020000
00000000
,  // measure 65
00000000
00000000
00030030
00000000
00011000
00000000
00100000
00010000
,  // measure 66
00100000
00010000
01000000
00010000
10000000
00000000
00100000
10000000
,  // measure 67
00000000
01000000
00010000
00000000
00001000
00000000
00000100
00000001
,  // measure 68
00000100
00000001
00001000
00000100
00000010
00000000
00000011
00000000
,  // measure 69
00001001
00000000
00011000
00000000
10010000
00000000
00100000
01000000
,  // measure 70
00100000
01000000
00100000
10000000
01000000
00000000
00100000
00010000
,  // measure 71
00000000
01000000
00010000
00000000
00100000
00000000
00001000
00010000
,  // measure 72
00001000
00010000
00000100
00001000
00000010
00000100
00000100
00000001
,  // measure 73
00000100
00000000
00000010
00000000
00001000
00000100
00010000
00001000
,  // measure 74
00000000
00100000
00010000
00000000
01000000
00001000
00100000
00010000
,  // measure 75
01000000
00000000
00110000
00000000
11000000
00000000
00100000
10000000
,  // measure 76
00000000
00010000
01000000
00000000
00100000
01000000
00100000
10000000
,  // measure 77
01000000
00100000
00001000
00000000
00100000
00010000
00001000
00000100
,  // measure 78
00000000
00001000
00000010
00000000
00000100
00000001
00001000
00000100
,  // measure 79
00001000
00000000
00000010
00010000
00000010
00001000
00000100
00010000
,  // measure 80
00000000
00001000
00100000
00000000
00010000
01000000
00100000
01000000
,  // measure 81
00100000
00000000
10000000
00010000
10000000
00000000
00000000
00000000
00000000
00000000
10000000
00000000
01000000
00000000
00100000
00000000
,  // measure 82
00001000
00010000
00000100
00000010
00000001
00000000
00000000
00000000
;

//---------------dance-double - ----------------
#NOTES:
     dance-double:
     :
     Medium:
     7:
     0.480,0.488,0.258,0.110,0.023:
00000000
00000000
00000000
00000000
,
00000000
00000000
00000000
00000000
,
00000000
00000000
00000000
00000000
,
00000000
00000000
00000000
00000000
,
20010000
00000000
31000000
01000000
,
00100000
00001000
00010000
00000100
,
00001000
00000000
00000000
00000010
00000000
00000000
00002002
00000000
,
00000000
00000000
00000000
00000000
00000000
00003003
00000000
00000000
,
00000000
00010000
00001000
00010000
00001000
00010000
00001000
00010000
,
00000000
00001000
00000000
00000000
00100000
00001000
00000000
00000000
,
00011000
00100000
00100000
00010000
,
10000000
00000000
00010000
01000000
00000000
00010000
01000000
00000000
,
00100000
00000000
01000000
00010000
01000000
00000000
00010000
00000000
,
00100000
00100000
00001000
00010000
,
00010100
00001000
00001000
00000010
,
00000100
00000000
00000001
00000010
00000000
00000100
00001000
00000000
,
00000010
00000100
00000100
00000001
,
00001000
00000000
00000100
00000000
00010000
00001000
00010000
00000000
,
00011000
00100000
00010000
10000000
,
01000000
00010000
00001000
00000100
,
00001000
00001000
00010000
00100000
,
01000000
01000000
00110000
00011000
,
00000010
00000100
00000001
00001000
,
00000100
00001000
00000010
00000010
,
00000200
00000000
00000020
00000000
00000330
00000000
00000001
00001000
,
00000001
00000000
00000000
00000100
00000000
00000000
00000001
00000000
00000100
00000000
00000000
00000000
00000110
00000000
00000000
00000000
,
00000010
00010000
00000100
00010000
,
00001000
01000000
00100000
02000000
,
00000000
00000000
00000000
00000000
03100000
00000000
00000000
00000000
01100000
00000000
00000000
00000000
00010000
00000000
00000000
00100000
,
00000000
00001000
00200000
00000000
00310000
00000000
00100000
00000000
,
00001000
00000000
00010000
00000000
00000100
00000000
00001000
00000010
,
00000100
00000001
00001000
00000000
00000100
00001000
00000100
00000000
,
00000000
00000000
00001000
00000000
00000010
00000000
00000000
00000000
00010000
00000000
00000000
00000000
00001000
00000000
00000000
00001000
,
00000000
00100000
01000000
00000000
10000000
00000000
00010000
00000000
,
00100000
00000000
00000000
00000000
00010000
00000000
00000000
00000000
01000000
00000000
00000000
00000000
00010000
00000000
00000000
00100000
,
00000000
00001000
00010000
00000000
00000010
00000000
00000100
00000000
,
00000001
00001000
00000100
00010000
,
00001000
00100000
00001000
00010000
,
00000010
00000000
00000000
00000000
00001000
00000000
00000000
00000100
00000000
00000000
00010000
00000000
00001000
00000000
00000000
00000000
,
00100000
00000000
00010000
00000000
10000000
00000000
01000000
00100000
,
02000000
00000000
03000000
10010000
,
00100000
00000000
00100000
00000000
01000000
00010000
00000000
10000000
,
00000000
00010000
00100000
00000000
00001000
00000000
00010000
00000000
,
00010000
00000000
00000100
00000000
00001000
00000100
00000000
00000010
,
00000000
00000100
00000001
00000000
00000100
00000000
00001000
00000000
,
00001000
00000000
00001100
00000000
00000000
00010000
00000000
00001000
,
00000000
00100000
00101000
00000000
00000000
00000000
00010000
00000000
,
00010000
00000000
01010000
00000000
00000000
10000000
00000000
00010000
,
00000000
00100000
00020000
00000000
00230000
00000000
00310000
00000000
,
00001000
00000000
00000100
00000000
00000010
00000001
00000000
00001000
,
00000000
00000001
00000010
00000000
00000100
00000000
00001000
00000000
,
00000010
00000000
00000100
00000000
00001000
00000100
00000000
00000010
,
00000000
00001000
00000100
00000000
00010000
00000000
00001000
00000000
,
00001000
00000000
00011000
00000000
00000000
00100000
00000000
00010000
,
00000000
00100000
01100000
00000000
00000000
00000000
10000000
00000000
,
10000000
00000000
10010000
00000000
00000000
00100000
00000000
00001000
,
00000000
00010000
00010200
00000000
00001300
00000000
00000100
00000000
,
00010000
00000000
00001000
00000000
00100000
00000000
00000000
00010000
,
00000000
01000000
00100000
10000000
,
00010000
00010000
00100000
00001000
,
00010000
00000010
00000100
00001000
,
00000100
00000000
00000001
00000000
00001000
00000000
00000000
00000100
,
00000000
00001000
00000010
00010000
,
00001000
00000000
00100000
00000000
00010000
00100000
00002000
00000000
,
00000000
00003000
00011000
00100000
,
00100000
00000000
00001000
00000000
00100000
00000000
00100000
00010000
,
00000000
00010000
00001000
00000000
00000100
00000000
00000010
00000000
,
00000001
00001000
00000100
00001100
,
00001010
00011000
00101000
00010000
,
10000000
00000000
10000000
00000000
00010000
00000000
00010000
00100000
,
00000000
00100000
00001000
00000000
00010000
00000000
01000000
00000000
,
10000000
00000000
00010000
00000000
00100000
00010000
01000000
00010000
,
00100000
00101000
10000000
00010000
,
00000000
00100000
00000000
00000000
00001000
00000000
00000000
00010000
,
00000000
00000100
00001000
00000010
,
00000000
00000100
00000000
00000000
00000001
00000000
00000000
00000010
,
00000100
00000000
00001100
00000000
00001001
00000000
00001000
00000100
,
00000000
00010000
00001000
00000000
00100000
00010000
00000000
01000000
,
00010000
00000000
10010000
00000000
01100000
00000000
00010000
00100000
,
00000000
00001000
00100000
00000000
00001000
00010000
00000000
00000100
,
00001000
00010000
00100000
00000000
00000000
00001000
00010000
00001000
,
00010000
00001000
00010000
00001000
00011000
00000000
00000000
00000000
;

//---------------dance-double - ----------------
#NOTES:
     dance-double:
     :
     Easy:
     5:
     0.408,0.450,0.276,0.129,0.000:
00000000
00000000
00000000
00000000
,
00000000
00000000
00000000
00000000
,
00000000
00000000
00000000
00000000
,
00000000
00000000
00000000
00000000
,
00000002
00000000
00000023
00000000
,
00000130
00000100
00001000
00000100
,
00010000
00000000
00000000
00001000
00000000
00000000
00020000
00000000
,
00000000
00000000
00030000
00000000
,
00000000
01000000
10000000
00000000
10000000
00000000
10010000
00000000
,
00000000
00100000
00000000
00000000
00010000
00100000
00000000
00000000
,
10010000
00010000
00100000
00001000
,
00010000
00000000
00000000
00000100
00000000
00000000
00001000
00000000
,
00000010
00001000
00001000
00000100
,
00010000
00001000
00100000
00010000
,
00100000
01000000
01000000
00000000
,
10000000
00000000
00000000
00100000
00000000
00000000
00010000
00000000
,
00100000
00010000
00001000
00010000
,
00000100
00000100
00001100
00000000
,
00001000
00000010
00000100
00000001
,
00000010
00000100
00010000
00001000
,
00200000
00000000
10000000
00310000
,
01000000
01000000
10010000
00010000
,
00100000
00001000
00010000
00000010
,
00000100
00000001
00001000
00000100
,
00002000
00000000
00003100
00000100
,
00010000
00000000
00001000
00011000
,
00001000
00100000
00010000
10000000
,
01000000
00100000
00010000
00002000
,
00000000
00010000
00003010
00001000
,
00000200
00000300
00001001
00000010
,
00010000
00001000
00100000
00010000
,
00110000
11000000
00100000
10010000
,
00000000
00100000
00100000
01000000
,
00010000
00100000
00001000
00010000
,
00000100
00000010
00000001
00001000
,
00001100
00000100
00001000
00000010
,
00000100
00001000
00010000
00010000
,
00000000
01000000
10000000
00010000
,
00100000
00010000
10010000
00100000
,
00010000
10000000
00100000
02000000
,
00020000
03030000
00000000
00100000
,
00001000
00010000
00000100
00001000
,
00000100
00010000
00001000
00100000
,
00010000
00001000
00000100
00000010
,
00000100
00000010
00000000
00001001
,
00001001
00001001
00000010
00001000
,
00000100
00010000
00001000
00110000
,
00110000
00110000
01000000
10000000
,
10000000
00020000
01030000
00100000
,
01000000
00001000
00010000
00000000
,
01000000
10000000
00010000
00100000
,
00001000
00001000
00010000
00000000
,
00000100
00000010
00000100
00001100
,
00001100
00001100
00001000
00000010
,
00010000
00001000
00100000
01010000
,
01010000
01010000
00010000
00100000
,
00001000
00020000
00001000
00000000
,
00000100
00000000
00031000
00010000
,
00001000
00000000
00000200
00000000
,
00000010
00000000
00000301
00000001
,
00001000
00000000
00000020
00000000
,
00001000
00000000
00000130
00000010
,
00010000
00001000
00200000
00000000
,
00010000
00000000
01300000
01100000
,
00000000
00000000
10010000
00010000
,
00010000
00100000
00001000
00010000
,
00001000
00000100
00000010
00001000
,
00000100
00010000
00001000
00011000
,
00011000
00011000
00011000
00100000
,
00010000
00001000
00000100
00001000
,
00000010
00000100
00000001
00001000
,
00000100
00010000
01000000
10000000
,
00100000
01000000
00010000
00010000
,
00000000
00100000
00000000
00001000
,
00010000
00001000
00100000
00010000
,
00000000
00100000
00000000
00001000
,
00010000
00010100
00001000
00000100
,
00000000
00001000
00000000
00000010
,
00000100
00000001
00001000
00000100
,
00000000
00010000
00000000
00001000
,
00010000
01000000
00000000
10000000
,
00010000
00001000
00000001
00000000
;
