#TITLE:SHION;
#SUBTITLE:;
#ARTIST:DJ YOSHITAKA;
#TITLETRANSLIT:;
#SUBTITLETRANSLIT:;
#ARTISTTRANSLIT:;
#GENRE:;
#CREDIT:;
#MENUCOLOR:;
#METERTYPE:DDR;
#BANNER:SHION-bn.png;
#BACKGROUND:SHION-bg.png;
#LYRICSPATH:;
#CDTITLE:TUNE STREET-cdtitle.png;
#MUSIC:SHION.mp3;
#OFFSET:-1.600;
#SAMPLESTART:43.480;
#SAMPLELENGTH:12.000;
#SELECTABLE:YES;
#LISTSORT:;
#BPMS:0.000=179.000;
#STOPS:;
#BGCHANGES:;
#ATTACKS:;

//---------------dance-single - ----------------
#NOTES:
     dance-single:
     :
     Hard:
     8:
     0.608,0.609,0.210,0.379,0.073:
0000
0000
0000
0000
,
0000
0000
0000
0000
,
0000
0000
0000
0000
,
0000
0000
0010
0000
2001
0000
3001
0100
,
0000
0000
0010
0000
0100
0000
0001
1000
,
0100
0000
1000
0000
0010
0000
0100
0001
,
1000
0000
0010
0100
0010
0000
0100
0001
,
1000
0000
0000
0001
0000
0000
1100
0000
0000
0000
0000
0000
0001
0000
0200
0000
,
0000
0310
0100
0000
0010
1000
0001
0000
,
0010
0001
0010
0100
1000
0000
0010
0000
,
0100
0010
0100
0001
1000
0100
1000
0000
,
0010
0000
0100
0000
0001
0010
0100
0010
,
0001
0000
1000
0000
0100
1000
0010
0100
,
0001
0000
1000
0000
0010
1000
0100
0000
,
1000
0010
0100
0001
1000
0100
0010
0001
,
0100
0000
0000
0001
0000
0000
2000
0000
0000
0000
0000
0000
3100
0000
0000
0000
,
1001
0010
0010
0010
,
0001
0100
0110
1000
,
1001
0100
0100
0010
,
0010
1000
0001
0011
,
1001
0000
1000
0000
0010
0100
0001
1000
,
0100
1000
0010
0110
,
0101
0000
0100
0000
0001
0010
0001
1000
,
0010
0000
0000
0000
0100
0000
0000
0000
0010
0000
0000
1000
0000
0000
0001
0000
,
0000
0000
0101
0000
1000
0200
0000
2300
,
0000
3020
0000
0230
0000
0301
0010
0100
,
1000
0000
0001
0100
0000
0001
0000
1000
,
0100
0000
0000
0000
1000
0000
0000
0000
0010
0000
0000
1000
0000
0000
0001
0000
,
0101
0000
1000
0100
1000
0000
0010
0000
,
1010
1000
0001
0010
,
0001
0100
0001
1000
0000
1000
0010
0000
,
0220
0000
0000
0000
0330
0000
1000
0002
,
0000
1003
0100
0000
1000
0010
0100
0001
,
0000
1000
0100
0000
0010
0001
0010
0100
,
0000
0010
0100
1000
0000
0001
0000
0100
,
0001
0000
1000
0000
0010
0100
0010
1000
,
0000
0001
0100
0000
0010
0100
0001
0010
,
0000
0010
0100
0000
1000
0010
0100
0001
,
1000
0000
0010
0100
0000
0010
1000
0001
,
0100
0000
0011
0000
0011
0000
1000
0020
,
0000
1030
0001
0000
0010
0001
0010
0100
,
0000
1000
0010
0000
0100
0010
0100
0001
,
0000
0001
1000
0010
1000
0001
0100
0010
,
0100
0000
0001
0000
1000
0000
0010
1000
,
0000
1000
0001
0100
0010
0000
0010
0100
,
0000
0001
0010
0100
1000
0000
0010
1000
,
0000
0100
1000
0010
1000
0000
0001
0100
,
0001
0000
0010
0001
0000
0000
0101
0000
0000
0000
0000
0000
0110
0000
1001
0000
,
0000
1000
0100
1000
0100
0010
0001
0100
,
0000
0001
1000
0010
1000
0100
0010
0001
,
0000
1000
0100
1000
0010
0100
0001
1000
,
0100
0000
0100
0000
1000
0000
1000
0001
,
0000
0001
0010
0100
1000
0100
1000
0010
,
0000
0100
0001
0100
0010
0100
0001
1000
,
0100
1000
0001
0100
,
1010
0000
0001
0000
0101
0000
1000
0001
,
0000
0010
0100
1000
0010
0100
0010
1000
,
0001
0000
0010
0100
0010
0001
0100
0001
,
1000
0000
0100
1000
0100
0010
0100
1000
,
0001
0000
0010
0001
0010
0001
1000
0100
,
1000
0000
0010
0000
0100
0000
0001
1000
,
0001
0000
0010
0000
0100
0000
1000
0001
,
1000
0110
0001
0110
,
0001
0000
0000
1000
0000
0000
0001
0000
0000
0000
0000
0000
1000
0000
0020
0000
,
0000
0000
0000
0000
0000
0000
0130
0002
,
0000
0000
0000
0000
0000
0000
1003
0200
,
0000
0000
1300
0020
0000
0230
0000
0302
,
0000
0000
0010
0000
0013
0000
0001
0200
,
0000
0000
0000
0000
0000
0000
0310
2000
,
0000
0000
0000
0000
0000
3000
0100
0020
,
0000
0000
0031
0200
0000
0302
0000
1003
,
0001
0000
0000
0010
0000
0000
1001
0000
0000
0000
0000
0000
0001
0000
0020
0000
,
0000
0130
1001
0000
0100
0001
1000
0010
,
0000
0010
0100
0001
1000
0001
0100
0001
,
0000
1000
0100
1000
0010
0100
0001
1000
,
0000
0010
0100
0001
0010
0100
0010
0001
,
0000
1000
0100
1000
0010
0100
0010
1000
,
0000
0010
0100
0001
0010
0001
0010
0100
,
0000
1000
0001
0100
0010
1000
0001
0100
,
1000
0000
0000
0100
0000
0000
0110
0000
0000
0000
0000
0000
0001
0000
1000
0000
,
0000
0000
0000
0000
,
1020
2030
3002
0023
,
0230
0000
0000
2300
0000
0000
3001
0000
0100
0001
0000
0001
,
0020
0230
2300
3002
,
0203
0000
0000
0320
0000
0000
1030
0000
0010
0100
0000
0100
,
0002
0023
0032
2003
,
3200
0000
0000
2300
0000
0000
3010
0000
1000
0100
0000
0100
,
0020
0230
2300
3002
,
0203
0000
0000
0320
0000
0000
1030
0100
1000
0100
0010
0001
;

//---------------dance-single - ----------------
#NOTES:
     dance-single:
     :
     Medium:
     6:
     0.450,0.430,0.121,0.153,0.065:
0000
0000
0000
0000
,
0000
0000
0000
0000
,
0000
0000
0000
0000
,
0000
0000
1000
0000
0110
0000
0001
0100
,
0000
0000
0001
0000
1000
0000
0100
1000
,
0000
0000
0010
0000
0100
0000
0001
0010
,
0000
0000
0001
0000
1000
0000
0010
0100
,
0001
0000
0000
1000
0000
0000
0001
0000
0000
0000
0000
0000
0010
0000
0100
0000
,
0000
1000
0100
1000
,
0001
0010
0100
1000
,
0010
0100
0001
1000
,
0010
0000
0100
0000
0010
0000
1000
0001
,
1000
0000
0001
0000
0010
0000
0100
1000
,
0001
0000
0010
0000
0001
0000
0100
0001
,
0100
0000
0010
1000
0010
0000
0100
0000
,
0010
0000
0000
0100
0000
0000
0001
0000
0000
0000
0000
0000
0010
0000
0000
0000
,
1001
1000
1000
1000
,
1000
1000
1001
0001
,
0101
0001
0001
0001
,
0001
0001
0110
0001
,
1001
0010
0010
0010
,
1001
0100
0100
0100
,
0010
0010
0001
0001
,
1000
0000
0000
0000
0010
0000
0000
0000
0100
0000
0000
0010
0000
0000
1000
0000
,
0000
0000
0020
0000
0130
0001
0000
1000
,
0000
0010
0000
0100
0000
0010
1000
0000
,
0001
0000
0100
0001
0000
1000
0000
1000
,
0000
0000
0000
0000
0010
0000
0000
0000
0100
0000
0000
0001
0000
0000
0010
0000
,
0100
1000
0010
1000
,
1001
0010
0100
0001
,
0010
0000
0000
0001
0000
0000
1000
0000
,
1100
0000
0000
0000
0000
0000
0100
0010
,
0000
0000
0001
0000
0100
0000
0010
0100
,
0000
0000
0010
0000
1000
0000
0001
0010
,
0000
0000
0100
1000
0000
0001
0000
0100
,
0010
0000
1000
0000
0001
0000
0010
0001
,
0000
0000
1000
0000
0010
0000
1000
0100
,
0000
0000
1000
0000
0001
0000
0010
0001
,
0000
0000
1000
0100
0000
1000
0000
0001
,
0100
0000
0010
0000
1000
0000
0001
0010
,
0000
0000
0100
0000
1000
0010
1000
0010
,
0000
0000
0100
0000
0001
0000
0010
0001
,
0000
0000
1000
0001
0000
0100
0000
0010
,
0100
0000
0001
0000
0010
0000
0010
0100
,
0000
0000
1000
0000
0001
0100
0001
0100
,
0000
0000
0010
0000
1000
0000
0001
1000
,
0000
0000
0010
1000
0001
0000
0100
0000
,
0010
0000
0000
1000
0000
0000
0001
0000
0000
0000
0000
0000
0100
0000
0020
0000
,
0000
1000
1000
0100
,
2030
0001
0100
0001
,
3002
0010
0100
1000
,
0023
0000
0100
0000
0031
0010
0000
0002
,
0000
1000
1000
0010
,
0203
0010
0001
0010
,
0302
1000
0100
1003
,
0010
0000
1001
0000
1000
0100
0000
1001
,
0000
0000
0010
0000
1000
0000
0001
0010
,
0100
1000
0010
1000
,
0001
0100
1000
0100
,
0010
0000
1000
0000
0001
1000
0100
0000
,
1000
0010
0100
0010
,
1001
0010
0001
1000
,
1001
0010
1001
0100
,
0010
0000
0000
1000
0000
0000
0001
0000
0000
0000
0000
0000
1000
0000
0002
0000
,
0000
0000
0000
0000
0000
0000
0013
0200
,
0000
0000
0000
0000
0000
0000
1300
0200
,
0000
0000
1300
0002
0000
0023
0000
0230
,
0000
0000
1300
0000
0001
0000
0001
0200
,
0000
0000
0000
0000
0000
0000
0310
2000
,
0000
0000
0000
0000
0000
0000
3001
0020
,
0000
0000
0031
0200
0000
0302
0000
1003
,
0001
0000
0010
0000
1001
0000
1000
0100
,
0000
0000
1000
0000
0010
0000
0100
0010
,
0000
0000
0100
0000
0001
0000
0010
0100
,
0000
0000
1000
0100
0000
1000
0000
0001
,
0100
0000
0010
0000
0100
0000
0100
0010
,
0000
0000
1000
0000
0010
0100
0010
0100
,
0000
0000
0001
0000
0010
0000
0100
1000
,
0000
0000
0001
0100
0001
0000
1000
0000
,
0010
0000
0000
1000
0000
0000
1000
0000
0000
0000
0000
0000
0001
0000
1000
0000
,
0000
0000
0000
0000
,
0010
1000
0001
0010
,
0100
0000
0000
1000
0000
0000
0001
1000
0001
1000
0000
0000
,
0010
0100
0001
0010
,
0100
0000
0000
1000
0000
0000
0100
1000
0100
1000
0000
0000
,
0001
0100
0010
1000
,
0100
0000
0000
0001
0000
0000
0100
1000
0100
1000
0000
0000
,
0010
0100
0001
1000
,
0001
0000
0000
1000
0000
0000
0010
0000
0010
1000
0001
0100
;

//---------------dance-single - ----------------
#NOTES:
     dance-single:
     :
     Beginner:
     2:
     0.139,0.250,0.065,0.169,0.000:
0000
0000
0000
0000
,
0000
0000
0000
0000
,
0000
0000
0000
0000
,
0000
0000
0000
0000
0020
0000
0000
0030
,
0000
0000
0000
0000
2000
0000
0000
3000
,
0000
0000
0000
0000
0002
0000
0000
0003
,
0000
0000
0220
0000
,
0300
0000
0000
0030
0000
0000
0000
0000
,
1000
0000
0000
0000
,
0001
0000
0000
0000
,
0010
0000
0000
0000
,
0100
0000
1000
0000
,
1000
0000
0000
0000
,
0001
0000
0000
0000
,
0100
0000
0000
0000
,
0020
0000
0000
0030
0000
0000
0000
0000
,
1001
0000
0000
0000
,
0000
0000
0010
0000
,
1001
0000
0000
0000
,
0000
0000
1000
0000
,
0110
0000
0000
0000
,
0001
0000
1000
0000
,
0110
0000
0000
0000
,
1000
0000
0000
0000
0002
0000
0000
0003
,
0000
0000
0000
0000
,
0100
0000
0000
0000
,
0010
0000
0000
0000
,
1000
0000
0000
0000
,
0002
0000
0003
0000
,
0020
0000
0030
0000
,
0100
0000
1000
0000
,
2002
0000
0000
0000
0000
0000
0000
3003
,
0000
0000
0000
0000
,
0100
0000
0000
0000
,
0010
0000
0000
0000
,
1000
0000
0000
0000
,
0001
0000
0000
0000
,
0100
0000
0000
0000
,
0010
0000
0000
0000
,
0100
0000
0000
0000
,
0001
0000
0000
0000
,
0010
0000
0000
0000
,
0100
0000
0000
0000
,
1000
0000
0000
0000
,
0010
0000
0000
0000
,
0100
0000
0000
0000
,
0001
0000
0000
0000
,
1000
0000
0001
0000
,
1001
0000
0000
0000
,
0100
0000
0000
0000
,
0010
0000
0000
0000
,
1000
0000
0001
0000
,
0001
0000
0000
0000
,
0010
0000
0000
0000
,
0100
0000
0000
0000
,
1000
0000
0010
0000
,
0010
0000
0000
0000
,
0100
0000
0000
0000
,
0100
0000
0000
0000
,
0001
0000
1000
0000
,
1000
0000
0000
0000
,
0010
0000
0000
0000
,
0100
0000
0000
0000
,
0001
0000
0000
0000
,
0020
0000
0000
0000
,
0000
0000
0030
0000
,
0200
0000
0000
0000
,
0000
0000
0300
0000
,
2000
0000
3000
0000
,
0002
0000
0003
0000
,
0010
0000
0010
0000
,
2002
0000
0000
3003
0000
0000
0000
0000
,
0010
0010
0000
0000
,
1000
0000
0000
0000
,
0001
0000
0000
0000
,
0010
0000
0000
0000
,
0100
0000
0000
0000
,
0010
0000
0000
0000
,
1000
0000
0000
0000
,
0010
0000
0000
0000
,
0001
0000
0000
0000
,
2000
0000
0000
0000
,
3000
0000
0010
0000
,
0020
0000
0000
0000
,
0030
0000
0100
0000
,
0200
0000
0000
0000
,
0300
0000
0001
0000
,
0002
0000
0000
0000
,
0003
0000
0100
0100
;

//---------------dance-single - ----------------
#NOTES:
     dance-single:
     :
     Easy:
     4:
     0.373,0.394,0.185,0.347,0.000:
0000
0000
0000
0000
,
0000
0000
0000
0000
,
0000
0000
0000
0000
,
0000
0000
0000
0000
0000
0000
1000
0001
,
0000
0000
0000
0000
0000
0000
0001
1000
,
0000
0000
0000
0000
0000
0000
0100
0010
,
0000
0000
1001
0000
,
0220
0000
0330
0000
,
1000
0100
1000
0001
,
0010
0100
1000
0001
,
0100
0100
0010
0010
,
1000
0100
0010
0000
,
0001
0100
0010
1000
,
0001
0010
0100
1000
,
0001
0001
1000
1000
,
0100
1000
0020
0000
,
0130
0100
0010
0010
,
0100
0100
0001
0001
,
1000
1000
0100
0100
,
0010
0010
0001
1000
,
0002
0000
0103
0001
,
2000
0000
0100
3100
,
0020
0000
0130
0010
,
0002
0000
0000
0000
2000
0000
0000
3003
,
0000
0110
1000
0001
,
0010
0100
1000
0000
,
0010
0100
0010
0100
,
0001
0000
1000
0100
,
1100
0010
0100
0000
,
0101
0001
0010
0000
,
0002
0000
2003
0010
,
3010
0000
0000
0000
0000
0000
0001
0100
,
0000
0010
1000
0001
,
0100
0010
0100
0000
,
0001
0100
0010
1000
,
1000
0000
0010
0010
,
0110
0010
1000
0001
,
0100
0000
0010
1000
,
0100
1000
0001
0010
,
0100
0000
1000
0001
,
0101
0000
1000
0100
,
1000
0001
0010
0000
,
0100
1000
0001
1000
,
0100
0000
1000
0010
,
0110
0000
0010
0100
,
0101
0000
1000
0010
,
1010
0000
0101
0000
,
1000
0001
2002
3003
,
0010
0100
0001
0010
,
0100
1000
0001
0100
,
0010
0100
0001
1000
,
0200
0000
2300
0000
,
3010
0100
0001
1000
,
0100
0100
0010
0001
,
0100
0010
0100
0001
,
2000
0000
3002
0000
,
0013
0100
1000
0010
,
0100
0001
1000
0010
,
0001
0010
1000
0100
,
2000
0000
3200
0000
,
0310
0010
0001
0100
,
0010
0100
1000
0100
,
0001
1000
0100
0010
,
0002
0000
0000
1003
,
2002
0000
0000
3003
,
0220
0000
0000
0330
,
2020
0000
0000
3030
,
2002
0000
0000
0000
3003
0000
0001
0100
,
0000
0000
0000
0000
0000
0000
0010
1000
,
0000
0000
0000
0000
0000
0000
0001
1000
,
0000
0000
1001
0000
,
0220
0000
0000
0330
0000
0000
1000
0100
,
0000
1000
0010
0100
,
0001
0010
0100
0000
,
1000
0001
1000
0010
,
1000
0000
0001
0010
,
0011
0001
0100
0010
,
0100
0000
0001
1000
,
0200
0000
0320
0000
,
0031
0010
0100
1000
,
0001
0000
0000
0000
,
2000
0000
3020
0000
,
0230
0000
0301
1001
,
2000
0000
3020
0000
,
0230
0000
0310
0110
,
0200
0000
0302
0000
,
0023
0000
0130
0110
,
0200
0000
2300
0000
,
3002
0000
1003
1001
;

//---------------dance-double - ----------------
#NOTES:
     dance-double:
     :
     Hard:
     8:
     0.578,0.574,0.194,0.218,0.073:
00000000
00000000
00000000
00000000
,
00000000
00000000
00000000
00000000
,
00000000
00000000
00000000
00000000
,
00000000
00000000
10000000
00000000
00120000
00000000
00130000
00101000
,
00000000
00000000
00010000
00000000
00001000
00000000
00010000
00000100
,
00001000
00000000
00000010
00000000
00000001
00000000
00000010
00001000
,
00000001
00001000
00010100
00001000
,
00000010
00000000
00000000
00000100
00000000
00000000
00001001
00000000
00000000
00000000
00000000
00000000
00001000
00000000
00000200
00000000
,
00000000
00010300
00001000
00100000
00010000
10000000
00100000
00010000
,
00100000
00000000
01000000
00000000
00010000
00000000
00100000
00001000
,
00010000
00000000
00001000
00100000
00001000
00010000
00000010
00000100
,
00000001
00001000
00000100
00000000
00000020
00000000
00000031
00000000
,
00000101
00000000
00001000
00000000
00000100
00000000
00010000
00001000
,
00010000
00000000
01000000
00000000
10000000
00000000
00100000
01000000
,
00010000
00000000
10000000
00000000
01000000
10000000
00100000
01000000
,
00100000
00000000
00000000
01000000
00000000
00000000
01100000
00000000
00000000
00000000
00000000
00000000
10010000
00000000
00000000
00000000
,
01100000
00100000
00100000
00100000
,
01000000
00000000
01000000
00000000
00001000
00000000
00001000
00010000
,
00000010
00000010
00000010
00001000
,
00001000
00000001
00000001
00000010
,
00001001
00000000
00000001
00000000
00001000
00000100
00010000
00000100
,
00001000
00000100
00010000
00010000
,
00001100
00000000
00010000
00000000
00000010
00001000
00000100
00001000
,
00000010
00000000
00000000
00000000
00010000
00000000
00000000
00000000
00001000
00000000
00000000
00010000
00000000
00000000
00010000
00000000
,
00000000
00000000
00101000
00000000
00001000
02000000
00000000
03010000
,
00000000
10000000
00000000
01000000
00000000
00100000
01000000
10000000
,
00010000
00000000
01000000
00001000
00000000
00010000
00000000
01010000
,
00000000
00000000
01000000
00000000
10000000
00000000
00000000
00000000
00010000
00000000
00000000
00100000
00000000
00000000
00001000
00000000
,
00000100
00000000
00000010
00000100
00000001
00000000
00001000
00000000
,
00000110
00010000
00000100
00010000
,
00002000
00100000
00103000
00002000
00010000
00013000
00001000
00000000
,
00011000
00000000
00000000
00000000
00000000
00000000
00001000
00200000
,
00000000
00310000
10000000
01000000
00100000
00001000
00010000
00000100
,
00000000
00001000
00000001
00000010
00001000
00000010
00000001
00000100
,
00000000
00000010
00001000
00000010
00000000
00010000
00000000
00000100
,
00001000
00000000
00000100
00000000
00010000
00001000
00010000
00000200
,
00000000
00001300
00010000
00100000
00010000
10000000
00100000
01000000
,
00000000
00010000
01000000
00100000
10000000
00010000
00100000
00010000
,
10000000
00000000
00100000
01000000
00010000
10000000
01000000
00000000
,
20000000
00000000
30020000
00000000
00230000
00000000
00301000
00020000
,
00000000
00030100
00001000
00000001
00000010
00000100
00001000
00000010
,
00000000
00010000
00000100
00010000
00000100
00001000
00000100
00010000
,
00000000
00001000
00010000
00001000
00100000
01000000
10000000
00010000
,
01000000
00000000
00100000
00000000
10000000
00010000
10000000
00200000
,
00000000
01300000
00010000
10000000
00100000
01000000
00010000
00100000
,
00000000
00001000
00100000
00001000
00010000
00000000
00000100
00001000
,
00000000
00000100
00000010
00000001
00000100
00000000
00000010
00000000
,
00001000
00000000
00000000
00000100
00000000
00000000
00010100
00000000
00000000
00000000
00000000
00000000
00010000
00000000
00002000
00000000
,
00000000
00103000
00010000
00000000
10000000
01000000
00100000
00000000
,
01000000
00000000
00100000
00001000
00010000
00000100
00010000
00000000
,
00001000
00000000
00100000
01000000
10000000
00010000
00100000
00001000
,
00000100
00000001
00000100
00000000
00000020
00000000
00001030
00001001
,
00000000
00000100
00000010
00001000
00000100
00010000
00000100
00001000
,
00000000
00010000
01000000
00100000
10000000
00010000
00100000
01000000
,
10000000
00100000
00010000
00001000
,
00000100
00000000
00000001
00000000
00000010
00000100
00001000
00001001
,
00000000
00000010
00001000
00000100
00010000
00000100
00000010
00000000
,
00001000
00010000
00100000
00010000
00001000
00100000
00010000
00000000
,
10000000
01000000
00010000
01000000
10000000
00100000
01000000
00000000
,
00001000
00010000
00000100
00010000
00001000
00000010
00000001
00000000
,
00001100
00000000
00000010
00000000
00010000
00000000
00001000
00010000
,
00001000
00000000
01000000
00000000
00100000
00000000
00010000
00001000
,
00010000
00011000
00001000
00011000
,
00100000
00000000
00000000
00001000
00000000
00000000
00011000
00000000
00000000
00000000
00000000
00000000
00001000
00000000
00000200
00000000
,
00000000
00000000
00000000
00000000
00000000
00000000
00000301
00000020
,
00000000
00000000
00000000
00000000
00000030
00000000
00000010
00000200
,
00000000
00000000
00001300
00000200
00000000
00020300
00000000
00031000
,
00000000
00000000
00100000
00000000
00100000
00000000
00010000
02000000
,
00000000
00000000
00000000
00000000
00000000
00000000
03100000
20000000
,
00000000
00000000
00000000
00000000
30000000
00000000
10000000
00020000
,
00000000
00000000
00130000
00020000
00000000
02030000
00000000
03001000
,
00010000
00000000
00000000
00001000
00000000
00000000
00011000
00000000
00000000
00000000
00000000
00000000
00000100
00000000
00002000
00000000
,
00000000
00003001
00001001
00000000
00000010
00000100
00000001
00000010
,
00000000
00000100
00001000
00010000
00100000
00000000
00010000
10000000
,
00100000
00000000
01000000
00010000
00100000
00001000
00100000
00010000
,
01000000
00000000
00100000
00000000
01000000
00010000
00100000
00002000
,
00000000
00013000
00001000
00100000
00010000
00100000
00001000
00010000
,
00000000
00000010
00001000
00000100
00010000
00000000
00001000
00100000
,
00000000
00010000
10000000
01000000
00100000
00000000
00010000
00000000
,
01000000
00000000
00000000
00001000
00000000
00000000
00011000
00000000
00000000
00000000
00000000
00000000
00010000
00000000
00001000
00000000
,
00000000
00000000
00000000
00000000
,
10000000
00100000
00010000
00001000
,
00000100
00000000
00000000
00000001
00000000
00000000
00000010
00000000
00000010
00001000
00000000
00001000
,
00010000
01000000
10000000
00100000
,
00010000
00000000
00000000
00001000
00000000
00000000
00000100
00000000
00000100
00000001
00000000
00000001
,
00000010
00001000
00010000
01000000
,
10000000
00000000
00000000
00100000
00000000
00000000
00010000
00000000
00010000
00001000
00000000
00001000
,
00000100
00000001
00000010
00001000
,
00010000
00000000
00000000
01000000
00000000
00000000
10000000
00010000
10000000
00100000
01000000
00100000
;

//---------------dance-double - ----------------
#NOTES:
     dance-double:
     :
     Medium:
     6:
     0.425,0.430,0.145,0.081,0.040:
00000000
00000000
00000000
00000000
,
00000000
00000000
00000000
00000000
,
00000000
00000000
00000000
00000000
,
00000000
00000000
00000000
00000000
00021000
00000000
00031000
00100000
,
00000000
00000000
00010000
00000000
10000000
00000000
01000000
00100000
,
00000000
00000000
01000000
00000000
00100000
00000000
00010000
10000000
,
00000000
00010000
00100000
00000000
,
00001000
00000000
00000000
00010000
00000000
00000000
00011000
00000000
00000000
00000000
00000000
00000000
00001000
00000000
00000100
00000000
,
00000000
00000100
00000001
00000010
,
00000100
00001000
00000100
00010000
,
00001000
00100000
00010000
00100000
,
00001000
00010000
00001000
00000000
00000100
00000000
00000010
00000000
,
00001010
00000000
00000100
00000000
00010000
00000000
00001000
00010000
,
00001000
00000000
00100000
00000000
01000000
00000000
10000000
01000000
,
10000000
00010000
00100000
00001000
,
00100000
00000000
00000000
00010000
00000000
00000000
10000000
00000000
00000000
00000000
00000000
00000000
10010000
00000000
00000000
00000000
,
00010000
00010000
00010000
00010000
,
00100000
00100000
00100000
00100000
,
00001000
00001000
00001000
00001000
,
00000100
00000100
00000100
00000100
,
00001001
00000000
00000010
00000000
00000010
00000000
00000001
00001000
,
00000100
00000100
00000100
00001000
,
00001100
00000000
00001000
00000000
00001000
00000100
00010000
00000000
,
00001000
00000000
00000000
00000000
00001000
00000000
00000000
00000000
00100000
00000000
00000000
00001000
00000000
00000000
00010000
00000000
,
00000000
00000000
00011000
00000000
00001000
00100000
00000000
00001000
,
00000000
00010000
00000000
00001000
00000000
00010000
00000100
00000000
,
00001000
00000000
00000001
00000010
00000000
00000100
00000000
00001000
,
00000000
00000000
00000000
00000000
00001001
00000000
00000000
00000000
00001000
00000000
00000000
00000100
00000000
00000000
00000010
00000000
,
00000001
00000001
00000001
00001000
,
00001001
00000100
00000100
00000100
,
00000010
00000000
00000000
00010000
00000000
00000000
00001000
00000000
,
02000000
00000000
00000000
00000000
03000000
00000000
00100000
10000000
,
00000000
00000000
10000000
00000000
00010000
00000000
00100000
00010000
,
00000000
00000000
10000000
00000000
01000000
00000000
00100000
00001000
,
00000000
00000000
00100000
01000000
00000000
10000000
00000000
00100000
,
00000000
00000000
01000000
00000000
01010000
00000000
01000000
00100000
,
00000000
00000000
01000000
00000000
00010000
00000000
00100000
10000000
,
00000000
00000000
00100000
00000000
00010000
00000000
01000000
00001000
,
00000000
00000000
00010000
00001000
00000000
00010000
00000000
00000100
,
00000000
00000000
00001000
00000000
00001000
00000000
00000100
00001000
,
00000000
00000000
00000010
00000000
00000100
00000000
00000010
00001000
,
00000000
00000000
00000001
00000000
00000100
00000000
00000010
00000100
,
00000000
00000000
00000100
00000010
00000000
00001000
00000000
00000001
,
00000000
00000000
00001000
00000000
00000100
00000000
00010000
00001000
,
00000000
00000000
00000100
00000000
00000001
00000000
00001000
00000100
,
00000000
00000000
00010000
00000000
00001000
00000000
00100000
01000000
,
00000000
10000000
10010000
01000000
,
00100000
00000000
00000000
01000000
00000000
00000000
00010000
00000000
00000000
00000000
00000000
00000000
10000000
00000000
01000000
00000000
,
00000000
00100000
00010000
01000000
,
00001000
00010000
00000100
00001000
,
00000010
00000100
00000001
00000010
,
00000100
00000000
00010000
00000000
00001000
00000000
00100000
00010000
,
00000000
00000000
10000000
00000000
00010000
00000000
00100000
01000000
,
00000000
10000000
00010000
00100000
,
00001000
00010000
00001000
00000100
,
00000020
00000000
00000000
00000000
00001000
00000000
00000130
00000001
,
00000000
00000000
00001000
00000000
00000010
00000000
00001000
00000100
,
00000000
00000000
00010000
00000000
00001000
00000000
00100000
00010000
,
10000000
01000000
00010000
01000000
,
10000000
00100000
01000000
00010000
,
10010000
00000000
00100000
00000000
00001000
00000000
00010000
00000100
,
00010000
00000000
00000010
00000000
00001000
00000000
00000001
00000010
,
00000100
00001100
00000001
00000101
,
00000010
00000000
00000000
00001000
00000000
00000000
00000001
00000000
00000000
00000000
00000000
00000000
00001000
00000000
00000200
00000000
,
00000000
00000000
00000000
00000000
00000000
00000000
00010300
00002000
,
00000000
00000000
00000000
00000000
00000000
00000000
01003000
00200000
,
00000000
00000000
10300000
00010000
00000000
01000000
00000000
00010000
,
00000000
00000000
00100000
00000000
00201000
00000000
00301000
00020000
,
00000000
00000000
00000000
00000000
00000000
00000000
00030100
00002000
,
00000000
00000000
00000000
00000000
00000000
00000000
00003001
00000020
,
00000000
00000000
00000031
00000100
00000000
00000010
00000000
00001000
,
00000100
00000000
00000000
00000100
00000000
00000000
00000100
00000000
00000000
00000000
00000000
00000000
00010000
00000000
00001000
00000000
,
00000000
00001000
00100000
00000000
01000000
00000000
10000000
00010000
,
00000000
00000000
01000000
00000000
00100000
00000000
01000000
00010000
,
00000000
00000000
10000000
01000000
00000000
00100000
00000000
00010000
,
00000000
00000000
00100000
00000000
00001000
00000000
00010000
00000010
,
00000000
00000000
00000100
00000000
00000001
00000000
00000010
00000100
,
00000000
00000000
00001000
00000000
00000001
00000000
00001000
00000100
,
00000000
00000000
00010000
00001000
00010000
00000000
00001000
00000000
,
00100000
00000000
00000000
01000000
00000000
00000000
10000000
00000000
00000000
00000000
00000000
00000000
00100000
00000000
00010000
00000000
,
00000000
00000000
00000000
00000000
,
00000001
00000010
00000100
00001000
,
00010000
00100000
01000000
11000000
,
10000000
01000000
00100000
00010000
,
00001000
00000100
00000010
00000011
,
00000001
00000010
00000100
00001000
,
00010000
00100000
01000000
11000000
,
10000000
01000000
00100000
00010000
,
00001000
00000000
00000000
00000100
00000000
00000000
00010000
00000000
00010000
00001000
00000000
00001000
;

//---------------dance-double - ----------------
#NOTES:
     dance-double:
     :
     Easy:
     5:
     0.384,0.430,0.145,0.073,0.008: // measure 1
00000000
00000000
00000000
00000000
,  // measure 2
00000000
00000000
00000000
00000000
,  // measure 3
00000000
00000000
00000000
00000000
,  // measure 4
00000000
00000000
00000000
00000000
00021000
00000000
00000000
00032000
,  // measure 5
00000000
00000000
00000000
00000000
00003000
00000000
00001000
00000200
,  // measure 6
00000000
00000000
00000000
00000000
00000300
00000000
00000100
00000002
,  // measure 7
00000000
00000003
00001001
00000000
,  // measure 8
00001000
00000000
00000000
00000010
00000000
00000000
00000010
00001000
,  // measure 9
00000000
00000001
00000010
00000001
,  // measure 10
00000100
00000001
00000010
00000100
,  // measure 11
00000100
00001000
00000100
00010000
,  // measure 12
00001000
00100000
10010000
01000000
,  // measure 13
01100000
10000000
00010000
00100000
,  // measure 14
01000000
10000000
00010000
00100000
,  // measure 15
00001000
00001000
00100000
00001000
,  // measure 16
00010000
00000000
00000000
00000010
00000000
00000000
00001001
00000000
,  // measure 17
00000100
00000100
00000010
00000010
,  // measure 18
00001000
00001000
00000100
00001000
,  // measure 19
00000001
00000001
00001000
00001000
,  // measure 20
00000100
00000100
00010000
00001000
,  // measure 21
00110000
00000000
00100000
00000000
00100000
00000000
01000000
10000000
,  // measure 22
01000000
01000000
10000000
10000000
,  // measure 23
00010000
00000000
00010000
00000000
00100000
00010000
00100000
00000000
,  // measure 24
00010000
00000000
00010000
00000000
01000000
00000000
00000000
01000000
,  // measure 25
00000000
00000000
00010000
00000000
00010000
00000000
00000000
00100000
,  // measure 26
00000000
00000000
00000000
00001000
00000000
00000000
00010000
00000000
,  // measure 27
00011000
00000000
00000000
00001000
00000000
00000000
00000000
00000100
,  // measure 28
00000000
00000000
00000001
00000010
,  // measure 29
00000100
00000100
00001000
00000100
,  // measure 30
00010000
00010000
00001000
00100000
,  // measure 31
00010000
00000000
00000000
10000000
00000000
00000000
00010000
00000000
,  // measure 32
01000000
00000000
00000000
00000000
00000000
00000000
00100000
10000000
,  // measure 33
00000000
00000000
00100000
00000000
01000000
00000000
00010000
01000000
,  // measure 34
00000000
00000000
00010000
00000000
00010000
00000000
00100000
00001000
,  // measure 35
00000000
00000000
00010000
00000100
00000000
00001000
00000000
00001000
,  // measure 36
00000000
00000000
00000100
00000000
00000010
00000000
00000001
00000010
,  // measure 37
00000000
00000000
00000001
00000000
00001000
00000000
00000100
00001000
,  // measure 38
00000000
00000000
00000100
00000000
00010000
00000000
00000010
00000100
,  // measure 39
00000000
00000000
00000010
00001000
00000000
00000100
00000000
00001000
,  // measure 40
00000000
00000000
00000100
00000000
00000100
00000000
00010000
00001000
,  // measure 41
00000000
00000000
00100000
00000000
00100000
00000000
00010000
10000000
,  // measure 42
00000000
00000000
01000000
00000000
10000000
00000000
00100000
01000000
,  // measure 43
00000000
00000000
00010000
00100000
00000000
00010000
00000000
10000000
,  // measure 44
00000000
00000000
00100000
00000000
00100000
00000000
01000000
00010000
,  // measure 45
00000000
00000000
00100000
00000000
00001000
00000000
00010000
00001000
,  // measure 46
00000000
00000000
00010000
00000000
00000100
00000000
00000010
00000100
,  // measure 47
00000000
00001000
00001001
00000000
,  // measure 48
00000010
00000000
00000000
00000001
00000000
00000000
00000100
00000010
,  // measure 49
00000000
00001000
00000100
00010000
,  // measure 50
00001000
00100000
01000000
10000000
,  // measure 51
00010000
01000000
00100000
10000000
,  // measure 52
00010000
00100000
00001000
00010000
,  // measure 53
00000010
00000100
00000001
00000010
,  // measure 54
00000100
00001000
00000100
00001000
,  // measure 55
00010000
00100000
00010000
00100000
,  // measure 56
01000000
00000000
10000000
00000000
00010000
00000000
00100000
00010000
,  // measure 57
00000000
01000000
00100000
01000000
,  // measure 58
00001000
00010000
00001000
00100000
,  // measure 59
00010000
10000000
01000000
00100000
,  // measure 60
00001000
00010000
00000100
00000010
,  // measure 61
00001001
00000010
00000100
00000001
,  // measure 62
00001010
00000001
00001000
00000100
,  // measure 63
00010100
00001000
00011000
00010000
,  // measure 64
00001000
00000000
00000000
00100000
00000000
00000000
00010000
02000000
,  // measure 65
00000000
00000000
00000000
00000000
00000000
00000000
00000000
03200000
,  // measure 66
00000000
00000000
00000000
00000000
00000000
00000000
00000000
20300000
,  // measure 67
00000000
00000000
00000000
30010000
00000000
00000000
00000000
01000000
,  // measure 68
00000000
00000000
00010000
00000000
10010000
00000000
00100000
00020000
,  // measure 69
00000000
00000000
00000000
00000000
00000000
00000000
00000000
00032000
,  // measure 70
00000000
00000000
00000000
00000000
00000000
00000000
00003100
00000010
,  // measure 71
00000000
00000000
00001001
00000000
,  // measure 72
00000010
00000000
00000000
00000100
00000000
00000000
00000001
00001000
,  // measure 73
00000000
00000000
00000110
00000000
00001000
00000000
00000100
00010000
,  // measure 74
00000000
00000000
00001000
00000000
00010000
00000000
00001000
00100000
,  // measure 75
00000000
00000000
00010000
00000000
10000000
00000000
01000000
00100000
,  // measure 76
00000000
00000000
01000000
00000000
00100000
00000000
00010000
01000000
,  // measure 77
00010000
00010000
00010000
10000000
,  // measure 78
11000000
10000000
10000000
00010000
,  // measure 79
00110000
00001000
00011000
00000100
,  // measure 80
00010000
00000000
00000000
00001000
00000000
00000000
00001000
00100000
,  // measure 81
00000000
00000000
00000000
00000000
,  // measure 82
01000000
10000000
01000000
10000000
,  // measure 83
01000000
10000000
00010000
10000000
,  // measure 84
00010000
00100000
00010000
00100000
,  // measure 85
00010000
00100000
00001000
01000000
,  // measure 86
00001000
00010000
00001000
00010000
,  // measure 87
00001000
00010000
00000100
00001000
,  // measure 88
00000010
00000100
00000010
00000100
,  // measure 89
00000010
00000000
00000000
00000100
00000000
00000000
00000001
00000000
00000001
00000100
00000000
00000010
;
