#TITLE:Red Roses;
#SUBTITLE:;
#ARTIST:Mutsuhiko Izumi;
#TITLETRANSLIT:;
#SUBTITLETRANSLIT:;
#ARTISTTRANSLIT:;
#GENRE:;
#CREDIT:;
#MENUCOLOR:;
#METERTYPE:DDR;
#BANNER:Red Roses-bn.png;
#BACKGROUND:Red Roses-bg.png;
#LYRICSPATH:;
#CDTITLE:TUNE STREET-cdtitle.png;
#MUSIC:Red Roses.ogg;
#OFFSET:-0.400;
#SAMPLESTART:42.500;
#SAMPLELENGTH:12.400;
#SELECTABLE:YES;
#LISTSORT:;
#BPMS:0.000=136.000,92.000=155.000,168.000=170.000;
#STOPS:;
#BGCHANGES:;
#ATTACKS:;

//---------------dance-single - ----------------
#NOTES:
     dance-single:
     :
     Hard:
     8:
     0.505,0.576,0.183,0.026,0.083:
0000
0000
0000
0000
,
0000
0000
0000
0000
,
0000
0000
0000
0000
,
0000
0000
0000
0000
,
2000
0000
3002
0000
0013
0001
0100
0000
,
0010
1000
0000
1000
0001
1000
0010
0100
,
0001
0100
0000
0100
0001
0100
0010
1000
,
0100
0000
0000
0000
1000
0000
1001
0000
0000
0000
0000
0000
0000
0000
0010
0100
,
0010
0000
1001
1000
0100
0010
0001
0000
,
1000
0001
0000
0001
0100
0010
0100
0000
,
0011
0000
0000
0000
1100
0000
1000
0000
0100
0000
0010
0000
0001
0000
1000
0001
,
1000
0000
0001
0000
0100
0000
0010
0000
0100
0000
0001
0000
0000
0000
0001
1000
,
0100
0000
0000
0000
1001
0000
0001
0000
1000
0000
0100
0000
0010
0000
0100
1000
,
0100
0000
0010
0000
0000
0000
0010
0000
0001
0000
0100
0000
0010
0000
1000
0001
,
1000
0100
0000
0010
0000
0100
1000
0000
,
0001
0000
0100
0101
0000
1000
0001
1000
,
0001
0000
0000
0000
0010
0000
0000
0000
0001
0000
1000
0000
0000
0000
0010
0100
,
0010
0000
1000
0001
0000
0100
0001
1000
,
0010
0000
1000
0100
0000
0010
0001
0000
,
1000
0000
0001
0010
0000
0100
1000
0100
,
0010
0000
0000
0000
0100
0000
0000
0000
0001
0000
1000
0000
0000
0000
0010
1000
,
0010
0000
0100
0010
1000
0100
0010
0001
,
0011
0000
0000
0000
1100
0000
0000
0000
0010
0000
0000
0000
0000
0000
0100
0001
,
1000
0000
0000
0000
,
0010
0100
0010
0100
0001
0100
0001
0100
,
0010
1000
0001
1000
0100
1000
0001
0000
,
0010
0100
0010
0100
1000
0100
1000
0001
,
0010
0001
0100
0010
1000
0001
0010
0000
,
0011
0000
1000
0000
1000
0000
0010
1000
,
0010
0000
0000
0100
0000
0000
0010
0000
1000
0000
0000
0000
0001
0000
0010
0000
,
0110
0000
0100
0000
0100
0000
0100
1000
,
0001
0000
0000
0010
0000
0000
0001
0000
0100
0000
0000
0000
0010
0000
0000
0000
,
1000
0000
0000
1000
0001
0000
0000
0000
0010
0000
0000
0001
1000
0000
0000
0000
,
0001
0000
0000
0000
0100
0000
0000
1000
0000
0000
0100
0000
0000
0010
0000
0000
,
1000
0100
1000
1000
0001
1000
0100
0010
,
0001
0000
1000
0000
0010
0100
0010
0100
,
0001
0000
0000
0001
1000
0000
0000
0000
0010
0000
0000
0100
0001
0000
0000
0000
,
0100
0000
0000
0000
0010
0000
0000
1000
0000
0000
0001
0000
0000
0010
0000
0000
,
0001
1000
0001
1000
0001
1000
0001
1000
,
0001
0010
0100
0010
0100
0010
0100
1000
,
0001
0010
0001
0010
0100
1000
0100
1000
,
0001
0000
1000
0000
0001
1000
1010
0000
,
0000
0000
0000
0110
,
0110
0000
0001
0010
0100
1000
0100
0010
,
0000
0100
0000
0010
0000
0001
1000
0000
,
1001
0000
1000
0010
0100
0001
1000
0001
,
0000
0010
0000
0001
0000
1000
0100
0000
,
0110
0000
0100
1000
0001
0100
0001
1000
,
0000
0010
0000
0100
0000
0001
0100
0010
,
0000
1000
0001
0010
0100
1000
0100
0000
,
1000
0000
1001
0000
0000
0000
0000
0000
0000
0000
0010
0100
0010
0000
1000
0000
,
0100
1000
0100
1000
0100
1000
0100
0010
,
0000
0001
0000
0000
0000
1000
0001
0000
,
0100
0001
0000
0001
0010
0000
0100
0000
,
1000
0000
0001
0100
0001
1000
0100
0000
,
0001
0100
0000
0000
1001
0000
0010
0100
,
0000
0010
0000
0001
1000
0000
1000
0001
,
0000
0001
0010
0001
0010
0100
1000
0000
,
0001
0101
0000
0000
0010
0100
0010
1000
,
0100
1000
0001
0100
0001
0010
0100
0000
,
1000
0000
0001
0000
0100
0010
0100
0000
,
0001
0100
0000
0100
0010
0000
1000
0000
,
0001
0000
0010
0100
1000
0001
0100
0001
,
1000
0010
0100
0001
0010
0100
1000
0100
,
1000
0010
0100
0001
0100
0000
0010
1000
,
0001
0000
0010
0001
1000
0010
0100
0000
,
0010
1001
0000
0000
0000
0000
0100
0000
,
0001
1000
0001
0100
,
0020
0000
0000
0000
,
0000
0030
0101
1100
;

//---------------dance-single - ----------------
#NOTES:
     dance-single:
     :
     Medium:
     6:
     0.394,0.424,0.252,0.148,0.000:
0000
0000
0000
0000
,
0000
0000
0000
0000
,
0000
0000
0000
0000
,
0000
0000
0000
0000
,
0010
0000
1000
0000
0001
0100
0001
0000
,
0000
1000
0000
0010
1000
0100
0010
0000
,
0001
0010
0000
0000
0010
0000
0100
0000
,
1000
0000
0010
0010
0000
0000
0000
0000
,
0110
0000
1000
0000
0001
0000
0100
0001
,
0010
0000
0100
1000
0000
0000
0001
1000
,
0020
0000
0000
0230
0000
0000
0301
1000
,
2000
0000
0020
3000
0000
0000
0130
0001
,
0010
0000
1001
0001
0000
0001
1000
0000
,
1000
0100
0000
1000
0010
0000
0100
0000
,
0010
1000
0000
0001
0000
0001
0010
0000
,
0110
0000
1001
1001
0000
0000
1000
0000
,
0020
0000
0000
0000
0100
0000
0130
0010
,
2000
0000
0000
0001
3000
0000
1000
0001
,
0200
0000
0000
0320
0000
0000
2030
0000
,
3020
0000
0000
0230
0000
0000
0301
1000
,
0010
0000
1000
0000
0100
1000
0000
1000
,
0001
0000
0010
0100
0000
0100
1000
0000
,
0001
0000
1000
0000
0110
0000
0000
0010
,
0010
0000
0000
0000
,
1100
0000
1000
0001
0100
0000
0010
0000
,
0110
0000
0010
1000
0001
0000
0100
0000
,
0101
0000
0001
1000
0010
0000
1000
0000
,
1100
0000
0010
0001
1000
0000
0010
0000
,
1000
0000
1000
0000
1000
0000
1000
0010
,
0100
0001
1001
0000
,
0001
0000
0001
0000
0001
0000
0001
0100
,
0010
0100
1010
0000
,
1000
0000
0100
0000
0010
0000
0001
1000
,
0010
0000
0100
0000
0010
0000
0100
0001
,
1000
0000
0100
0000
0010
0000
0001
0100
,
0010
0000
0100
0000
0010
0000
1000
0100
,
0010
0000
0001
0000
1000
0000
0010
1000
,
0100
0000
1000
0000
0001
0000
0100
0010
,
0200
0302
2003
3200
,
1300
0100
0010
0001
,
0110
0000
1001
0000
,
0010
0000
1000
0000
0001
1000
1001
0000
,
0000
0000
0000
1001
,
1001
0000
0000
1000
0100
0000
1000
0001
,
0000
0001
0000
0000
0000
0000
0110
0000
,
0110
0000
0000
0001
0100
0000
0010
1000
,
0000
1000
0000
0000
0000
0000
0110
0000
,
1001
0000
0000
0010
0100
0000
1000
0001
,
0000
0100
0000
0000
0001
0000
1000
0001
,
0000
0001
1000
0001
0010
0000
0100
0000
,
0001
1001
0000
0000
0000
0000
1100
0000
,
0101
0000
1000
0000
0010
0000
0100
0010
,
0000
1000
0000
0000
0001
0000
0010
0000
,
0011
0000
0001
0000
1000
0000
0010
1000
,
0000
0001
0000
0000
1000
0000
0010
0000
,
1010
0000
1000
0000
0001
0000
0100
0001
,
0000
0010
0000
0000
0100
0000
1000
0001
,
0000
1000
0000
0001
0100
0000
0010
0000
,
0100
0010
0000
0000
1000
0000
1001
0000
,
0001
0010
0100
1000
,
0010
0100
0001
0110
,
0001
1000
0001
0000
0010
0000
0100
0000
,
0010
0001
0100
0001
,
0001
1000
0100
0000
1000
0000
0010
0000
,
0100
0001
0010
0000
0100
0000
1000
0000
,
0001
0100
1000
0100
,
0001
0001
0000
0000
0000
0000
1000
0000
,
0100
0010
0001
2000
,
0002
0000
0000
0000
,
0000
3003
0100
1001
;

//---------------dance-single - ----------------
#NOTES:
     dance-single:
     :
     Easy:
     4:
     0.364,0.364,0.356,0.200,0.000:
0000
0000
0000
0000
,
0000
0000
0000
0000
,
0000
0000
0000
0000
,
0000
0000
0000
0000
,
1000
1100
1000
0001
,
0000
0010
0001
0100
,
0010
0110
0010
1000
,
0002
2000
0000
3003
,
0110
0110
1000
0100
,
0010
0001
0010
0100
,
1001
1001
0010
0001
,
1000
0010
0100
0010
,
1100
1100
0001
1000
,
0100
0000
0001
1000
,
0200
1000
0010
1300
,
1001
0110
0000
0001
,
0020
0000
0031
1000
,
0200
1000
1300
0010
,
0100
0001
1000
0000
,
0010
0001
0010
1000
,
0002
0000
1000
0103
,
2000
0100
0010
3100
,
1100
1001
0101
0000
,
1001
0000
0000
0000
,
0001
0010
0100
1000
,
0001
0010
0100
1000
,
1000
0100
0010
0001
,
1000
0100
0010
0001
,
1002
1000
1000
1003
,
0001
0010
0200
0300
,
2001
0001
0001
3001
,
0010
0001
2000
3000
,
0001
0010
0001
0010
,
0100
1000
0100
1000
,
0010
0100
0010
0100
,
0001
1000
0001
1000
,
0010
1000
0100
0010
,
0001
1000
0010
0100
,
1010
0000
1001
0000
,
0202
0000
0000
0303
,
1001
0000
0110
0000
,
1100
0110
0101
2002
,
0000
0000
3003
0110
,
1001
0001
1000
0010
,
0100
0001
0000
1100
,
0011
1000
0010
1000
,
0100
0010
0000
1001
,
0101
1000
0001
0010
,
0001
0010
0000
1010
,
0110
0001
0010
0100
,
1000
0010
0000
0110
,
1000
0100
0010
0002
,
1000
0103
0001
2000
,
0100
0100
3010
2000
,
3001
0002
0103
0101
,
1001
0010
0100
0020
,
1000
0001
1030
0001
,
1000
0100
0010
1001
,
0110
1001
0020
1030
,
0100
0001
0100
1000
,
0010
0001
0010
1000
,
0001
0100
0001
1000
,
0010
1000
0100
1001
,
0101
1000
0001
1000
,
0010
0100
0001
1000
,
0100
0001
0001
0100
,
1000
0000
0000
0100
,
0010
0100
0010
0200
,
2000
0000
0000
0000
,
0000
0300
3001
1000
;

//---------------dance-single - ----------------
#NOTES:
     dance-single:
     :
     Beginner:
     1:
     0.122,0.182,0.026,0.174,0.000:
0000
0000
0000
0000
,
0000
0000
0000
0000
,
0000
0000
0000
0000
,
0000
0000
0000
0000
,
1000
1000
0000
0000
,
0001
0000
0000
0000
,
0010
0010
0000
0000
,
0200
0000
0000
0300
0000
0000
0000
0000
,
0001
0000
0000
0000
,
1000
1000
0000
0000
,
0100
0000
0000
0000
,
0100
0100
0000
0000
,
0010
0000
0000
0000
,
0001
0001
0000
0000
,
1000
0000
0000
0000
,
0020
0000
0000
0030
0000
0000
0000
0000
,
2000
0000
3000
0000
,
0002
0000
0003
0000
,
0020
0000
0030
0000
,
0200
0000
0300
0000
,
2000
0000
3000
0000
,
0020
0000
0030
0000
,
0100
0100
0100
0000
,
0010
0000
0000
0000
,
0200
0000
0000
0000
,
0300
0000
0000
0000
,
0020
0000
0000
0000
,
0030
0000
0000
0000
,
1000
0000
0000
0000
,
0001
0000
0001
0000
,
0001
0000
0000
0000
,
0010
0000
0010
0000
,
0100
0000
0000
0000
,
0100
0000
0000
0000
,
1000
0000
0000
0000
,
0001
0000
0000
0000
,
0100
0000
0000
0000
,
0010
0000
0000
0000
,
2000
0000
0000
0000
,
3000
0000
0000
0000
,
0002
0000
0000
0000
,
0003
0000
0110
0110
,
0000
0000
0000
1000
,
1000
0000
0000
0000
,
0000
0000
0000
0001
,
0001
0000
0000
0000
,
0000
0000
0000
0100
,
0100
0000
0000
0000
,
0000
0000
0000
0010
,
0010
0000
0000
0100
,
0000
0100
0000
0001
,
0001
0000
0000
0000
,
0000
0000
0000
0010
,
0010
0000
0000
0000
,
0000
0000
0000
0100
,
0100
0000
0000
0000
,
0000
0000
0000
1000
,
0000
0100
0000
1000
,
0000
0000
0000
0020
,
0000
0030
0000
0200
,
0000
0300
0000
0002
,
0000
0003
0000
0020
,
0000
0030
0000
0200
,
0000
0300
0000
2000
,
0000
3000
0000
0002
,
0000
0003
0000
1001
,
0000
0000
0000
0020
,
0000
0000
0000
0000
,
0000
0000
0000
0030
,
0000
0000
0100
0100
;

//---------------dance-double - ----------------
#NOTES:
     dance-double:
     :
     Hard:
     8:
     0.544,0.546,0.139,0.217,0.100: // measure 1
00000000
00000000
00000000
00000000
,  // measure 2
00000000
00000000
00000000
00000000
,  // measure 3
00000000
00000000
00000000
00000000
,  // measure 4
00000000
00000000
00000000
00000000
,  // measure 5
20100000
00000000
30010000
00000000
00100000
00010000
01000000
00100000
,  // measure 6
10000000
00020000
00000000
00130000
00001000
00010000
00000010
00000100
,  // measure 7
00000001
00000010
00000000
00000001
00000010
00000100
00001000
00000100
,  // measure 8
00010000
00000000
00000000
00000000
00001000
00000000
00011000
00000000
00000000
00000000
00000000
00000000
00000000
00000000
00010000
00001000
,  // measure 9
00010000
00000000
00000100
00000000
00001000
00000000
00000001
00000000
00000010
00000000
00000100
00000000
00000000
00000000
00001000
00000001
,  // measure 10
00001000
00000000
00000100
00000000
00010000
00000000
00002000
00000000
00000000
00000000
00000000
00000000
00103000
00000000
00010000
10000000
,  // measure 11
00100000
00000000
01000000
00000000
00100000
00000000
20000000
00000000
00000000
00000000
00000000
00000000
30010000
00000000
00100000
00010000
,  // measure 12
00100000
00000000
00001000
00000000
00020000
00000000
00000000
00000000
01030000
00000000
00000000
00000000
10000000
00000000
00100000
10000000
,  // measure 13
00100000
00000000
01000000
00000000
00010000
00000000
20000000
00000000
00000000
00000000
00000000
00000000
30010000
00000000
00100000
00001000
,  // measure 14
00010000
00000000
00000100
00000000
00010000
00000000
00002000
00000000
00000000
00000000
00000000
00000000
00003100
00000000
00000001
00001000
,  // measure 15
00000001
00000010
00000000
00000001
00000000
00001000
00000100
00001000
,  // measure 16
00000010
00000000
00000110
00000110
00000000
00000001
00000010
00000100
,  // measure 17
00001000
00000000
00000100
00000000
00010000
00000000
00001000
00000000
00100000
00000000
00010000
00000000
10000000
00000000
00100000
01000000
,  // measure 18
00100000
10000000
00010000
00100000
00001000
00010000
00000010
00001000
,  // measure 19
00000100
00010000
00000100
00010000
,  // measure 20
01000000
00000000
01000000
00100000
00000000
00100000
00010000
10000000
,  // measure 21
00100000
00000000
01000000
00000000
00010000
00000000
00100000
00000000
00001000
00000000
00010000
00000000
00001000
00000000
00000010
00000100
,  // measure 22
00001000
00000100
00000010
00000001
00001000
00000100
00001000
00000100
,  // measure 23
00010000
00000000
00000000
00000000
00001000
00000000
00000000
00000000
00001100
00000000
00000000
00000000
00000100
00000000
00000010
00001000
,  // measure 24
00000001
00000000
00000000
00000000
,  // measure 25
00000001
00000010
00001000
00000010
00000001
00000010
00001000
00000010
,  // measure 26
00000001
00000010
00000100
00001000
00010000
00100000
01000000
00000000
,  // measure 27
10000000
01000000
00010000
01000000
10000000
01000000
00010000
01000000
,  // measure 28
10000000
00100000
01000000
00010000
00100000
00001000
00010000
00000100
,  // measure 29
00001000
00000000
00001000
00000000
00001000
00000000
00001000
00000010
,  // measure 30
00000100
00000000
00000000
00000001
00000000
00000000
00001000
00000000
00000100
00000000
00000000
00000000
00010000
00000000
00001000
00000000
,  // measure 31
00010000
00000000
00010000
00000000
00010000
00000000
00010000
01000000
,  // measure 32
10000000
00000000
00000000
00100000
00000000
00000000
01000000
00000000
01010000
00000000
00000000
00000000
10000000
00000000
00000000
00000000
,  // measure 33
00010000
00100000
00000000
00010000
00100000
00000000
00000000
00000000
01000000
00000000
10000000
00000000
00010000
00000000
00000000
00000000
,  // measure 34
00100000
00001000
00000000
00100000
00001000
00000000
00000000
00000000
00010000
00000000
00000100
00000000
00001000
00000000
00000000
00000000
,  // measure 35
00000010
00000100
00000000
00000010
00000100
00000000
00000000
00000000
00000010
00000000
00001000
00000000
00000001
00000000
00000000
00000000
,  // measure 36
00001000
00000010
00000000
00001000
00000010
00000000
00000000
00000000
00000100
00000000
00000001
00000000
00001000
00000000
00000100
00000000
,  // measure 37
00010000
00000000
00001000
00000000
00010000
00000000
00001000
00100000
,  // measure 38
00010000
00000000
10000000
00000000
00010000
00000000
10000000
00100000
,  // measure 39
02000000
00010000
03200000
10000000
,  // measure 40
02300000
03020000
00230000
00302000
,  // measure 41
00003200
00000001
00000320
00001000
,  // measure 42
00000130
00000000
00000001
00000000
00001000
00000100
00010100
00000000
,  // measure 43
00000000
00000000
00000000
00011000
,  // measure 44
00011000
00000000
00100000
00001000
00010000
00001000
00010000
00000100
,  // measure 45
00000000
00000100
00000000
00001000
00000010
00000100
00000001
00000000
,  // measure 46
00001001
00000000
00000001
00000010
00000001
00000010
00000100
00001000
,  // measure 47
00000000
00000100
00000000
00010000
00001000
00100000
00010000
00000000
,  // measure 48
00110000
00000000
00010000
10000000
00100000
10000000
00100000
01000000
,  // measure 49
00000000
00100000
00000000
10000000
00010000
00100000
00010000
02000000
,  // measure 50
00000000
03100000
10000000
00010000
00100000
00001000
00010000
00000000
,  // measure 51
00010000
00000000
00000100
00000000
00000000
00000000
00000000
00000000
00000000
00000000
00001000
00000100
00001000
00000000
00000100
00000000
,  // measure 52
00000010
00000001
00000100
00000010
00000100
00000001
00001000
00000000
,  // measure 53
00000100
00001000
00000000
00001000
00000100
00000010
00000100
00000000
,  // measure 54
00010000
00000100
00000000
00010000
00001000
00100000
00001000
00000000
,  // measure 55
00120000
00000000
10000000
00000000
10030000
00010000
01000000
00000000
,  // measure 56
10010000
00000000
00100000
10000000
01000000
00100000
00010000
01000000
,  // measure 57
00000000
00001000
00000000
00100000
00010000
00100000
00001000
00010000
,  // measure 58
00000000
00001000
00000100
00000001
00000100
00000000
00000020
00000000
,  // measure 59
00001030
00000000
00000200
00000000
00000000
00000000
00000000
00000000
00001300
00000010
00001000
00000010
00000100
00000000
00000000
00000000
,  // measure 60
00000001
00000000
00000010
00000100
00001000
00000000
00000100
00010000
,  // measure 61
00001000
00010000
00001000
00100000
00010000
00000000
10000000
00100000
,  // measure 62
01000000
00010000
00000000
00010000
00100000
00000000
01000000
10000000
,  // measure 63
00010000
00100000
00001000
00010000
01000000
10000000
00200000
00000000
,  // measure 64
01300000
00010000
00100000
01000000
10000000
00000000
00020000
00000000
,  // measure 65
00130000
00001000
00010000
00000010
00000100
00000001
00001000
00000100
,  // measure 66
00000000
00001000
00000010
00010000
00001000
00000000
00110000
00000000
,  // measure 67
00020000
20000000
00000000
00000000
30030000
00000000
10000000
01000000
,  // measure 68
00100000
00010000
00100000
10000000
00100000
00010000
00002000
00000000
,  // measure 69
00000200
00000000
00000000
00000000
,  // measure 70
00000000
00003300
00000011
00001001
;

//---------------dance-double - ----------------
#NOTES:
     dance-double:
     :
     Medium:
     6:
     0.382,0.394,0.183,0.070,0.000:
00000000
00000000
00000000
00000000
,
00000000
00000000
00000000
00000000
,
00000000
00000000
00000000
00000000
,
00000000
00000000
00000000
00000000
,
00000200
00000000
00002300
00000000
00003010
00000100
00000010
00000000
,
00001000
00000100
00000000
00001000
00000100
00000000
00010000
00000000
,
00001000
00100000
00000000
00010000
00100000
00000000
01000000
00000000
,
10000000
00000000
10000000
00010000
00000000
00000000
00000000
00000000
,
01000000
00010000
00100000
01000000
,
10000000
00100000
00000000
00010000
00001000
00000000
00000100
00000001
,
00001000
00000000
00000010
00001000
00000000
00000000
00000010
00000000
,
00000001
00000000
00000010
00001000
00000100
00000000
00000100
00000000
,
00011000
00000000
00001000
00000000
00100000
00010000
00100000
00000000
,
01000000
10000000
00000000
10000000
01000000
00000000
00100000
00000000
,
00010000
01000000
00000000
00100000
00000000
01000000
00100000
00000000
,
10000000
00000000
00010000
00100000
00000000
00001000
00001000
00000000
,
00101000
00000000
00010000
00000000
00000100
00001000
00000000
00001000
,
00000010
00000000
00000100
00000001
00000000
00000000
00000010
00000000
,
00000100
00000000
00000000
00001000
00000000
00000000
00010000
00000000
,
00100000
00000000
00000000
01000000
00000000
10000000
00010000
00000000
,
01000000
00000000
00100000
00000000
10000000
00010000
00000000
00010000
,
01000000
00000000
00100000
00000000
01000000
00000000
00001000
00010000
,
00001000
00000000
00010000
00000000
01000000
00000000
00000000
10000000
,
00010000
00000000
00000000
00000000
,
00100000
00001000
00010000
00000100
,
00000010
00000001
00001000
00000100
,
00000001
00000100
00001000
00000100
,
00010000
00000000
00001000
00000000
00100000
00010000
00100000
00010000
,
01000000
00000000
01000000
00000000
01000000
00000000
00100000
01000000
,
00100000
00100000
10010000
00000000
,
00100000
00000000
00100000
00000000
00100000
00000000
00001000
00010000
,
00001000
00000100
00001001
00000000
,
00000001
00000100
00001000
00000100
,
00000010
00001000
00000100
00010000
,
00001000
00100000
01000000
10000000
,
00100000
00000000
01000000
00000000
00010000
10000000
00100000
01000000
,
00100000
01000000
00010000
00100000
,
00001000
00000000
00010000
00000000
01000000
00000000
10000000
00010000
,
02000000
00010000
03020000
10000000
,
00130000
00000000
00001000
00000000
00010000
00000100
00001000
00000010
,
00000200
00000001
00000302
00000010
,
00001003
00000000
00000100
00000000
00010000
00001000
00000100
00000000
,
00000000
00000000
00000000
00000110
,
00000110
00000000
00000000
00000001
00000100
00000000
00000010
00001000
,
00000000
00000100
00000000
00000000
00001000
00000000
00010100
00000000
,
00010100
00000000
00000000
00010000
00001000
00000000
00100000
00010000
,
00000000
10000000
00000000
00000000
00100000
00000000
01100000
00000000
,
01100000
00000000
00000000
00010000
10000000
00000000
00100000
10000000
,
00000000
00010000
00000000
00000000
00100000
00000000
00001000
00100000
,
00000000
00100000
00010000
00000000
00001000
00000000
00000100
00000000
,
00001000
00000010
00000000
00000000
00000000
00000000
00001001
00000000
,
00001001
00000010
00000100
00000010
,
00001000
00000100
00001000
00000000
00000100
00000000
00010100
00000000
,
00010100
00000000
00010000
00000000
00001000
00000000
00100000
00010000
,
01000000
01000000
00100000
10010000
,
10010000
00000000
10000000
00000000
01000000
00000000
00100000
00010000
,
00100000
00001000
00010000
00001000
,
00100000
00010000
00000000
00010000
10000000
00000000
01000000
00000000
,
00100000
01000000
00000000
00000000
10000000
00000000
10010000
00000000
,
00100000
00001000
00010000
00000010
,
00000100
00001000
00000100
00000001
,
00000010
00000100
00000000
00000100
00001000
00000000
00000100
00000000
,
00000010
00000000
00000001
00000000
00001000
00000100
00010000
00000000
,
00000100
00001000
00000010
00000000
00000100
00000000
00001001
00000000
,
00000010
00000100
00000010
00000000
00001000
00000000
00000100
00000000
,
00010000
00001000
00100000
00010000
,
00100000
00101000
00000000
00000000
00000000
00000000
00001000
00000000
,
00100000
00010000
01000000
20000000
,
02000000
00000000
00000000
00000000
,
00000000
33000000
01010000
00101000
;

//---------------dance-double - ----------------
#NOTES:
     dance-double:
     :
     Easy:
     4:
     0.323,0.394,0.217,0.139,0.000:
00000000
00000000
00000000
00000000
,
00000000
00000000
00000000
00000000
,
00000000
00000000
00000000
00000000
,
00000000
00000000
00000000
00000000
,
00200000
20300000
30010000
00100000
,
00000000
00010000
00100000
00001000
,
00010000
00010000
00000100
00001000
,
00000010
00001001
00000000
00000000
,
00000010
00001000
00000100
00000010
,
00000001
00001000
00000100
00010000
,
00011000
00001000
00100000
00010000
,
10000000
01000000
00000000
10000000
,
10010000
00100000
01000000
00001000
,
00010000
00001000
00010000
00000000
,
00000100
00001000
00000100
00010000
,
00001000
00000100
00000000
00000001
,
00001001
00000000
00001000
00000100
,
00010000
00000000
00001000
00000000
,
00100000
00010000
01000000
00100000
,
10000000
00000000
10000000
00010000
,
00110000
00000000
00010000
10000000
,
11000000
00000000
01000000
00100000
,
00110000
00110000
00101000
00000000
,
00011000
00000000
00000000
00000000
,
00020000
00000010
00000010
00030010
,
00002000
00000001
00000001
00003001
,
00000002
00000010
00000010
00000013
,
00000200
00010000
00010000
00010300
,
00001000
00000000
00100000
00000000
,
00001000
01000000
00001000
00000000
,
00010000
00000000
01000000
00000000
,
10000000
00010000
01000000
00000000
,
00100000
00100000
01000000
00010000
,
00100000
00100000
00001000
00010000
,
00000100
00000100
00000010
00000001
,
00001000
00001000
00000010
00001000
,
00000100
00000100
00010000
00001000
,
00010000
00010000
01000000
10000000
,
00200000
00000000
20300000
00000000
,
30010000
00100000
00001000
00010000
,
00000200
00000320
00000230
00000320
,
00000130
00001000
00000100
00010100
,
00000000
00000000
00000000
00011000
,
00011000
00000000
00000000
00010000
,
00001000
00100000
00010000
01010000
,
01010000
00000000
00000000
10000000
,
01000000
00100000
00010000
10010000
,
10010000
00000000
00000000
00100000
,
00001000
00010000
00000100
00000020
,
00000000
00000100
00000130
00000010
,
00000001
00000000
00000000
00001100
,
00001000
00000010
00000100
00000001
,
00000010
00000100
00010000
00010100
,
00001000
00100000
00010000
10000000
,
00100000
01000000
00010000
10010000
,
01000000
00100000
01000000
00010000
,
10000000
00010000
00100000
00102000
,
00000000
00013000
00000100
00010100
,
00011000
00000000
00000000
00010000
,
00000100
00000010
00000001
00000100
,
00000010
00001000
00000100
00010000
,
00001000
00010000
00100000
10000000
,
01000000
00100000
00010000
10000000
,
00010000
00100000
00001000
00010000
,
00001000
00000010
00000001
00000100
,
00001000
00000100
00000010
00001000
,
00000100
00010000
00000000
00001000
,
00010000
00100000
01000000
00020000
,
00200000
00000000
00000000
00000000
,
00000000
00330000
00101000
00011000
;
