#TITLE:Princess Roki;
#SUBTITLE:;
#ARTIST:Akino;
#TITLETRANSLIT:;
#SUBTITLETRANSLIT:;
#ARTISTTRANSLIT:;
#GENRE:;
#CREDIT:;
#MENUCOLOR:;
#METERTYPE:DDR;
#BANNER:Princess Roki-bn.png;
#BACKGROUND:Princess Roki-bg.png;
#LYRICSPATH:;
#CDTITLE:TUNE STREET-cdtitle.png;
#MUSIC:Princess Roki.mp3;
#OFFSET:-2.320;
#SAMPLESTART:40.400;
#SAMPLELENGTH:15.240;
#SELECTABLE:YES;
#LISTSORT:;
#BPMS:0.000=126.000;
#STOPS:;
#BGCHANGES:;
#ATTACKS:;

//---------------dance-single - ----------------
#NOTES:
     dance-single:
     :
     Hard:
     7:
     0.475,0.498,0.185,0.176,0.069:
0000
0000
0000
0000
,
0000
0000
0000
0000
,
0000
0000
0000
0000
,
0000
0000
0000
0000
,
1001
0000
1000
0100
0001
0100
1000
0000
,
1001
0000
0010
0100
0001
0100
0010
0000
,
1001
0000
0001
0010
1000
0010
0001
1000
,
0200
0000
1300
0010
0100
0100
0001
0000
,
2000
0000
3010
0001
2000
0000
3100
0001
,
2000
0000
3010
0001
2000
0000
3100
0001
,
1000
0001
1000
0001
,
0100
0000
0010
0000
1000
0001
1000
0001
,
0010
0001
0010
0001
1000
0100
0001
0000
,
0100
1000
0100
1000
0001
0010
1000
0000
,
0010
0001
0010
0001
1000
0100
0001
0000
,
0100
1000
0100
1000
0001
0010
1000
0000
,
0010
0000
0001
0000
0200
0010
0310
1000
,
0001
0100
0001
0000
1000
0000
0010
0000
0100
0000
0000
0000
0001
0000
0000
0000
,
1100
0101
1100
0101
,
0010
0100
0001
1000
0200
0001
0301
0000
,
0100
1000
0010
0100
0001
1000
0010
0000
,
0100
0001
0010
0100
0010
0100
1000
0000
,
0001
0010
0100
1000
0100
0010
0001
0000
,
1000
0010
0100
0010
1000
1000
0001
0000
,
0010
0001
0100
1000
0100
0001
1000
0000
,
0001
0010
1000
0010
0100
0001
0100
0000
,
1000
0001
0100
0010
0100
0001
1000
0000
,
0010
1000
0100
0010
0001
0100
0010
0000
,
2002
0000
0000
3003
,
0110
0000
1000
0100
0010
0001
1000
0000
,
0110
0000
0001
0010
0100
1000
0001
0000
,
0110
0000
0001
0100
1000
0100
0001
0000
,
1001
0000
1000
0100
0001
0100
1000
0000
,
0002
0000
0013
1000
0002
0000
0103
1000
,
0002
0000
0013
1000
0002
0000
0103
1000
,
0001
0101
1000
1100
,
1000
0000
0001
0000
0100
0000
0010
1000
0001
1000
0000
0010
1000
0001
0100
0000
,
0101
0000
1000
0100
0020
0000
0032
0000
,
0103
0010
0100
0001
1000
0000
0001
0000
,
1000
0000
1100
0000
0100
0010
0011
0000
,
0001
1000
0100
1000
0100
0001
0100
0000
,
0010
0001
0010
0001
1000
0001
0100
0000
,
0010
1000
0001
0100
1000
0100
0001
0000
,
1000
0010
1000
0010
0100
0001
0100
0000
,
0001
0010
0001
0100
0010
1000
0001
0000
,
2000
0000
0100
0000
3100
0000
1000
0001
1000
0000
0001
0000
1001
0000
0000
0000
,
0001
0100
0001
0100
1000
0100
0001
0000
,
0020
0000
0001
0000
0031
0000
0010
0001
1000
0000
0001
0000
1001
0000
0000
0000
,
1000
0010
1000
0010
0001
0010
1000
0000
,
0010
0000
0100
0010
0100
0000
0001
0000
1000
0000
0000
0000
0001
0000
1000
0000
,
0100
0000
1000
0001
1000
0000
0010
0000
0100
0000
0001
0100
0001
0100
0001
0000
,
1000
0000
0000
0100
0000
0000
0001
0000
0000
0100
0000
0000
1000
0000
0001
0000
,
0001
0000
0000
0100
0000
0000
1000
0000
0000
0100
0000
0000
0001
0000
1000
0000
,
2002
0000
0000
3003
;

//---------------dance-single - ----------------
#NOTES:
     dance-single:
     :
     Medium:
     5:
     0.344,0.417,0.111,0.333,0.000:
0000
0000
0000
0000
,
0000
0000
0000
0000
,
0000
0000
0000
0000
,
0000
0000
0000
0000
,
1100
0000
0001
0010
1000
0000
0010
0000
,
0011
0000
1000
0100
0001
0000
0100
0000
,
1100
0000
0001
0010
1000
0000
0010
0000
,
0001
0100
0010
1000
,
0002
0203
2300
3200
,
0302
0023
2030
3020
,
0032
0100
0100
1003
,
2000
0100
0100
3001
,
1000
0010
0100
0001
,
0010
0010
0001
0100
,
0010
0010
1000
0001
,
1000
0100
0001
0100
,
1000
0010
0100
0001
,
2000
3200
0320
0032
,
1003
0110
2002
3003
,
0010
1000
0010
1000
,
0001
0100
1000
0100
,
0001
0010
0001
0010
,
0001
0010
1000
0010
,
0001
1000
0100
1000
,
0100
0010
0001
1000
,
0010
0100
0010
1000
,
0100
0001
0100
1000
,
0220
0000
0000
0330
,
1001
0000
0001
0100
1000
0000
0100
0000
,
0101
0000
1000
0100
0001
0000
0100
0000
,
1100
0000
0001
0010
1000
0000
0010
0000
,
0011
0000
1000
0010
0001
0000
0010
0000
,
1000
0010
0100
0001
,
2000
3020
0032
0023
,
2030
3200
0302
0203
,
1300
0000
0001
0000
1000
0010
0010
0000
,
0100
0000
0001
0000
1000
0001
1000
0001
,
0100
0000
0001
0000
0010
0000
0100
1000
,
0100
1000
0001
0100
,
0110
0000
1000
0000
0001
0000
0010
0001
,
0100
0000
0010
0000
1000
0100
0001
0000
,
0110
0000
0001
0000
1000
0001
1000
0000
,
0010
0000
0100
0000
0001
1000
0001
0000
,
0100
0010
1000
0001
,
0100
1000
0100
0001
,
2000
0000
3001
0100
2000
0000
3100
0000
,
0001
2000
3200
0320
,
0032
0000
1003
0010
0002
0000
0013
0000
,
1000
0002
0023
0230
,
1300
0000
0001
0000
0100
0010
0100
0000
,
0001
0000
1000
0000
0100
0010
0100
0000
,
0001
0100
1000
0001
,
0100
1000
0100
0001
,
0010
0000
0000
0000
;

//---------------dance-single - ----------------
#NOTES:
     dance-single:
     :
     Easy:
     4:
     0.267,0.294,0.148,0.093,0.000:
0000
0000
0000
0000
,
0000
0000
0000
0000
,
0000
0000
0000
0000
,
0000
0000
0000
0000
,
0020
1000
0100
0001
,
0230
0001
0010
1000
,
0320
1000
0100
0001
,
0230
0001
0010
1300
,
0010
1000
0001
0100
,
0010
1000
0001
0100
,
0001
0010
0100
1000
,
0001
0010
0100
1000
,
1001
0000
0010
0100
,
1001
0000
0100
0010
,
1001
0000
1000
0001
,
0110
0000
0001
1000
,
0110
0010
1000
0000
,
0001
0100
1000
0100
,
0001
0010
0100
1000
,
0010
0100
0001
0000
,
1000
0100
0001
0100
,
1000
0010
0001
0010
,
1000
0010
0001
0010
,
1000
0100
0001
0100
,
1000
0010
0001
1000
,
0100
0001
1000
0000
,
0001
0010
1000
0001
,
0100
1000
0001
1000
,
0020
0000
0000
0030
,
1001
0000
0100
0010
,
1001
0000
0010
0100
,
1001
0000
1000
0001
,
0110
0000
0001
1000
,
0110
0001
0110
1000
,
1001
0010
1001
0100
,
0020
0000
0000
0030
,
1000
0001
1000
0001
,
0101
0000
1000
0100
,
0010
0001
0100
0000
,
0010
1000
0100
0001
,
0100
1000
0001
0100
,
0001
0001
0010
0001
,
1000
1000
0100
1000
,
0010
0100
0001
1000
,
0010
0100
1000
0100
,
0002
1000
2000
3003
,
0110
0001
0010
0100
,
2000
0001
0002
3003
,
0110
1000
0100
0010
,
0001
0100
0010
0001
,
0010
0100
0010
0100
,
0001
1000
0100
0010
,
0001
0100
0010
0100
,
1000
0000
0000
0000
;

//---------------dance-single - Copied from----------------
#NOTES:
     dance-single:
     Copied from:
     Beginner:
     1:
     0.101,0.172,0.056,0.102,0.000:
0000
0000
0000
0000
,
0000
0000
0000
0000
,
0000
0000
0000
0000
,
0000
0000
0000
0000
,
2000
0000
3000
0000
,
0200
0000
0300
0000
,
0020
0000
0030
0000
,
0002
0000
0003
0000
,
0100
0000
0100
0000
,
0100
0000
0100
0000
,
1001
0000
0000
0000
,
0000
0000
0000
0000
,
0001
0000
0000
0000
,
0010
0000
0000
0000
,
0100
0000
0000
0000
,
1000
0000
0000
0000
,
0001
0000
0001
0000
,
0200
0000
0300
0000
,
0010
0010
0010
0010
,
0010
0000
0000
0000
,
1001
0000
0000
0000
,
1000
0000
0000
0000
,
0001
0000
0000
0000
,
0010
0000
0000
0000
,
0110
0000
0000
0000
,
0100
0000
0000
0000
,
1000
0000
0000
0000
,
0010
0000
0000
0000
,
0200
0000
0300
0000
,
1001
0000
0000
0000
,
0010
0000
0000
0000
,
1001
0000
0000
0000
,
0100
0000
0000
0000
,
0010
0000
0010
0000
,
0010
0000
0010
0000
,
0020
0000
0030
0000
,
0000
0000
0000
0001
,
0001
0000
0000
0000
,
1000
0000
0000
0000
,
0100
0000
0000
0000
,
1000
0000
0000
0000
,
0010
0000
0100
0000
,
0010
0000
0000
0000
,
1000
0000
0001
0000
,
1000
0000
0000
0000
,
0002
0000
0000
0000
,
0003
0000
1000
0000
,
2000
0000
0000
0000
,
3000
0000
0010
0000
,
2002
0000
0000
0000
,
3003
0000
0000
0000
,
0010
0000
0000
0000
,
1000
0000
0100
0000
,
0001
0000
0000
0000
;

//---------------dance-double - ----------------
#NOTES:
     dance-double:
     :
     Hard:
     7:
     0.413,0.417,0.148,0.102,0.009:
00000000
00000000
00000000
00000000
,
00000000
00000000
00000000
00000000
,
00000000
00000000
00000000
00000000
,
00000000
00000000
00000000
00000000
,
11000000
00000000
10000000
01000000
00010000
01000000
10000000
00000000
,
00100000
00000000
00010000
00001000
00010000
00000000
00000100
00000000
,
00000010
00000000
00000001
00000100
00001000
00000100
00000001
00000000
,
00001000
00000000
00000100
00000000
00010000
00001000
00010000
00000000
,
00002000
00000000
00013000
00000100
00002000
00000000
00003100
00010000
,
00002000
00000000
00103000
00010000
00200000
00000000
00310000
01000000
,
10000000
01000000
00010000
00100000
,
00001000
00010000
00001000
01000000
,
10010000
00000000
00100000
00000000
10000000
01000000
00100000
00000000
,
01000000
00100000
00010000
00100000
00001000
00010000
00000100
00000000
,
00001000
00000000
00000001
00000000
00000100
00000010
00001000
00000000
,
00000010
00000100
00000001
00001000
00000100
00010000
00001000
00000000
,
00010000
00000000
00001000
00100000
00010000
01000000
00000000
00100000
,
10000000
00010000
10000000
00000000
01000000
00000000
00100000
00000000
00010000
00000000
00000000
00000000
01000000
00000000
00000000
00000000
,
01010000
00110000
00011000
00001100
,
00000001
00000010
00000100
00001000
00000010
00000100
00000001
00000000
,
00001000
00000100
00010000
00001000
00100000
00010000
01000000
00000000
,
00010000
00100000
00001000
00010000
00000100
00001000
00000010
00000000
,
00000100
00000001
00000010
00000100
00001000
00000100
00010000
00000000
,
00001000
00100000
00010000
10000000
01000000
00010000
01000000
00000000
,
00100000
00001000
00010000
00000100
00001000
00000010
00000100
00000000
,
00000001
00000010
00001000
00010000
00001000
00010000
01000000
00000000
,
10000000
01000000
00010000
00001000
00000010
00000001
00000100
00000000
,
00000010
00001000
00000100
00010000
00001000
00000100
00000010
00000000
,
00002000
00000100
00000100
00003100
,
00010100
00000000
00010000
00000000
00001000
00100000
00001000
00000000
,
01010000
00000000
00100000
00000000
10000000
01000000
10000000
00000000
,
00110000
00000000
01000000
00000000
00010000
00100000
01000000
00000000
,
20000000
00000000
31000000
00100000
00010000
01000000
00010000
00000000
,
00200000
00000000
00301000
00010000
00002000
00000000
00003100
00001000
,
00020000
00000000
00031000
00010000
00000020
00000000
00000130
00000001
,
00002000
00000010
00000001
00003100
,
00001000
00000000
00000000
00000000
00000010
00000000
00000000
00000000
00000100
00000000
00000000
00000000
00000010
00000000
00010000
00000100
,
00010000
00000000
00001000
00000000
00100000
00000000
00010000
10000000
,
01000000
00000000
00010000
00000000
00001000
00000000
00000100
00000001
,
00001000
00000000
00000010
00000000
00000100
00000010
00001000
00000100
,
00010000
00000000
00001000
00000000
00100000
00010000
10000000
01000000
,
00100000
00000000
00010000
00000000
01000000
00100000
01000000
00000000
,
00010000
00000000
10000000
00000000
00100000
10000000
01000000
00000000
,
00100000
00000000
00001000
00010000
01000000
00000000
10000000
00000000
,
00100000
00000000
01000000
00010000
00100000
00001000
00010000
00001000
,
00000100
00000000
00000010
00000100
00000001
00000000
00001000
00000000
,
00000010
00001100
00000110
00000011
,
00001000
00000000
00000100
00010000
00001000
00000000
00100000
00000000
,
00010000
11000000
01100000
00110000
,
00001000
00010000
00001000
00010000
00000100
00001000
00000010
00000000
,
00000100
00000001
00000010
00000100
00001000
00000010
00000100
00000000
,
00001000
00010000
01000000
10000000
01000000
10000000
00010000
00000000
,
00100000
00001000
00010000
00000100
00001000
00000010
00001000
00000010
,
00000110
00000000
00000000
00000000
;

//---------------dance-double - ----------------
#NOTES:
     dance-double:
     :
     Medium:
     6:
     0.402,0.515,0.111,0.259,0.000:
00000000
00000000
00000000
00000000
,
00000000
00000000
00000000
00000000
,
00000000
00000000
00000000
00000000
,
00000000
00000000
00000000
00000000
,
00000200
00000000
00010300
00000100
00000100
00001000
00000100
00000000
,
00020000
00000000
00031000
00100000
00100000
00010000
00100000
00000000
,
00020000
00000000
10030000
10000000
01000000
10000000
01000000
00000000
,
00100000
00010000
01000000
00010000
,
00200000
00000000
00302000
00010000
00023000
00000000
00030200
00001000
,
00002300
00000000
00003020
00000100
00000230
00000000
00000302
00000010
,
00000013
00000100
00001000
00000100
,
00010000
00000000
00001000
00000000
00100000
01000000
10000000
00100000
,
10000000
00010000
01000000
00010000
10000000
00000000
01000000
00000000
,
10000000
00100000
01000000
00010000
00100000
00000000
00011000
00000000
,
00001000
00000100
00000001
00000100
00000001
00000000
00001000
00000000
,
00000100
00001000
00000100
00010000
00000100
00000000
00001000
00000000
,
00000010
00000000
00000100
00000000
00000010
00001000
00000000
00001000
,
00000100
00010000
00001000
00010000
00001000
00100000
00010000
00000000
,
00110000
01010000
11000000
10100000
,
10010000
00000000
01000000
00100000
00020000
00000000
00030000
00000000
,
00100000
00000000
00001000
00010000
00000100
00001000
00000010
00000000
,
00000100
00000000
00000001
00000010
00000100
00001000
00000010
00000000
,
00001000
00000000
00000100
00010000
00001000
00100000
00001000
00000000
,
00010000
00000000
01000000
10000000
00010000
01000000
00100000
00000000
,
01000000
00000000
00010000
10000000
00010000
00100000
00010000
00000000
,
01000000
00000000
00001000
00010000
00001000
00010000
00000100
00000000
,
00001000
00000000
00000010
00000100
00000001
00000010
00000100
00000000
,
00001000
00000000
00000100
00010000
00001000
00000100
00000010
00000000
,
00002000
00000100
00000100
00003100
,
00011000
00000000
00100000
00010000
00100000
00010000
01000000
00000000
,
10100000
00000000
00010000
01000000
00010000
01000000
00100000
00000000
,
01001000
00000000
00010000
00001000
00010000
00001000
00010000
00000000
,
00001100
00000000
00000100
00000010
00000100
00000010
00000001
00000000
,
00002000
00003020
00020030
00032000
,
00203000
00000000
00320000
00000000
02030000
00000000
03100000
10000000
,
01000000
00000000
00010000
00000000
01000000
00000000
10000000
00010000
,
00100000
00000000
00001000
00000000
00010000
00000000
00001000
00000100
,
00000002
00000000
00000100
00000000
00001000
00000000
00000103
00000001
,
00002000
00000000
00000100
00000000
00000010
00000000
00003100
00010000
,
00002000
00000000
00100000
00000000
00010000
00000000
01003000
00001000
,
00200000
00000000
00010000
00000000
10000000
00000000
00310000
00100000
,
01000000
00000000
10000000
00010000
10000000
00010000
10000000
00000000
,
00100000
00000000
01000000
00010000
01000000
00010000
00100000
00000000
,
00001000
00000000
00010000
00000100
00010000
00000100
00001000
00000000
,
00000010
00000000
00000100
00000001
00000100
00000001
00001000
00000000
,
00000120
00001000
00002000
00003030
,
00010000
00001000
00001000
00100000
,
00210000
01000000
02000000
03300000
,
10000000
01000000
00100000
00010000
,
01000000
00000000
00001000
00000000
00100000
00001000
00010000
00000000
,
00001000
00000000
00000100
00000000
00000010
00000000
00001000
00000100
,
00010000
00001000
00100000
00010000
,
10000000
00100000
01000000
00010000
10000000
00100000
01000000
00010000
,
00100000
00000000
00000000
00000000
;

//---------------dance-double - ----------------
#NOTES:
     dance-double:
     :
     Easy:
     3:
     0.192,0.270,0.046,0.102,0.000: // measure 1
00000000
00000000
00000000
00000000
,  // measure 2
00000000
00000000
00000000
00000000
,  // measure 3
00000000
00000000
00000000
00000000
,  // measure 4
00000000
00000000
00000000
00000000
,  // measure 5
10010000
00000000
00100000
01000000
,  // measure 6
00001000
00000000
00010000
00000100
,  // measure 7
00001000
00000000
00000001
00000010
,  // measure 8
00000100
00000000
00001000
00001000
,  // measure 9
00000020
00001000
00002030
00000000
,  // measure 10
00003200
00010000
00020300
00000000
,  // measure 11
00031000
00100000
00010000
00000000
,  // measure 12
10000000
01000000
00100000
00000000
,  // measure 13
00001000
00000000
00010000
00000000
,  // measure 14
00000100
00010000
00001000
00000000
,  // measure 15
00000100
00000000
00000010
00000000
,  // measure 16
00001000
00000100
00010000
00000000
,  // measure 17
01000000
00000000
10000000
00000000
,  // measure 18
00020000
00000000
01000000
00030000
,  // measure 19
10000000
01000000
00100000
00010000
,  // measure 20
00100000
00000000
00110000
00000000
,  // measure 21
00001000
00001000
00010000
00000000
,  // measure 22
00000100
00000000
00000010
00000000
,  // measure 23
00000001
00001000
00000001
00000000
,  // measure 24
00001000
00000000
00000100
00010000
,  // measure 25
00001000
00000000
00010000
00000000
,  // measure 26
00001000
00100000
00010000
00000000
,  // measure 27
10000000
00000000
00100000
00000000
,  // measure 28
01000000
00010000
01000000
00000000
,  // measure 29
00220000
00000000
00000000
00330000
,  // measure 30
10010000
00000000
00100000
00001000
,  // measure 31
00010000
00000000
00000100
00000100
,  // measure 32
00000010
00000000
00000001
00000100
,  // measure 33
00000010
00000000
00001000
00001000
,  // measure 34
00000200
00010000
00020300
00000000
,  // measure 35
00032000
00100000
00203000
00000000
,  // measure 36
00310000
00000000
10000000
00000000
,  // measure 37
01000000
00000000
00100000
00010000
,  // measure 38
00011000
00000000
00001000
00000100
,  // measure 39
00000001
00000000
00001000
00000000
,  // measure 40
00000010
00000000
00010000
00000100
,  // measure 41
00001000
00000000
00000100
00000000
,  // measure 42
00000010
00000001
00001000
00000000
,  // measure 43
00000100
00010000
00010000
00000000
,  // measure 44
00001000
00100000
00010000
00000000
,  // measure 45
10000000
01000000
00100000
00000000
,  // measure 46
00010000
00000000
00010000
00000000
,  // measure 47
00000000
00100000
00001000
00000000
,  // measure 48
00010000
00000000
00010000
00000000
,  // measure 49
00000000
01000000
10000000
00010000
,  // measure 50
01000000
00000000
00010000
00000000
,  // measure 51
00100000
00000000
00001000
00000000
,  // measure 52
00010000
00000000
00000100
00000000
,  // measure 53
00001000
00000000
00000010
00000000
,  // measure 54
00000001
00000000
00000000
00000000
;
