#TITLE:ナスカの丘;
#SUBTITLE:;
#ARTIST:劇団レコード feat. Sana;
#TITLETRANSLIT:Nazca no Oka;
#SUBTITLETRANSLIT:;
#ARTISTTRANSLIT:Tomoaki Hirono feat. Sana;
#GENRE:;
#CREDIT:;
#MENUCOLOR:;
#METERTYPE:DDR;
#BANNER:Nazca no Oka-bn.png;
#BACKGROUND:Nazca no Oka-bg.png;
#LYRICSPATH:;
#CDTITLE:TUNE STREET-cdtitle.png;
#MUSIC:Nazca no Oka.mp3;
#OFFSET:-1.360;
#SAMPLESTART:89.620;
#SAMPLELENGTH:11.700;
#SELECTABLE:YES;
#LISTSORT:;
#BPMS:0.000=85.000,12.000=63.000,14.000=124.000;
#STOPS:;
#BGCHANGES:;
#ATTACKS:;

//---------------dance-single - ----------------
#NOTES:
     dance-single:
     :
     Hard:
     6:
     0.380,0.344,0.152,0.076,0.034:
0000
0000
0000
0000
,
0000
0000
0000
0000
0000
0000
1000
0010
,
0100
0000
0001
0000
1000
0000
0001
0010
,
0200
0000
0000
0000
0000
0300
1000
0100
,
1001
0011
1001
1000
,
0010
0000
0100
0001
0100
0000
1000
0100
,
0001
0000
0100
0000
0010
0000
1000
0100
,
0020
0000
0001
0001
0031
0000
0010
0100
,
1000
0000
0001
0000
0001
0000
1000
0001
,
0010
0000
0100
0000
1001
0000
1000
0100
,
0010
0000
0100
0000
0010
0001
0100
0001
,
1000
0001
0000
0000
0000
0000
1000
0001
0000
0000
0000
0000
1000
0001
0000
0000
,
0100
0010
1000
0001
,
0010
0000
0100
0010
0001
0000
1000
0000
,
0100
0001
0100
0100
,
0020
0000
0130
0010
1000
0000
0010
0001
,
1000
0000
0001
0000
0100
0010
0100
0000
,
0001
0000
0010
0001
0010
0000
0100
1000
,
0100
0000
1000
0000
0010
1000
0100
0010
,
0001
0000
0000
0010
0000
0000
0100
0000
1001
0000
1001
0000
0000
0000
0000
0000
,
1000
0000
0001
0000
0100
0001
1000
0000
,
0100
0000
0010
0001
0100
0000
0001
0000
,
1000
0000
0001
0000
0001
0010
0100
0010
,
0100
0000
1000
0001
0100
0000
0010
0000
,
0110
0000
1000
0000
0001
0100
0010
0000
,
0100
0000
0001
1000
0001
0000
1000
0100
,
1000
0000
0001
0000
1000
0001
0010
0100
,
1000
0100
1000
0100
0020
0000
0031
0000
,
0102
0000
0000
0000
1003
0010
0100
0001
,
2000
0100
3010
1001
,
0210
0000
0010
0000
0301
1000
0100
1000
,
0001
0000
0010
0000
0001
0100
0001
0000
,
1100
0000
0001
0010
0100
0000
1000
0000
,
0001
0000
0100
0000
0010
0100
1000
0100
,
0010
0000
0100
0001
1000
0000
0010
0000
,
1000
0000
0100
0000
0010
0000
0001
0000
0100
0000
0000
0001
0000
0000
1000
0000
,
1001
0000
0010
0100
0100
0000
0001
0000
,
1000
0000
1000
0001
0001
0000
0100
0000
,
0001
0000
0100
0010
0010
0000
1000
0000
,
0001
0000
0001
1000
1000
0000
0001
0000
,
0100
0000
0010
0100
0020
0000
1030
0000
,
1100
0000
0100
0010
0101
0000
0001
0000
,
1000
0000
0000
0000
0001
0000
0000
0000
0010
0000
0000
1000
0000
0000
0001
0000
,
0100
0000
1000
0000
1001
1001
0010
0100
,
1000
0001
0100
0010
,
0100
0000
0001
0010
0100
0000
0100
0010
,
0001
0000
1000
0000
0010
0100
0001
1000
,
0100
0000
0100
1000
0001
0000
1100
0000
,
1001
0000
0010
0000
0100
0010
0100
0001
,
0100
0000
0010
1000
0001
0000
1000
0100
,
0010
0000
0100
0000
0010
0001
0100
0001
,
1000
0001
0010
0100
1000
0000
0001
0100
,
0002
0023
0130
1000
,
0001
0000
1000
0100
1000
0000
0001
0000
0100
0000
0000
0000
0010
0000
0100
0000
,
0001
0000
0000
0000
0000
0000
1000
0001
1000
0000
0010
0000
0100
0000
0001
0000
,
0010
0000
0100
0010
0100
0000
1000
0100
,
0010
0000
0001
0000
0100
0001
1000
0010
,
0001
0000
0010
0100
0010
0000
1000
0001
,
1000
0000
0000
0000
0000
0000
0100
0010
0100
0000
0010
0000
0001
0000
1000
0000
,
0001
1000
0001
0100
,
0001
1100
1001
0000
0000
0000
0000
0000
;

//---------------dance-single - ----------------
#NOTES:
     dance-single:
     :
     Challenge:
     8:
     0.566,0.597,0.434,0.213,0.202:
0000
0000
0000
0000
,
0000
0000
0000
0000
0000
0000
0001
0010
,
0100
0000
1000
0000
0002
0000
1003
0100
,
0020
0000
0000
0000
0000
0030
0100
1100
,
1001
0110
0100
0011
,
1000
0000
0010
1000
0001
0000
0001
0000
0020
0000
0000
0000
0130
0000
0010
0000
,
0001
0000
0000
0000
1001
0000
0001
1000
0001
0000
1000
0000
1000
0000
0010
0000
,
0200
0000
0310
0100
1000
0000
1100
0100
,
0001
0000
0010
0000
0001
0010
1000
0001
,
0100
0000
0010
0001
1000
0000
1000
0000
0200
0000
0000
0000
1300
0000
0001
0000
,
0101
0000
0000
0000
1100
0000
0010
0100
0010
0000
0100
0000
0001
0000
0010
0000
,
0001
0010
0001
1000
0001
0100
0001
1000
0100
1000
0100
0010
0001
0010
0000
0000
,
0110
0000
0000
0000
1001
0000
0000
0000
1000
0000
0100
0010
0001
0000
0000
0000
,
0101
0000
1000
0010
0200
0000
0301
0010
,
0100
0010
0100
1000
0010
0001
0010
1000
,
0001
0000
0100
0000
0001
0000
1000
0000
0100
0000
1000
0001
1000
0000
0010
0000
,
0120
0000
1030
0000
0001
0010
0100
1000
,
0001
0000
1000
0100
1000
0000
0010
0000
0100
0000
0001
0000
0100
0000
0010
0000
,
1001
0000
0020
0000
0130
1000
0001
0100
,
0010
0000
0000
1010
0000
0000
0011
0000
1001
0000
1001
0000
0000
0000
0010
0100
,
0002
0000
0000
0000
1003
0000
0100
0000
1000
0000
0010
0100
0010
0000
1000
0000
,
0001
1000
1000
0100
1100
0000
0010
0100
,
0002
0000
0000
0000
0013
0000
0100
0000
1000
0000
0001
0100
0010
0000
1000
0000
,
0200
0000
0000
0000
0320
0000
0001
0000
0031
0000
1000
0000
1010
0000
0001
0100
,
0001
1000
0100
0000
1000
0010
0001
0010
,
1000
0000
0100
0010
0001
0000
0100
0000
0010
0000
1000
0000
0100
0000
0100
0000
,
1001
0000
0010
0001
0100
0010
0100
0001
,
1000
0010
0001
0010
0100
0010
1000
0001
,
0020
0000
0100
0000
0130
0000
0010
0100
2000
0000
0000
0000
3010
0000
0001
0000
,
1001
0100
0000
0020
0100
0130
0001
1000
,
1100
0000
0000
0001
0000
0000
0010
0001
0100
0000
0010
0000
0000
0000
1000
0000
,
1001
0000
0010
0000
0000
0000
0100
0001
1000
0000
0100
0000
1000
0100
0010
0001
,
0100
0000
0000
1001
0000
0000
0100
0000
0100
0000
0000
0000
1000
0000
0001
0000
,
0011
0000
0101
0000
0000
0000
1000
0100
1000
0000
0001
0000
0100
0000
0010
0000
,
0200
0000
0000
0320
0000
0000
1030
0100
1000
0000
0001
0000
0000
0000
0100
0000
,
0101
0000
1100
0000
0000
0000
0010
0000
0110
0000
0000
0100
0000
0000
0011
0000
,
1001
0100
0000
0010
0110
1001
0000
1000
,
1100
0000
1001
0000
0000
0000
0010
0000
0101
0000
1001
0000
0000
0000
1000
0001
,
0100
0000
0020
0000
0100
0000
0130
0001
1000
0000
0200
0000
1000
0000
0310
0100
,
1000
0000
2000
0000
0001
0000
3001
0100
0010
0000
0200
0000
0010
0000
0301
0000
,
1000
0000
0000
1000
0100
0000
0010
0000
0100
0000
0000
0010
0001
0000
0100
0000
,
0001
0000
0000
0010
0100
0000
1000
0000
0100
0000
0000
1000
0001
0000
0100
0000
,
1000
0000
0000
0100
0010
0000
1000
0000
0001
0000
0000
0010
0001
0000
0100
0000
,
0002
0000
0100
0103
0101
1001
0010
0010
,
1100
0000
1001
0000
1000
0001
0002
0000
,
0013
0000
0100
0010
0001
0000
0010
0000
0001
0000
1000
0000
1000
0000
0001
0000
,
0010
0000
0000
0000
1001
0000
1000
0001
1000
0000
0010
0000
1000
0000
0001
0000
,
0200
0010
0301
0100
0001
0010
1000
0010
,
1100
0000
0110
0000
0011
0010
0100
1000
,
0001
0000
0100
0010
1000
0000
0001
0000
0010
0000
0001
0000
0001
0000
0010
0000
,
0100
0000
0110
0000
0010
0100
1000
0001
,
0010
0000
1000
0000
0010
0000
0001
0000
1000
0000
0000
0001
0100
0000
0010
0000
,
2000
0000
3200
0000
1300
0001
1001
1000
,
0100
0000
1000
0001
0100
0000
0001
0000
1100
0000
0000
0000
1000
0000
0001
0000
,
0101
0000
0000
0000
0010
0000
0100
0001
0100
0000
0010
0000
0100
0000
0001
0000
,
1001
0000
0010
1000
1100
0000
1000
0010
,
0200
0000
0302
0000
0013
0001
0010
0100
,
0010
0000
1000
0010
0001
0000
0100
0000
1001
0000
0000
0000
0010
0000
0100
0000
,
0110
0000
0000
0000
1000
0000
0001
0010
0001
0000
0100
0000
0010
0000
1000
0000
,
0001
0000
1001
0000
1000
0001
0000
0100
0001
0000
1001
0000
0010
0100
0000
0100
,
1000
1100
0011
0000
0000
0000
0000
0000
;

//---------------dance-single - ----------------
#NOTES:
     dance-single:
     :
     Beginner:
     2:
     0.090,0.142,0.015,0.107,0.000:
0000
0000
0000
0000
,
0000
0000
0000
0000
,
0000
0000
0000
0000
,
0000
0000
0000
0000
,
1001
0000
0000
0000
,
0010
0000
0010
0000
,
0100
0000
0000
0000
,
0001
0000
1000
0000
,
0100
0000
0000
0000
,
1000
0000
0001
0000
,
0001
0000
0100
0000
,
0020
0000
0030
0000
,
0110
0000
0000
0000
,
0100
0000
0000
0000
,
0001
0000
0000
0000
,
1000
0000
1000
0000
,
0010
0000
0000
0000
,
0100
0000
0000
0000
,
0001
0000
0000
0000
,
0010
0000
0000
0000
,
0001
0000
0000
0000
,
0100
0000
1000
0000
,
0100
0000
0000
0000
,
0001
0000
0000
0000
,
1000
0000
0010
0000
,
1000
0000
0000
0000
,
0001
0000
0000
0000
,
0200
0000
0300
0000
,
0002
0000
0000
0000
,
0000
0000
0003
0000
,
0200
0000
0000
0000
,
0000
0000
0300
0000
,
0020
0000
0000
0000
,
0000
0000
0030
0000
,
2000
0000
0000
0000
,
0000
0000
3000
0000
,
0010
0000
0010
0000
,
0010
0000
0000
0000
,
1000
0000
1000
0000
,
1000
0000
0000
0000
,
0100
0000
0000
0000
,
0010
0000
0000
0000
,
0001
0000
0000
0000
,
0200
0000
0300
0000
,
0010
0000
0100
0000
,
0010
0000
0000
0000
,
1000
0000
0000
0000
,
0001
0000
0000
0000
,
0010
0000
0001
0000
,
0010
0000
0000
0000
,
0001
0000
0000
0000
,
0100
0000
0000
0000
,
0020
0000
0030
0000
,
2000
0000
3000
0000
,
0001
0000
1000
0000
,
0002
0000
0003
0000
,
0200
0000
0300
0000
,
0002
0000
0003
0000
,
2000
0000
3000
0000
,
0010
0000
1000
0000
,
0010
0020
0000
0000
,
0000
0000
0000
0000
,
0030
0000
0000
0000
;

//---------------dance-single - ----------------
#NOTES:
     dance-single:
     :
     Medium:
     5:
     0.272,0.276,0.099,0.160,0.000:
0000
0000
0000
0000
,
0000
0000
0000
0000
,
2000
0000
0000
0000
0200
0000
3300
1000
,
0002
0000
0000
0000
0003
0000
0100
0001
,
0100
0001
1000
0010
,
1000
0000
0010
0100
0010
0000
1000
0000
,
0100
0000
1000
0001
,
0100
0000
0010
0010
0010
0000
0100
0000
,
0001
1000
0001
0010
,
0100
1000
0100
1000
,
0001
0000
0100
0010
,
0110
0000
0000
0110
0000
0000
1001
0000
,
2000
0010
3020
0000
,
0130
0001
1001
0000
,
0001
0010
0100
1000
,
0010
0001
0010
0100
,
0020
1000
2030
0000
,
3001
0000
1000
0000
0110
0000
0100
0001
,
0100
0010
1000
1000
,
0002
0000
0000
0000
0103
0100
0000
0010
,
0020
1000
0230
0000
,
0310
0100
0101
0000
,
0001
1000
0010
0100
,
1000
0100
0010
1000
,
2000
0001
3002
0000
,
0103
0000
0010
0000
0110
0000
1000
0100
,
1000
0000
0001
0000
0001
0100
0001
0000
,
0200
0000
0310
0100
,
1001
0000
0000
0000
1000
0000
0000
0001
,
0100
0100
0000
0000
0010
0000
1000
0000
,
0001
0000
1000
0000
0010
0000
0000
1000
,
0100
0100
0000
0000
0000
0000
1000
0000
,
1100
0000
0000
1000
0001
0000
0000
0010
,
0001
0010
0000
0000
0001
0000
0001
0000
,
0100
0000
0010
1000
,
0001
0000
0220
0300
,
1030
0000
0000
1000
0001
0000
0000
1000
,
0001
0000
0000
0001
1000
0000
0000
0001
,
1000
0000
0000
0100
0010
0000
0000
0100
,
0010
0000
0000
0010
0100
0000
0000
0010
,
0100
1000
0001
0000
,
0100
0001
1000
0001
,
0100
0000
0020
0000
,
1030
0000
0001
0000
1000
1000
0000
0000
,
0001
0010
0001
0100
,
0010
0100
0010
1000
,
0200
0000
1300
0001
,
0100
0000
0000
0001
0010
0000
0001
0000
,
1002
0000
0203
0010
,
0310
0000
1010
0000
,
0001
0000
1000
0100
,
1000
0000
1000
0000
0001
0000
0100
0001
,
1000
1000
0010
0010
,
0100
0000
0001
0000
0010
0000
0001
0100
,
0001
0000
1000
0100
,
1000
0010
0010
0000
,
1001
0000
0100
0000
0010
0100
0010
0000
,
1000
0000
0001
0010
0100
0000
1000
0000
,
0001
0000
1000
0001
,
0200
0310
2000
3001
,
0010
0010
0010
0000
0000
0000
0000
0000
;

//---------------dance-single - ----------------
#NOTES:
     dance-single:
     :
     Easy:
     3:
     0.185,0.207,0.061,0.145,0.000:
0000
0000
0000
0000
,
0000
0000
0000
0000
,
0000
0000
0000
0000
,
2002
0000
3003
0000
,
1001
0010
0100
0010
,
1000
0000
0001
0000
,
0100
0000
0010
1000
,
0001
0000
0001
0000
,
0010
0100
1000
0000
,
0002
0000
0103
0010
,
1000
0000
1000
0000
,
0200
0000
0000
0300
0000
0000
1000
0000
,
1100
0000
1000
0100
,
0010
0010
0001
0000
,
0100
0000
0010
0000
,
0100
0001
0010
0000
,
0100
1000
0100
0000
,
1000
0001
0100
0010
,
0100
0000
0010
0000
,
2000
0000
3001
0000
,
0100
0010
0100
0000
,
0001
0000
1000
0000
,
0010
0100
0001
0000
,
0010
0100
1000
0000
,
0001
0000
1000
0000
,
0010
1000
1000
0001
,
0100
0000
0001
0000
,
2002
0000
3003
0000
,
0020
0000
1000
0000
,
0100
0000
0000
0000
,
2030
0000
0010
0000
,
0100
0000
0000
0000
,
3002
0000
0203
0000
,
0320
0000
0230
0000
,
2300
0000
3200
0000
,
0302
0000
1003
0000
,
0100
0000
1000
0000
,
0001
0000
0100
0100
,
0010
0000
0100
0000
,
1000
0000
0100
0000
,
0001
0000
1000
0001
,
1000
0000
0010
0100
,
0020
0000
0000
0000
,
0130
0000
1001
0000
,
0001
0100
0001
0000
,
1000
0000
0010
1000
,
0100
0000
1000
0000
,
0010
0100
0010
0000
,
0100
0001
0010
0000
,
0100
0000
1000
0001
,
0100
0000
0010
0100
,
0020
0000
0030
1000
,
0001
0001
1000
0000
,
0001
0000
0010
0001
,
0100
0000
0010
0000
,
0100
0010
1000
0000
,
1001
0000
0100
0100
,
0001
0000
1000
0001
,
1000
0000
0010
0000
,
2000
0001
0001
3001
,
0110
1001
0000
0000
;

//---------------dance-double - ----------------
#NOTES:
     dance-double:
     :
     Hard:
     7:
     0.416,0.390,0.145,0.213,0.050: // measure 1
00000000
00000000
00000000
00000000
,  // measure 2
00000000
00000000
00000000
00000000
00000000
00000000
00001000
00010000
,  // measure 3
00002000
00000000
00100000
00000000
00023000
00000000
00030100
00010000
,  // measure 4
00002000
00000000
00000000
00000000
00003000
00000000
00100000
00010000
,  // measure 5
00110000
00000000
11000000
00000000
01100000
00000000
10000000
00100000
,  // measure 6
01000000
00000000
00010000
00100000
00010000
00000000
00100000
00001000
,  // measure 7
00010000
00000000
00000100
00000000
00001000
00000010
00000001
00000010
,  // measure 8
00001000
00000000
00001000
00000100
00000010
00000000
00000110
00000000
,  // measure 9
00000001
00000000
00000200
00000000
00000310
00000100
00000001
00000000
,  // measure 10
00002000
00000000
00003100
00010000
00001000
00000000
00010000
00001000
,  // measure 11
01000000
00000000
00010000
00000000
00100000
00001000
00010000
00100000
,  // measure 12
10000000
00100000
00000000
00000000
10000000
00000000
00010000
00100000
00000000
00000000
00010000
00000000
10000000
00100000
00000000
00000000
,  // measure 13
01000000
00000000
00010000
00000000
00100000
00001000
00010000
00000000
,  // measure 14
00000200
00000000
00002300
00000000
00023000
00000000
00031000
00000010
,  // measure 15
00000100
00000000
00000001
00000000
00000100
00000001
00001000
00000000
,  // measure 16
00000100
00000000
00001000
00000000
00000010
00001000
00000100
00001000
,  // measure 17
00010000
00000000
00001000
00000000
00000100
00010000
00000100
00000000
,  // measure 18
00010000
00000000
01000000
00000000
10000000
00000000
00100000
01000000
,  // measure 19
00010000
00000000
10000000
00000000
00100000
10000000
01000000
00010000
,  // measure 20
00001000
00000000
00000000
00000010
00000000
00000000
00000001
00000000
00000100
00000000
00000100
00000000
00000000
00000000
00000010
00001000
,  // measure 21
00000020
00000000
00000001
00000000
00000130
00000010
00001000
00000000
,  // measure 22
00000100
00000000
00010000
00000000
00000100
00000000
00001000
00000001
,  // measure 23
00001000
00000000
00100000
00000000
01000000
00100000
10000000
00010000
,  // measure 24
00200000
00000000
02300000
00000000
23000000
00010000
30010000
10000000
,  // measure 25
00100000
01000000
00010000
00110000
,  // measure 26
00011000
00010000
00000100
00001000
00000100
00000000
00010000
00000010
,  // measure 27
00001000
00000000
00000010
00000000
00001000
00000100
00000010
00000001
,  // measure 28
00000100
00001000
00010000
00100000
10000000
00000000
00010000
00000000
,  // measure 29
21000000
00000000
00000000
00010000
30020000
00000000
02030000
00000000
,  // measure 30
03002000
00010000
00100000
00013000
,  // measure 31
00001000
00000000
00000000
00000100
00000000
00000000
00000010
00000000
00000100
00000000
00000000
00000000
00000001
00000000
00000010
00000000
,  // measure 32
00000100
00000100
00000000
00000000
00010000
00000000
00000100
00001000
,  // measure 33
00000200
00000000
00010300
00001000
00200000
00000000
00320000
01000000
,  // measure 34
01030000
00010000
20000000
00000000
01000000
00000000
00010000
00000000
,  // measure 35
31000000
00000000
10000000
00100000
00000000
00010000
00000000
00001000
,  // measure 36
00010000
00000000
00000000
00000000
00000100
00000000
00000000
00000000
00010100
00000000
00000000
00001100
00000000
00000000
00001000
00000000
,  // measure 37
00000100
00001000
00000000
00000100
00001000
00000100
00000000
00010000
,  // measure 38
00001000
00010000
00000000
00001000
00010000
00001000
00000000
00100000
,  // measure 39
00010000
00100000
00000000
00010000
00100000
00010000
00000000
00100000
,  // measure 40
01000000
00100000
00000000
01000000
00100000
01000000
00200000
00000000
,  // measure 41
00310000
00000000
00100000
00010000
00001000
00000000
00010000
00001000
,  // measure 42
00000100
00000000
00000010
00000001
00000100
00000000
00000001
00000000
,  // measure 43
00002000
00000000
00000000
00000000
00000100
00000000
00000000
00000000
00013000
00000000
00000000
00100000
00000000
00000000
00010000
00000000
,  // measure 44
01000000
00000000
00100000
00000000
10010000
10010000
00000000
00000000
,  // measure 45
02000000
00000000
03020000
00000000
00130000
00001000
00001000
00000000
,  // measure 46
00010000
00000100
00001000
00000100
00002000
00000000
00003010
00000100
,  // measure 47
00000010
00000000
00001000
00000000
00000001
00000010
00000100
00001000
,  // measure 48
00000200
00000000
00010300
00001000
00200000
00000000
00310000
01000000
,  // measure 49
00010000
00000000
10000000
00000000
00100000
01000000
00010000
00100000
,  // measure 50
00002000
00000000
00013000
00001000
00100000
00000000
00001000
00010000
,  // measure 51
00000010
00000000
00000100
00000000
00000001
00000010
00001000
00000010
,  // measure 52
00000001
00000100
00000010
00001000
00000010
00000000
00000100
00000010
,  // measure 53
00000110
00000000
00010100
00000000
00101000
00100000
00010000
00000000
,  // measure 54
01000000
00000000
00100000
01000000
00010000
00000000
10000000
01000000
,  // measure 55
00100000
00000000
00010000
01000000
00001000
00010000
00001000
00000100
,  // measure 56
00000010
00000000
00001000
00000010
00000100
00000000
00000001
00000100
,  // measure 57
00000101
00000000
00001100
00000000
00011000
00010000
01000000
10000000
,  // measure 58
01000000
00000000
00000000
00000000
10000000
00000000
00010000
00000000
01000000
00000000
00000000
00000000
00001000
00000000
00010000
00001000
,  // measure 59
00010000
00000000
00000100
00000000
00001000
00000010
00001000
00000001
,  // measure 60
00000100
00000000
00000010
00000000
00001000
00000100
00000000
00000100
00001000
00000000
00000001
00000000
00000010
00000001
00000000
00000001
,  // measure 61
00001000
00000101
00001010
00000000
00000000
00000000
00000000
00000000
;

//---------------dance-double - ----------------
#NOTES:
     dance-double:
     :
     Medium:
     5:
     0.322,0.367,0.038,0.343,0.008:
00000000
00000000
00000000
00000000
,
00000000
00000000
00000000
00000000
00000000
00000000
00000001
00000010
,
00000001
00000000
00000100
00000000
00000001
00000000
00001000
00000100
,
00020000
00000000
00000000
00000000
00030000
00000000
00001000
00010000
,
00001000
00100000
00010000
01000000
,
00100000
00000000
00010000
00001000
00010000
00000000
00001000
00100000
,
00001000
00010000
00000010
00000100
,
00000001
00000000
00000010
00000100
00001000
00000000
00000001
00000100
,
00000001
00001000
00000010
00001000
,
00000100
00000000
00001000
00000010
00001000
00000000
00000100
00000000
,
00020000
00000000
00001000
00000000
01030000
00000000
10000000
00010000
,
00200000
00000000
00000000
00302000
00000000
00000000
00023000
00000000
,
00030100
00010000
00000010
00000100
,
00000010
00000001
00000010
00000000
,
00000100
00000010
00001000
00000010
,
00001000
00000000
00000100
00000000
00010000
00000100
00010000
00000000
,
00001000
00100000
00001000
00010000
,
00100000
00000000
01000000
00000000
00100000
00000000
10000000
01000000
,
00100000
00000000
00000000
00000000
01000000
00100000
00010000
00000000
,
00100000
00000000
00000000
00001000
00000000
00000000
00010000
00000000
00001000
00000000
00010000
00000000
00000000
00000000
00000100
00000000
,
00001000
00010000
00001000
00000010
,
00000001
00000100
00001000
00000000
,
00010000
00100000
10000000
00010000
,
00100000
00000000
00001000
00000000
00100000
00010000
00100000
01000000
,
10000000
00010000
00100000
00001000
,
00100000
00000000
00001000
00010000
00001000
00000000
00010000
00000100
,
00010000
00000010
00001000
00000010
,
00000100
00000010
00000100
00000010
00001000
00000000
00000001
00000000
,
00002000
00000000
00003200
00010000
,
00020300
00000000
00032000
00203000
,
02300000
00000000
23000000
30020000
,
00230000
00000000
00000000
00000000
00301000
00000000
00010000
00001000
,
00000200
00000000
00000320
00002030
,
00003200
00000000
00000320
00000230
,
00020300
00000000
00030200
00000000
,
00002300
00000000
00000000
00000000
00000000
00000000
00000000
00000000
00103000
00000000
00000000
01000000
00000000
00000000
00100000
00000000
,
01000000
00000000
00000000
00010000
00100000
00000000
00000000
01000000
,
10000000
00000000
00000000
00010000
01000000
00000000
00000000
00001000
,
00010000
00000000
00000000
00000100
00000010
00000000
00000000
00000001
,
00000100
00000000
00000000
00000010
00001000
00000000
00000000
00010000
,
00001000
00010000
00010000
00001000
,
00100000
00010000
00001000
00010000
,
00100000
00000000
00010000
00100000
,
00022000
00000000
00033000
00000000
00001000
00010000
00000000
00000000
,
00000100
00000100
00001000
00001000
,
00000010
00000000
00000100
00000001
00000100
00000000
00000001
00000000
,
00001000
00000000
00000100
00000100
,
00010000
00000000
00000100
00001000
00000100
00000000
00010000
00000000
,
00001000
00100000
00010000
01000000
,
00100000
00000000
01000000
00010000
01000000
00000000
00100000
00000000
,
10000000
00000000
01000000
00100000
,
00010000
00000000
00100000
00001000
00010000
00000000
00011000
00000000
,
00000200
00002300
00003020
00000230
,
00000302
00000000
00000013
00000001
00000010
00000000
00000002
00000000
,
00002003
00003100
00020000
00032000
,
00203000
00000000
00301000
00010000
00001000
00000000
00200000
00000000
,
02300000
23000000
30020000
00230000
,
00302000
00000000
00013000
00000100
00001000
00000000
00000200
00000000
,
00002300
00013000
00200000
00320000
,
10030000
10010000
00010000
01010000
,
10000000
01000000
11000000
00000000
00000000
00000000
00000000
00000000
;

//---------------dance-double - ----------------
#NOTES:
     dance-double:
     :
     Easy:
     3:
     0.210,0.207,0.053,0.145,0.000:
00000000
00000000
00000000
00000000
,
00000000
00000000
00000000
00000000
,
10000000
00000000
00010000
00100000
,
00220000
00000000
00330000
01000000
,
00010000
00000000
00100000
00001000
,
00010000
00000000
00010000
00001000
,
00001000
00000000
00010000
00000100
,
00001000
00001000
00000001
00000000
,
00001000
00000001
00000001
00000000
,
00000010
00000100
00001000
00000010
,
00000100
00000000
00000010
00001000
,
00000200
00000000
00000000
00001300
,
00001100
00000000
00010000
00001000
,
00100000
00000000
01000000
00000000
,
10000000
00100000
00010000
00000000
,
00100000
00000000
01000000
00010000
,
00100000
00001000
00001000
00000000
,
00010000
00001000
00000100
00000010
,
00001000
00000000
00000100
00010000
,
00002000
00100000
00103000
00001000
,
00010000
00000000
01000000
10000000
,
00010000
00100000
00001000
00000000
,
00010000
00000100
00001000
00000100
,
00000010
00000000
00000001
00001000
,
00000100
00000100
00000010
00000000
,
00000100
00001000
00000100
00010000
,
00010000
00000000
00001000
00100000
,
01000000
10000000
00010000
00000000
,
02100000
00000000
03020000
00000000
,
00100000
00000000
00100000
00000000
,
00230000
00000000
00001000
00000000
,
00010000
00000000
00302000
00000000
,
00003200
00000000
00000010
00000000
,
00000001
00000000
00000302
00000000
,
00000023
00000000
00000100
00000000
,
00000001
00000000
00000230
00000000
,
00000310
00000000
00000010
00000000
,
00000001
00000000
00001000
00000100
,
00001000
00000000
00000010
00000000
,
00001000
00000000
00000100
00010000
,
00001000
00000000
00100000
00010000
,
00100000
00000000
00001000
00010000
,
00002000
00000000
00010000
00000000
,
00103000
00001000
00011000
00000000
,
00100000
01000000
10000000
00000000
,
00010000
00100000
00010000
00000000
,
01000000
00000000
00010000
00100000
,
00001000
00010000
00001000
00000000
,
00100000
00010000
00001000
00000010
,
00000001
00000010
00000100
00000000
,
00000110
00000000
00001001
00000000
,
00000100
00001000
00000100
00001000
,
00000020
00001000
00001030
00000000
,
00020000
00001000
00031000
00000000
,
00002000
00000000
00100000
00000000
,
00203000
00010000
00310000
00000000
,
10000000
00100000
10000000
00000000
,
00010000
00100000
01000000
00100000
,
00020000
00000000
00230000
00001000
,
00301000
00000000
00010000
00000000
,
00001000
00101000
00000000
00000000
;

//---------------dance-double - ----------------
#NOTES:
     dance-double:
     :
     Challenge:
     8:
     0.525,0.528,0.305,0.290,0.088:
00000000
00000000
00000000
00000000
,
00000000
00000000
00000000
00000000
00000000
00000000
00020000
00100000
,
00230000
00000000
01000000
00000000
00302000
00000000
00103000
00001000
,
00022000
00000000
00000000
00000000
00033000
00000000
00011000
00000100
,
00002000
00000000
00003020
00000000
00000130
00000001
00000100
00000010
,
00000100
00000000
00000010
00001000
00000010
00000000
00010000
00000000
00000100
00000000
00000000
00000000
00010000
00000000
00001000
00000000
,
01000000
00000000
00010000
00000000
10000000
01000000
00010000
00001000
,
00000010
00000000
00000011
00000001
00000200
00000000
00000310
00001000
,
00000101
00000000
00001010
00000000
00001000
00000100
00010000
00000100
,
00010000
00000000
00001000
00100000
00001000
00000000
01000000
00000000
00100000
00000000
00000000
00000000
10000000
00000000
01000000
00000000
,
00200000
00000000
00000000
00000000
01300000
00000000
00100000
00010000
00100000
00000000
00001000
00000000
00100000
00000000
00010000
00000000
,
01000000
00010000
00100000
00010000
00100000
00000000
00001000
00010000
00001000
00010000
00000100
00000000
00001000
00000002
00000000
00000000
,
00000103
00000010
00000100
00000001
00000010
00000001
00001000
00000100
,
00020000
00001000
00032000
00000000
00003200
00000000
00000310
00001000
,
00000100
00010000
01000000
10000000
00100000
01000000
00010000
00100000
,
02000000
00000000
03200000
00000000
00302000
00010000
00013000
00000000
,
00001100
00000000
00010100
00000000
00001010
00001000
00000100
00000000
,
00001000
00000000
00000001
00000010
00000001
00000000
00000100
00000000
00000001
00000000
00001000
00000000
00000100
00000000
00000100
00000000
,
00002000
00000000
00023000
00000000
00130000
00100000
00010000
01000000
,
00100000
00000000
00000000
10100000
00000000
00000000
10000000
00000000
10010000
00000000
00110000
00000000
00001000
00000000
00010000
00000010
,
00000100
00000100
00000010
00000010
00001000
00001000
00000001
00000001
,
00001000
00001000
00000100
00000100
00020000
00000000
00031000
00100000
,
00001000
00001000
00010000
00010000
01000000
01000000
00100000
00100000
,
00020000
00000000
02030000
00000000
03100000
10000000
00100000
10000000
,
01000000
01000000
00100000
00100000
00001000
00001000
00010000
00010000
,
00000010
00000010
00001000
00001000
00010000
00010000
00001000
00001000
,
00000200
00000000
00001300
00000000
00000001
00000010
00000100
00001000
,
00000010
00000100
00010000
00000100
00000020
00000000
00001030
00000000
,
00001100
00000000
00000000
00000000
00010000
00000000
00000010
00001000
00000010
00000000
00000000
00000000
00010000
00000000
00001000
00000000
,
00101000
00101000
00200000
00000000
00320000
00000000
02030000
00000000
,
03001000
00010000
00000100
00000100
00001000
00000010
00010000
00001000
,
00011000
00010100
00000100
00000000
00010000
00001000
00000100
00001000
,
00020000
00000000
01030000
00100000
00010000
00000000
01000000
00010000
,
10100000
01010000
00010000
00001000
00000010
00000000
00000100
00000000
,
00000001
00000010
00001000
00000010
00000001
00000100
00001000
00010000
,
01000000
00000000
00000000
00000000
00100000
00000000
00000000
00000000
00001000
00000000
00000000
00011000
00000000
00000000
00010000
00000000
,
00001000
00101000
00000000
00010000
00100000
00110000
00000000
01000000
,
00001000
00101000
00000000
00010000
00000100
00001100
00000000
00000001
,
00000100
00000101
00000000
00001000
00000001
00001001
00000000
00000100
,
00010000
00010100
00000000
00100000
00001000
00101000
00000000
01000000
,
00020000
00000000
00230000
00000000
00302000
01000000
01003000
00000000
,
00010000
00100000
01000000
10000000
01000000
00100000
00010000
00000000
,
01010000
00000000
00000000
00000000
10100000
00000000
00000000
00000000
10000000
00000000
00000000
00100000
00000000
00000000
01000000
00000000
,
00010000
00100000
00001000
00010000
00011000
00011000
00000000
00000000
,
00010010
00000000
00010000
00000000
00000100
00001000
00001000
00000001
,
00000100
00000000
00000010
00001000
00000010
00000000
00000100
00000000
00001000
00000000
00000000
00000000
00000100
00000000
00000010
00000000
,
00010000
00000100
00001000
00010000
01000000
00010000
00100000
00001000
,
00001000
00100000
00010000
00001000
00020000
00000000
10030000
00010000
,
00110000
00000000
00011000
00000000
00001000
00000100
00000010
00001000
,
00000002
00000000
00001003
00000100
00010000
00000000
00000100
00001000
,
00000200
00000000
00001300
00000000
00000010
00001000
00000001
00000010
,
00001000
00000010
00000100
00010000
00001000
00000000
00110000
01000000
,
00020000
00100000
00230000
00001000
00301000
00010000
00000100
00010000
,
00001000
00000000
00100000
00010000
00100000
00000000
01000000
00000000
20000000
00000000
00000000
00000000
30100000
00000000
00010000
00000000
,
00001000
00000000
00100000
00000000
00001000
00000000
00010000
00000010
00010000
00000000
00000100
00000000
00001000
00000000
00000001
00000000
,
00000011
00000000
00000100
00001000
00001100
00000000
00010000
00000100
,
00002000
00000010
00003020
00001000
00000130
00000001
00001000
00000010
,
00010000
00000000
00000100
00001000
00000100
00000000
00010000
00000000
00001000
00000000
00000000
00000000
00100000
00000000
00001000
00000000
,
00010000
00000000
00100000
00000000
10000000
00000000
01000000
00010000
01000000
00000000
10000000
00000000
00100000
00000000
01000000
00000000
,
01010000
00000000
10000000
00000000
00010000
00100000
00000000
00001000
00010000
00000000
00000100
00000000
00100000
00001000
00000000
00001000
,
00010000
00001100
00011000
00000000
00000000
00000000
00000000
00000000
;
