#TITLE:なまいきプリンセス;
#SUBTITLE:;
#ARTIST:Dormir;
#TITLETRANSLIT:Namaiki Princess;
#SUBTITLETRANSLIT:;
#ARTISTTRANSLIT:;
#GENRE:;
#CREDIT:;
#MENUCOLOR:;
#METERTYPE:DDR;
#BANNER:Namaiki Princess-bn.png;
#BACKGROUND:Namaiki Princess-bg.png;
#LYRICSPATH:;
#CDTITLE:TUNE STREET-cdtitle.png;
#MUSIC:Namaiki Princess.mp3;
#OFFSET:-0.580;
#SAMPLESTART:38.960;
#SAMPLELENGTH:11.380;
#SELECTABLE:YES;
#LISTSORT:;
#BPMS:0.000=125.000;
#STOPS:;
#BGCHANGES:;
#ATTACKS:;

//---------------dance-single - ----------------
#NOTES:
     dance-single:
     :
     Hard:
     9:
     0.632,0.658,0.503,0.079,0.444:
0000
0000
0000
0000
,
0000
0000
0000
0000
,
1000
0000
0000
0010
0000
0000
0001
0000
0000
0010
0000
0000
1000
0000
0000
1000
0000
0100
0000
0000
0000
0000
0000
0000
,
1000
0000
0000
0100
0000
0000
1000
0000
0000
0100
0000
0000
0010
0000
0000
0001
0000
1000
0000
0000
0000
0001
0000
0000
,
0100
0000
0000
0010
0000
0000
1000
0000
0000
0010
0000
0000
0100
0000
0000
0010
0000
1000
0000
0000
0000
0001
0000
0000
,
1000
0000
0000
0010
0000
0000
0100
0000
0000
1000
0000
0000
1000
0000
0000
0100
0000
0010
0000
0000
0000
0000
0000
0000
,
0011
0000
0000
1000
0000
0000
0001
0000
0000
0010
0000
0000
0001
0000
0000
1000
0000
0001
0000
0000
0000
1000
0000
0000
,
1001
0000
0000
0010
0000
0000
0100
0000
0000
0010
0000
0000
1000
0000
0000
1000
0000
0001
0000
0000
0000
0100
0000
0000
,
1010
0000
0000
0001
0000
0000
0100
0000
0000
0010
0000
0000
0100
0000
0000
0001
0000
0010
0000
0000
0000
0100
0000
0000
,
1000
0000
0000
0100
0000
0000
1000
0000
0000
0100
0000
0000
0001
0000
0000
0100
0000
1000
0000
0000
0000
0001
0000
0000
,
0010
0001
0100
0010
1000
0001
0010
0100
,
0010
0000
0000
0001
0000
0000
1000
0000
0000
0100
0000
0000
0001
0000
0000
0100
0000
0000
1000
0000
1000
0010
0000
0000
,
0100
0001
0100
1000
0100
0001
0100
1000
,
0100
0000
0000
0001
0000
0000
0010
0000
0000
1000
0000
0000
0010
0000
0000
0001
0000
0100
0000
0000
0001
1000
0000
0000
,
0100
1000
0100
0010
0100
1000
0100
0010
,
0001
0000
0000
0100
0000
0000
0001
0000
0000
0010
0000
0000
0001
0000
0000
1000
0000
0000
0010
0000
0010
0100
0000
0000
,
0001
0100
0010
1000
0001
0010
0100
1000
,
0010
0000
0000
1000
0000
0000
0010
0000
0000
0001
0000
0000
0010
0000
0100
0000
0000
0001
0000
0000
0100
0010
0000
0000
,
1001
0000
0000
0001
0000
0000
0100
0000
0010
1000
0000
1000
0100
0000
0000
0010
0000
0001
0000
0000
0001
0100
0000
0000
,
1001
0000
0000
0010
0000
0000
0100
0000
0001
0100
0000
0010
1000
0000
0001
0000
0000
0220
0000
0000
0000
0330
0000
0000
,
1001
0000
0000
1000
0000
0000
1100
0000
0000
0001
0000
0000
0101
0000
0000
0001
0000
1000
0000
0000
1000
0100
0000
0000
,
1100
0000
0000
0001
0000
0000
0011
0000
0000
0010
0000
0000
1010
0000
0000
1000
0000
0010
0000
0000
0010
0100
0000
0000
,
1100
0001
0100
0010
1000
0100
0010
0001
,
0010
0000
0000
1000
0000
0000
0010
0000
0000
0100
0000
0000
1000
0000
0001
0000
0000
0100
0000
0000
0010
1000
0000
0000
,
1001
0000
0000
0100
0000
0000
0101
0000
0000
0010
0000
0000
0110
0000
0000
0100
0000
0010
0000
0000
1000
0001
0000
0000
,
1100
0000
0000
0001
0000
0000
0011
0000
0000
1000
0000
0000
1001
0000
0000
0001
0000
0100
0000
0000
0100
0010
0000
0000
,
0100
0001
0010
1000
0010
0100
0010
0001
,
1000
0000
0000
0010
0000
0000
0100
0000
0000
1000
0000
0000
0100
0000
0010
0000
0000
1000
0000
0000
0001
0010
0000
0000
,
0011
0000
0001
0000
0000
0000
0100
0000
0000
0010
0000
0000
1000
0000
0100
0000
0000
1000
0000
0000
0000
0010
0000
0000
,
0100
0000
0010
0000
0000
0000
0001
0000
0000
0010
0000
0000
0100
0000
0001
0000
0000
1000
0000
0000
0000
0010
0000
0000
,
0100
0000
0100
0000
0000
0000
0010
0000
0000
1000
0000
0000
0100
0000
1000
0000
0000
0001
0000
0000
0000
0010
0000
0000
,
0001
0100
0000
0001
0010
0000
0100
1000
0000
0010
1000
0000
,
1001
0000
1000
0000
0000
0000
0010
0000
0000
0100
0000
0000
0001
0000
0010
0000
0000
0001
0000
0000
0000
1000
0000
0000
,
1000
0000
0010
0000
0000
0000
0100
0000
0000
0001
0000
0000
0010
0000
0100
0000
0000
0010
0000
0000
0000
0100
0000
0000
,
1000
0000
0001
0000
0000
0000
0100
0000
0000
0100
0000
0000
0001
0000
0010
0000
0000
0001
0000
0000
0000
1000
0000
0000
,
0010
0100
0000
0001
1000
0000
0010
0100
0000
0001
1000
0000
,
0001
0000
0000
1001
0000
0000
0100
0000
0000
0101
0000
0000
1000
0000
0000
1000
0000
0010
0000
0000
0100
0001
0000
0000
,
0001
0000
0000
0011
0000
0000
0100
0000
0000
1100
0000
0000
1000
0000
0000
0010
0000
0100
0000
0000
0100
0010
0000
0000
,
1000
0000
0000
1010
0000
0000
1000
0000
0000
0101
0000
0000
0010
0000
0000
0001
0000
1000
0000
0000
1000
0001
0000
0000
,
0110
0100
1010
0001
1001
0010
1001
0100
,
0010
0000
0000
1001
0000
0000
0100
0000
0000
1001
0000
0000
0001
0000
0000
1000
0000
0010
0000
0000
0010
1000
0000
0000
,
0001
0000
0000
0110
0000
0000
1000
0000
0000
0110
0000
0000
0001
0000
0000
0001
0000
0010
0000
0000
0100
1000
0000
0000
,
0010
0000
0000
1010
0000
0000
0001
0000
0000
0011
0000
0000
1000
0000
0000
0010
0000
0100
0000
0000
0001
1000
0000
0000
,
1100
1000
1010
0010
0011
0001
0101
0100
,
2100
0000
0000
0002
0000
3000
0200
0000
,
0003
0020
0000
0300
2030
0000
3002
0000
,
0013
0000
0000
0001
0000
0001
0010
0000
0000
0100
0000
0000
1000
0000
1000
0100
0000
0000
1000
0000
0000
0010
0000
0010
,
0100
0000
0000
0001
0000
0000
0100
0000
0100
0010
0000
0000
0100
0000
0000
0000
0000
0000
0020
0000
0000
0000
0000
0000
,
0200
0000
0000
0000
0000
0000
0000
0000
0330
0000
0000
0000
,
0000
0000
0000
0000
0000
0000
0000
0000
0000
0000
0000
0000
1000
0000
0100
0000
0000
1000
0000
0000
0001
0100
0000
0000
,
1001
0000
0000
0001
0000
0000
0101
0000
0000
1000
0000
0000
1100
0000
0000
1000
0000
0001
0000
0000
0100
0010
0000
0000
,
1100
0000
0000
0010
0000
0000
0110
0000
0000
0100
0000
0000
0101
0000
0000
0010
0000
0001
0000
0000
0001
0100
0000
0000
,
1010
0000
0000
0001
0000
0000
0101
0000
0000
1000
0000
0000
1100
0000
0000
0010
0000
1000
0000
0000
0001
0100
0000
0000
,
0010
0000
0000
1000
0000
0000
0001
0000
0000
0010
0000
0000
0001
0000
1000
0000
0000
0110
0000
0000
0010
0100
0000
0000
,
0011
0000
0000
1000
0000
0000
1010
0000
0000
0001
0000
0000
0011
0000
0000
0100
0000
0010
0000
0000
1000
0100
0000
0000
,
1100
0000
0000
0010
0000
0000
0110
0000
0000
0001
0000
0000
1001
0000
0000
0010
0000
0100
0000
0000
0100
1000
0000
0000
,
0101
0000
0000
0001
0000
0000
1001
0000
0000
1000
0000
0000
1010
0000
0000
0100
0000
0001
0000
0000
0001
0010
0000
0000
,
0100
0000
0000
1000
0000
0000
0001
0000
0000
0100
0000
0000
0010
0000
0100
0000
0000
1001
0000
0000
0010
0100
0000
0000
,
1001
0000
0001
0000
0000
0000
0100
0000
0000
0010
0000
0000
1000
0000
0100
0000
0000
0010
0000
0000
0000
1000
0000
0000
,
0010
0000
0001
0000
0000
0000
0100
0000
0000
0010
0000
0000
1000
0000
0001
0000
0000
0001
0000
0000
0000
0100
0000
0000
,
0010
0000
1000
0000
0000
0000
0010
0000
0000
0100
0000
0000
0001
0000
0010
0000
0000
0100
0000
0000
0000
1000
0000
0000
,
0010
0100
0000
0001
0010
0000
0100
1000
0000
0010
0100
0000
,
1001
0000
0000
0000
;

//---------------dance-single - ----------------
#NOTES:
     dance-single:
     :
     Medium:
     5:
     0.340,0.365,0.102,0.134,0.075:
0000
0000
0000
0000
,
0000
0000
0000
0000
,
1000
0000
0100
0000
1000
0010
0100
0000
,
0001
0000
0000
0010
0000
0000
0001
0000
0000
0000
0000
0000
0010
0000
0000
0000
0000
0001
0000
0000
0000
0000
0000
0000
,
1000
0000
0010
0000
0100
0010
1000
0000
,
0001
0000
0000
0010
0000
0000
0100
0000
0000
1000
0000
0000
0010
0000
0000
0000
0000
0010
0000
0000
0000
0000
0000
0000
,
0200
0000
0000
0000
0000
0000
0302
0000
0000
0000
0000
0000
0013
0000
0000
0000
0000
0001
0000
0000
0000
0000
0000
0000
,
1000
0000
0000
1000
0000
0000
0100
0000
0000
0100
0000
0000
0010
0000
0000
0000
0000
0100
0000
0000
0000
0000
0000
0000
,
2000
0000
0000
0000
0000
0000
3002
0000
0000
0000
0000
0000
0103
0000
0000
0000
0000
1000
0000
0000
0000
0000
0000
0000
,
0100
0000
0000
0100
0000
0000
0001
0000
0000
0001
0000
0000
1000
0000
0000
0000
0000
1001
0000
0000
0000
0000
0000
0000
,
0100
0010
1000
0001
,
0010
0001
0100
0010
0100
0000
0001
0000
,
1000
0001
0010
0100
,
0010
0100
1000
0001
0100
0000
0100
0000
,
0001
1000
0010
0100
,
0010
0100
0001
1000
0010
0000
1000
0000
,
0100
0010
0001
0100
,
0001
0010
0100
1000
0100
0000
0010
0000
,
0220
0000
0030
0000
,
2000
0000
0000
0000
0000
0000
3300
0000
0000
0000
0000
0000
0001
0000
0000
0000
0000
0100
0000
0000
0000
0000
0000
0000
,
0010
0000
0000
1000
0000
0000
0010
0000
0000
1000
0000
0000
0100
0000
0000
0000
0000
1000
0000
0000
0000
0000
0000
0000
,
0001
0000
0000
0010
0000
0000
0001
0000
0000
0010
0000
0000
0100
0000
0000
0000
0000
0010
0000
0000
0000
0000
0000
0000
,
0001
0100
1000
0100
,
0010
0000
0000
0000
0000
0000
1000
0000
0000
0000
0000
0000
0001
0000
0000
0000
0000
0001
0000
0000
0000
0000
0000
0000
,
0100
0000
0000
0010
0000
0000
0100
0000
0000
0010
0000
0000
1000
0000
0000
0000
0000
0001
0000
0000
0000
0000
0000
0000
,
0100
0000
0000
0001
0000
0000
0100
0000
0000
0001
0000
0000
0010
0000
0000
0000
0000
0100
0000
0000
0000
0000
0000
0000
,
1000
0100
0001
0100
,
1000
0000
0010
0000
0100
0001
1000
0000
,
0110
0000
0000
0000
1000
0000
0001
0001
,
0010
0000
0000
0000
0001
0000
0100
0100
,
0010
0000
1000
0001
,
0020
0032
0203
0310
,
1010
0000
0000
0000
1000
0000
0001
0001
,
0010
0000
0000
0000
0100
0000
1000
1000
,
0001
0000
0100
0010
,
0200
0320
2030
3001
,
0100
0010
0100
0001
0100
0000
0010
0000
,
1000
0010
1000
0100
0010
0000
0100
0000
,
0010
0001
1000
0100
0010
0000
0100
0000
,
1100
0101
1100
0101
,
0010
0001
1000
0001
0100
0000
0010
0000
,
1000
0010
0100
0001
1000
0000
1000
0000
,
0001
0100
0010
0100
0001
0000
0010
0000
,
0110
1001
0110
1001
,
0010
0000
0000
0001
0000
0000
0100
0000
,
0000
0010
0000
0000
1000
0000
1000
0000
,
0100
0000
0000
0010
0000
0000
0100
0000
,
0000
0001
0000
0000
0100
0000
1000
0000
,
0002
0000
0000
0000
0000
0003
0000
0000
,
0000
0000
0000
0000
0000
0000
0000
0000
0000
0000
0000
0000
0100
0000
0000
0000
0000
0010
0000
0000
0000
0000
0000
0000
,
1000
0000
0000
0010
0000
0000
1000
0000
0000
0010
0000
0000
0100
0000
0000
0000
0000
0001
0000
0000
0000
0000
0000
0000
,
0010
0000
0000
0001
0000
0000
0010
0000
0000
0001
0000
0000
1000
0000
0000
0000
0000
0100
0000
0000
0000
0000
0000
0000
,
1000
0010
0001
0100
,
1000
0000
0000
0000
0000
0000
0001
0000
0000
0000
0000
0000
0010
0000
0000
0000
0000
0001
0000
0000
0000
0000
0000
0000
,
0100
0000
0000
0010
0000
0000
0100
0000
0000
0010
0000
0000
1000
0000
0000
0000
0000
0001
0000
0000
0000
0000
0000
0000
,
0010
0000
0000
0100
0000
0000
0010
0000
0000
0100
0000
0000
0001
0000
0000
0000
0000
0100
0000
0000
0000
0000
0000
0000
,
1000
0100
0001
0010
,
1000
0000
0000
0000
0000
0000
0001
0000
0000
0000
0000
0000
0100
0000
0000
0000
0000
0100
0000
0000
0000
0010
0000
0000
,
0010
0000
0000
0000
1000
0000
0010
0010
,
0100
0000
0000
0000
0001
0000
0100
0100
,
0001
0000
0000
0000
1000
0000
0010
0010
,
2000
3002
0203
0310
,
0101
0000
0000
0000
;

//---------------dance-single - ----------------
#NOTES:
     dance-single:
     :
     Beginner:
     1:
     0.130,0.244,0.086,0.189,0.000:
0000
0000
0000
0000
,
0000
0000
0000
0000
,
1000
0000
0000
0000
,
0100
0000
0000
0000
,
0010
0000
0000
0000
,
0001
0000
0000
0000
,
0100
0000
0100
0000
,
0010
0000
0000
0000
,
1000
0000
0001
0000
,
0001
0000
0000
0000
,
0200
0000
0300
0000
,
0020
0000
0030
0000
,
2000
0000
3000
0000
,
0002
0000
0003
0000
,
0020
0000
0030
0000
,
0200
0000
0300
0000
,
2000
0000
3000
0000
,
0200
0000
0300
0000
,
1001
0000
0000
0000
,
1001
0000
0000
0000
,
0010
0010
0010
0000
,
0001
0001
0001
0000
,
1000
0000
0000
0000
,
0100
0000
0000
0000
,
1000
1000
1000
0000
,
0010
0010
0010
0000
,
0100
0000
0000
0000
,
0010
0000
0000
0000
,
0100
0000
0000
0000
,
0100
0000
0000
0000
,
0100
0000
0000
0000
,
0010
0000
0000
0000
,
0110
0000
0000
0000
,
0001
0000
0000
0000
,
0001
0000
0000
0000
,
1000
0000
0000
0000
,
0220
0000
0330
0000
,
0220
0000
0330
0000
,
2002
0000
3003
0000
,
2002
0000
3003
0000
,
0220
0000
0330
0000
,
2002
0000
3003
0000
,
0220
0000
0330
0000
,
2002
0000
3003
0000
,
0100
0000
0000
0000
,
0000
0000
0000
0000
,
0001
0000
0000
0000
,
0000
0000
1000
1000
,
1000
0000
0000
0000
,
0000
0000
0000
0000
,
0010
0010
0010
0000
,
0100
0100
0100
0000
,
0001
0000
0000
0000
,
0010
0000
0000
0000
,
0100
0100
0100
0000
,
1000
1000
1000
0000
,
0010
0000
0000
0000
,
0100
0000
0000
0000
,
0001
0000
0000
0000
,
0001
0000
0000
0000
,
1000
0000
0000
0000
,
0010
0010
0010
0010
,
0010
0000
0000
0000
;

//---------------dance-single - ----------------
#NOTES:
     dance-single:
     :
     Easy:
     3:
     0.247,0.438,0.165,0.283,0.000:
0000
0000
0000
0000
,
0000
0000
0000
0000
,
1000
0000
1000
0001
,
0100
0010
0100
0000
,
0001
0000
0001
1000
,
0010
1000
0001
0000
,
0200
0000
0310
0100
,
0002
0010
0103
0000
,
2000
0000
3010
1000
,
0020
1000
0130
0000
,
1001
0000
0110
0000
,
0001
0010
1000
0000
,
1001
0000
0110
0000
,
1000
0010
0001
0000
,
0100
0010
0100
0000
,
0001
0010
1000
0000
,
0010
0001
0010
0000
,
0001
0100
1000
0000
,
0110
0000
0001
1000
,
1001
0000
1000
0100
,
2000
0001
3001
0000
,
0020
0100
0130
0000
,
1000
0010
0100
0000
,
0010
0001
1000
1000
,
0002
0010
0013
0000
,
0200
0010
0310
0000
,
1000
0100
1000
0000
,
0010
0100
0001
0010
,
0100
0000
0000
1000
,
1000
0000
0000
0010
,
0010
0000
0000
0100
,
0200
0001
0001
0301
,
0101
0000
0000
0010
,
0010
0000
0000
0001
,
0001
0000
0000
1000
,
2000
0100
0100
3100
,
2200
3300
2020
3030
,
0202
0303
0022
0033
,
2002
3003
0220
0330
,
0202
0303
2020
3030
,
0001
0001
0011
0000
,
0100
0100
0110
0000
,
0010
0010
1010
0000
,
1000
1000
1001
0000
,
0020
0000
0000
0030
0000
0000
2000
0000
,
0000
3000
0000
0000
0001
0000
0001
0000
,
0200
0000
0000
0300
0000
0000
0020
0000
,
0000
0030
0000
0000
0100
0000
0010
0000
,
2000
0000
0000
0000
0000
3000
0000
0000
,
0000
0000
0010
0010
,
0200
0001
0310
0000
,
0020
1000
0130
0000
,
0100
0001
1000
0000
,
0010
1000
0001
0000
,
0020
0001
0130
0000
,
0200
0010
1300
0000
,
0001
0100
0001
0000
,
1000
0100
0010
0000
,
1001
0000
0000
0100
,
0100
0000
0000
0000
,
0010
0010
0000
0000
,
2000
0001
0001
3001
,
0110
0000
0000
0000
;

//---------------dance-double - ----------------
#NOTES:
     dance-double:
     :
     Hard:
     9:
     0.619,0.609,0.424,0.134,0.416:
00000000
00000000
00000000
00000000
,
00000000
00000000
00000000
00000000
,
00000100
00000000
00000000
00000010
00000000
00000000
00001000
00000000
00000000
00000100
00000000
00000000
00001000
00000000
00000000
00000010
00000000
00000100
00000000
00000000
00000000
00000000
00000000
00000000
,
00000010
00000000
00000000
00001000
00000000
00000000
00000100
00000000
00000000
00010000
00000000
00000000
00001000
00000000
00000000
00001000
00000000
00100000
00000000
00000000
00000000
00010000
00000000
00000000
,
10000000
00000000
00000000
01000000
00000000
00000000
00100000
00000000
00000000
00010000
00000000
00000000
01000000
00000000
00000000
00100000
00000000
01000000
00000000
00000000
00000000
00000000
00000000
00000000
,
00010000
00000000
00000000
00100000
00000000
00000000
00010000
00000000
00000000
10000000
00000000
00000000
01000000
00000000
00000000
00100000
00000000
00001000
00000000
00000000
00000000
00010000
00000000
00000000
,
00011000
00000000
00000000
00000100
00000000
00000000
00001000
00000000
00000000
00010000
00000000
00000000
00100000
00000000
00000000
00010000
00000000
00001000
00000000
00000000
00000000
00010000
00000000
00000000
,
00000010
00000000
00000000
00000100
00000000
00000000
00000001
00000000
00000000
00001000
00000000
00000000
00000100
00000000
00000000
00010000
00000000
00001000
00000000
00000000
00000000
00010000
00000000
00000000
,
00000100
00000000
00000000
00001000
00000000
00000000
00010000
00000000
00000000
00001000
00000000
00000000
00000010
00000000
00000000
00010000
00000000
00000100
00000000
00000000
00000000
00010000
00000000
00000000
,
01000000
00000000
00000000
10000000
00000000
00000000
00100000
00000000
00000000
01000000
00000000
00000000
00010000
00000000
00000000
10000000
00000000
00100000
00000000
00000000
00000000
01000000
00000000
00000000
,
00010000
10000000
01000000
00010000
01000000
10000000
01000000
00010000
,
00001000
00000000
00000000
00001000
00000000
00000000
00000100
00000000
00000000
00000001
00000000
00000000
00000100
00000000
00000000
00001000
00000000
00000000
00000100
00000000
00000100
00000010
00000000
00000000
,
00001000
00000100
00001000
00000010
00001000
00000100
00001000
00000010
,
00010000
00000000
00000000
00001000
00000000
00000000
00010000
00000000
00000000
00100000
00000000
00000000
00010000
00000000
00001000
00000000
00000000
00010000
00000000
00000000
00010000
01000000
00000000
00000000
,
10000000
10000000
00100000
00010000
00100000
10000000
00100000
00010000
,
00001000
00001000
00000010
00000001
00000010
00001000
00000010
00000001
,
00000010
00000100
00001000
00000100
00001000
00010000
00001000
00010000
,
01000000
00000000
00000000
00100000
00000000
00000000
10000000
00000000
00000000
00010000
00000000
00000000
00100000
00000000
00001000
00000000
00000000
00100000
00000000
00000000
00001000
00010000
00000000
00000000
,
00000100
00000000
00000000
00001000
00000000
00000000
00000100
00000000
00000000
00010000
00000000
00000000
00001000
00000000
00000100
00000000
00000000
00000001
00000000
00000000
00000100
00000001
00000000
00000000
,
00001000
00000000
00000000
00000100
00000000
00000000
00010000
00000000
00000000
00001000
00000000
00000000
00100000
00000000
00010000
00000000
00000000
10010000
00000000
00000000
00000000
00000000
00000000
00000000
,
01100000
00000000
00000000
01000000
00000000
00000000
01010000
00000000
00000000
10000000
00000000
00000000
11000000
00000000
00000000
00010000
00000000
00100000
00000000
00000000
00100000
00001000
00000000
00000000
,
00011000
00000000
00000000
00001000
00000000
00000000
00001100
00000000
00000000
00000100
00000000
00000000
00000101
00000000
00000000
00000001
00000000
00000010
00000000
00000000
00000010
00000100
00000000
00000000
,
00001000
00000100
00010000
00001000
00000100
00000010
00001000
00000100
,
00010000
00000000
00000000
00001000
00000000
00000000
00100000
00000000
00000000
00010000
00000000
00000000
01000000
00000000
00010000
00000000
00000000
00200000
00000000
00000000
01300000
10000000
00000000
00000000
,
10010000
00000000
00000000
00100000
00000000
00000000
10100000
00000000
00000000
00010000
00000000
00000000
00110000
00000000
00000000
01000000
00000000
00010000
00000000
00000000
00100000
01000000
00000000
00000000
,
11000000
00000000
00000000
00010000
00000000
00000000
01010000
00000000
00000000
00100000
00000000
00000000
01001000
00000000
00000000
01000000
00000000
00010000
00000000
00000000
00010000
00100000
00000000
00000000
,
00001000
00010000
01000000
10000000
00100000
00010000
00001000
00000100
,
00000010
00000000
00000000
00001000
00000000
00000000
00000100
00000000
00000000
00010000
00000000
00000000
00001000
00000000
00010000
00000000
00000000
00001000
00000000
00000000
00001000
00000100
00000000
00000000
,
00000010
00000000
00000200
00000000
00000000
00000000
00000301
00000000
00000000
00000100
00000000
00000000
00000010
00000000
00001000
00000000
00000000
00001010
00000000
00000000
00000000
00001000
00000000
00000000
,
00000100
00000000
00020000
00000000
00000000
00000000
00031000
00000000
00000000
00010000
00000000
00000000
00001000
00000000
00100000
00000000
00000000
00101000
00000000
00000000
00000000
00010000
00000000
00000000
,
10000000
00000000
00200000
00000000
00000000
00000000
01300000
00000000
00000000
00100000
00000000
00000000
00010000
00000000
00001000
00000000
00000000
00011000
00000000
00000000
00000000
00001000
00000000
00000000
,
00000100
00000001
00000000
00000010
00000100
00000000
00001000
00010000
00000000
00100000
01000000
00000000
,
10000000
00000000
00020000
00000000
00000000
00000000
00130000
00000000
00000000
00010000
00000000
00000000
01000000
00000000
00001000
00000000
00000000
00101000
00000000
00000000
00000000
00010000
00000000
00000000
,
00001000
00000000
00020000
00000000
00000000
00000000
00130000
00000000
00000000
00010000
00000000
00000000
00001000
00000000
00000100
00000000
00000000
00000110
00000000
00000000
00000000
00000001
00000000
00000000
,
00001000
00000000
00000200
00000000
00000000
00000000
00010300
00000000
00000000
00000100
00000000
00000000
00001000
00000000
00010000
00000000
00000000
01010000
00000000
00000000
00000000
10000000
00000000
00000000
,
10000000
01000000
00000000
00100000
00010000
00000000
00001000
00000100
00000000
00000010
00000001
00000000
,
00001000
00000000
00000000
00000011
00000000
00000000
00001000
00000000
00000000
00000101
00000000
00000000
00000010
00000000
00000000
00001000
00000000
00000100
00000000
00000000
00010000
00001000
00000000
00000000
,
00100000
00000000
00000000
10010000
00000000
00000000
00100000
00000000
00000000
10100000
00000000
00000000
00010000
00000000
00000000
10000000
00000000
00100000
00000000
00000000
00010000
00001000
00000000
00000000
,
00001000
00000000
00000000
00001100
00000000
00000000
00000100
00000000
00000000
00000110
00000000
00000000
00001000
00000000
00000000
00000001
00000000
00000100
00000000
00000000
00000010
00010000
00000000
00000000
,
00011000
00010000
00011000
00000000
00110000
00000000
00001100
00000000
,
01000000
00000000
00000000
10010000
00000000
00000000
00100000
00000000
00000000
10010000
00000000
00000000
00100000
00000000
00000000
00001000
00000000
00010000
00000000
00000000
00010000
00000100
00000000
00000000
,
00001000
00000000
00000000
00000110
00000000
00000000
00000001
00000000
00000000
00000110
00000000
00000000
00001000
00000000
00000000
00000001
00000000
00001000
00000000
00000000
00000100
00010000
00000000
00000000
,
00001000
00000000
00000000
00011000
00000000
00000000
00100000
00000000
00000000
00101000
00000000
00000000
00010000
00000000
00000000
00001000
00000000
00010000
00000000
00000000
00000001
00001000
00000000
00000000
,
00001100
00000100
00000101
00000001
00000011
00000010
00001010
00001000
,
00000002
00000000
00000000
00002003
00000000
00000000
00003200
00000000
,
00000000
00020300
00000000
00000000
00230000
00000000
20300000
00000000
,
30010000
00000000
00000000
01000000
00000000
01000000
00010000
00000000
00000000
00100000
00000000
00000000
00001000
00000000
00001000
00010000
00000000
00000000
00000010
00000000
00000000
00001000
00000000
00000001
,
00001000
00000000
00000000
00000010
00000000
00000000
00010000
00000000
00001000
00010000
00000000
00000000
01000000
00000000
00000000
10000000
00000000
00000000
00010000
00000000
00000000
01000000
00000000
00000000
,
00200000
00000000
00000000
00000000
00000000
00000000
00000000
00000000
00300000
00000000
00000000
00000000
,
00000000
00000000
00000000
00000000
00000000
00000000
00000000
00000000
00000000
00000000
00000000
00000000
00100000
00000000
00010000
00000000
00000000
10000000
00000000
00000000
00010000
00100000
00000000
00000000
,
10010000
00000000
00000000
00100000
00000000
00000000
00101000
00000000
00000000
00010000
00000000
00000000
00010100
00000000
00000000
00010000
00000000
00000010
00000000
00000000
00000010
00001000
00000000
00000000
,
00000011
00000000
00000000
00000100
00000000
00000000
00000101
00000000
00000000
00001000
00000000
00000000
00010010
00000000
00000000
00000010
00000000
00010000
00000000
00000000
00010000
00001000
00000000
00000000
,
00100000
00010000
01000000
10000000
01000000
00010000
00100000
01000000
,
10000000
00000000
00000000
00010000
00000000
00000000
00100000
00000000
00000000
00001000
00000000
00000000
00000100
00000000
00000010
00000000
00000000
00001001
00000000
00000000
00000010
00000100
00000000
00000000
,
00000101
00000000
00000000
00001000
00000000
00000000
00001010
00000000
00000000
00000100
00000000
00000000
00001001
00000000
00000000
00000100
00000000
00010000
00000000
00000000
00001000
00010000
00000000
00000000
,
00011000
00000000
00000000
00100000
00000000
00000000
01010000
00000000
00000000
00100000
00000000
00000000
01010000
00000000
00000000
10000000
00000000
01000000
00000000
00000000
01000000
10000000
00000000
00000000
,
00010000
01000000
00001000
00010000
00000100
00001000
00000100
00000001
,
00000100
00000000
00000000
00001000
00000000
00000000
00000100
00000000
00000000
00010000
00000000
00000000
00001000
00000000
00100000
00000000
00000000
00001000
00000000
00000000
00010000
00000100
00000000
00000000
,
00010000
00000000
00002000
00000000
00000000
00000000
00013000
00000000
00000000
00000100
00000000
00000000
00010000
00000000
00000100
00000000
00000000
00001000
00000000
00000000
00000000
00010000
00000000
00000000
,
00100000
00000000
02000000
00000000
00000000
00000000
13000000
00000000
00000000
01000000
00000000
00000000
10000000
00000000
00010000
00000000
00000000
00100000
00000000
00000000
00000000
00001000
00000000
00000000
,
00010000
00000000
00000020
00000000
00000000
00000000
00000130
00000000
00000000
00000001
00000000
00000000
00000010
00000000
00000100
00000000
00000000
00001000
00000000
00000000
00000000
00001000
00000000
00000000
,
00000001
00001000
00000000
00010000
10000000
00000000
10000000
00010000
00000000
00001000
00000001
00000000
,
00000110
00000000
00000000
00000000
;

//---------------dance-double - ----------------
#NOTES:
     dance-double:
     :
     Medium:
     6:
     0.396,0.414,0.149,0.306,0.079:
00000000
00000000
00000000
00000000
,
00000000
00000000
00000000
00000000
,
00010000
00100000
00001000
00010000
00001000
00000000
00000100
00000000
,
00000001
00000010
00000100
00000000
00000010
00000100
00001000
00000000
,
00000100
00010000
00001000
00010000
00001000
00000000
00100000
00000000
,
01000000
00000000
00000000
10000000
00000000
00000000
00010000
00000000
00000000
00000000
00000000
00000000
01000000
00000000
00000000
00000000
00000000
00020000
00000000
00000000
00000000
00000000
00000000
00000000
,
10030000
00000000
00000000
00000000
00000000
00000000
01000000
00000000
00000000
00000000
00000000
00000000
00020000
00000000
00000000
00000000
00000000
00031000
00000000
00000000
00000000
00000000
00000000
00000000
,
00001000
00000000
00000000
00000010
00000000
00000000
00000001
00000000
00000000
00000010
00000000
00000000
00000001
00000000
00000000
00000000
00000000
00000200
00000000
00000000
00000000
00000000
00000000
00000000
,
00000301
00000000
00000000
00000000
00000000
00000000
00000100
00000000
00000000
00000000
00000000
00000000
00002000
00000000
00000000
00000000
00000000
00013000
00000000
00000000
00000000
00000000
00000000
00000000
,
00010000
00000000
00000000
00100000
00000000
00000000
10000000
00000000
00000000
00100000
00000000
00000000
10000000
00000000
00000000
00000000
00000000
01000000
00000000
00000000
00000000
00000000
00000000
00000000
,
10000000
00000000
10010000
00000000
00100000
00010000
01000000
00000000
,
00001000
00000000
00100000
00000000
00010000
00100000
00001000
00000000
,
00010000
00000000
00010100
00000000
00001000
00000010
00000100
00000000
,
00000001
00000000
00000000
00000000
00000000
00000000
00001000
00000000
00000000
00000000
00000000
00000000
00000100
00000000
00000000
00000000
00000000
00000100
00000000
00000000
00000000
00000000
00000000
00000000
,
00001000
00000000
00001100
00000000
00010000
00001000
00010000
00000000
,
01000000
00000000
00100000
00000000
00010000
00100000
00010000
00000000
,
01000000
00000000
00110000
00000000
00010000
00001000
00000100
00000000
,
00000100
00000000
00000000
00000000
00000000
00000000
00001000
00000000
00000000
00000000
00000000
00000000
00000001
00000000
00000000
00000000
00000000
00000010
00000000
00000000
00000000
00000000
00000000
00000000
,
00001010
00000000
00000000
00000000
,
01010000
00000000
00000000
00000000
00000000
00000000
00000000
00000000
00000000
00000000
00000000
00000000
20000000
00000000
00000000
00000000
00000000
30010000
00000000
00000000
00000000
00000000
00000000
00000000
,
01000000
00000000
00000000
01000000
00000000
00000000
00010000
00000000
00000000
00010000
00000000
00000000
00100000
00000000
00000000
00000000
00000000
00001000
00000000
00000000
00000000
00000000
00000000
00000000
,
00010000
00000000
00000000
00010000
00000000
00000000
00000100
00000000
00000000
00000100
00000000
00000000
00000010
00000000
00000000
00000000
00000000
00000001
00000000
00000000
00000000
00000000
00000000
00000000
,
00002000
00003200
00020300
00032000
,
00203000
00000000
00000000
00000000
00000000
00000000
00320000
00000000
00000000
00000000
00000000
00000000
10030000
00000000
00000000
00000000
00000000
00100000
00000000
00000000
00000000
01000000
00000000
00000000
,
00010000
00000000
00000000
00010000
00000000
00000000
10000000
00000000
00000000
10000000
00000000
00000000
00010000
00000000
00000000
00000000
00000000
00100000
00000000
00000000
00000000
00000000
00000000
00000000
,
00010000
00000000
00000000
00010000
00000000
00000000
00001000
00000000
00000000
00001000
00000000
00000000
00000010
00000000
00000000
00000000
00000000
00000010
00000000
00000000
00000000
00000000
00000000
00000000
,
00020000
00032000
00203000
00320000
,
00032000
00000000
00000000
00000000
00000000
00000000
00003200
00000000
00000000
00000000
00000000
00000000
00000301
00000000
00000000
00000000
00000000
00001000
00000000
00000000
00000000
00000010
00000000
00000000
,
00000100
00000000
00000010
00000000
00001000
00000000
00000100
00010000
,
00001000
00000000
01000000
00000000
00100000
00000000
10000000
01000000
,
00100000
00000000
01000000
00000000
00010000
00000000
01000000
10000000
,
00010000
00110000
00011000
00001100
,
00001000
00000000
00000001
00000000
00000100
00000010
00000001
00000000
,
00000010
00000000
00001000
00000000
00000100
00010000
00001000
00000000
,
00010000
00000000
00010000
00000000
01000000
10000000
00010000
00000000
,
01100000
01001000
00011000
00010010
,
00000100
00000010
00000100
00000010
00000100
00000010
00001000
00000000
,
00000100
00010000
00000100
00010000
00000100
00010000
00001000
00000000
,
00000100
00000001
00000100
00000001
00000100
00000001
00000010
00000000
,
00000210
00002300
00023000
02030000
,
03100000
10000000
00100000
10000000
00100000
10000000
00010000
00000000
,
00100000
00001000
00100000
00001000
00100000
00001000
00010000
00000000
,
01000000
10000000
01000000
10000000
01000000
10000000
00100000
00000000
,
02010000
03002000
00023000
00030200
,
00001300
00000000
00000000
00000100
00000000
00000000
00010000
00000000
,
00000000
00001000
00000000
00000000
00000100
00000000
00000001
00000000
,
00001000
00000000
00000100
00010000
00000000
00001000
00100000
00000000
,
00010000
01000000
00000000
00100000
01000000
00000000
00100000
00000000
,
20020000
00000000
00000000
00000000
00000000
30030000
00000000
00000000
,
00000000
00000000
00001000
00010000
,
00001000
00000000
00000000
00001000
00000000
00000000
00000100
00000000
00000000
00000100
00000000
00000000
00000001
00000000
00000000
00000000
00000000
00001000
00000000
00000000
00000000
00000000
00000000
00000000
,
00000010
00000000
00000000
00000010
00000000
00000000
00001000
00000000
00000000
00001000
00000000
00000000
00000100
00000000
00000000
00000000
00000000
00010000
00000000
00000000
00000000
00000000
00000000
00000000
,
00002000
00203000
02300000
23000000
,
30020000
00000000
00000000
00000000
00000000
00000000
00230000
00000000
00000000
00000000
00000000
00000000
00301000
00000000
00000000
00000000
00000000
00100000
00000000
00000000
00000000
00000000
00000000
00000000
,
00010000
00000000
00000000
00010000
00000000
00000000
01000000
00000000
00000000
01000000
00000000
00000000
10000000
00000000
00000000
00000000
00000000
01000000
00000000
00000000
00000000
00000000
00000000
00000000
,
00010000
00000000
00000000
00010000
00000000
00000000
00100000
00000000
00000000
00100000
00000000
00000000
00010000
00000000
00000000
00000000
00000000
00001000
00000000
00000000
00000000
00000000
00000000
00000000
,
00000200
00000320
00000032
00000203
,
00002300
00000000
00000000
00000000
00000000
00000000
00003200
00000000
00000000
00000000
00000000
00000000
00000310
00000000
00000000
00000000
00000000
00001000
00000000
00000000
00000000
00000100
00000000
00000000
,
00010000
00000000
00001000
00000000
00010000
00000000
01000000
10000000
,
00010000
00000000
01000000
00000000
00100000
00000000
00010000
00001000
,
00100000
00000000
00001000
00000000
00000100
00000000
00000001
00001000
,
00000100
00010100
00011000
01001000
,
01000000
00000000
00000000
00000000
;

//---------------dance-double - ----------------
#NOTES:
     dance-double:
     :
     Easy:
     3:
     0.266,0.317,0.212,0.283,0.000: // measure 1
00000000
00000000
00000000
00000000
,  // measure 2
00000000
00000000
00000000
00000000
,  // measure 3
00001000
00000100
00000001
00000100
,  // measure 4
00001000
00000000
00000100
00010000
,  // measure 5
00001000
00001000
00100000
00010000
,  // measure 6
01000000
00000000
00100000
10000000
,  // measure 7
00010000
00100000
00220000
00030000
,  // measure 8
00310000
00010000
01000000
00000000
,  // measure 9
00001000
00010000
00020200
00000300
,  // measure 10
00030100
00001000
00000001
00000000
,  // measure 11
00000011
00000011
00001010
00000000
,  // measure 12
00001000
00000100
00010000
00001000
,  // measure 13
00011000
00011000
00101000
00000000
,  // measure 14
10000000
01000000
00200000
00300000
,  // measure 15
01010000
01010000
10100000
00000000
,  // measure 16
10000000
01000000
00100000
00000000
,  // measure 17
00110000
00110000
00011000
00000000
,  // measure 18
00001000
00000100
00000001
00000010
,  // measure 19
00000200
00000000
00000000
00000000
,  // measure 20
00020000
00000300
00031000
00011000
,  // measure 21
00010000
01000000
10000000
00000000
,  // measure 22
10000000
00100000
00010000
00000000
,  // measure 23
00002000
00000000
00003200
00000000
,  // measure 24
00000310
00001000
00000001
00000000
,  // measure 25
00000001
00000010
00001000
00000000
,  // measure 26
00001000
00000010
00000001
00000000
,  // measure 27
00000100
00000010
00001000
00000000
,  // measure 28
00000100
00010000
00001000
00100000
,  // measure 29
00110000
00000000
00000000
01000000
,  // measure 30
01100000
00000000
00000000
10000000
,  // measure 31
10010000
00000000
00000000
00001000
,  // measure 32
00012000
00003200
00000320
00000230
,  // measure 33
00000301
00000000
00000000
00001000
,  // measure 34
00001100
00000000
00000000
00000010
,  // measure 35
00001001
00000000
00000000
00010000
,  // measure 36
00021000
02030000
03200000
00320000
,  // measure 37
10030000
01000000
00100000
00010000
,  // measure 38
01000000
00000000
00001000
00000000
,  // measure 39
00010000
00000100
00001000
00000010
,  // measure 40
00000200
00000010
00000010
00000310
,  // measure 41
00001001
00000001
00000100
00000000
,  // measure 42
00000010
00001000
00000100
00010000
,  // measure 43
00010000
00000000
00001000
00100000
,  // measure 44
02000000
10000000
10000000
13000000
,  // measure 45
00020000
00000000
00000000
00230000
,  // measure 46
00000000
00000000
00001000
00301000
,  // measure 47
00012000
00000000
00000000
00000100
,  // measure 48
00003200
00000000
00000010
00000020
,  // measure 49
00000000
00000000
00000000
00000000
00000000
00000330
00000000
00000000
,  // measure 50
00000000
00000000
00000000
00000000
,  // measure 51
00001000
00000010
00000001
00000000
,  // measure 52
00000001
00000010
00001000
00000000
,  // measure 53
00020000
02030000
03200000
00320000
,  // measure 54
10030000
00000000
10000000
00010000
,  // measure 55
10000000
01000000
00010000
00000000
,  // measure 56
00010000
01000000
10000000
00000000
,  // measure 57
00020000
00230000
00302000
00023000
,  // measure 58
00030100
00001000
00000010
00000000
,  // measure 59
00001001
00000000
00000000
00000100
,  // measure 60
00001100
00000000
00000000
00010000
,  // measure 61
00011000
00000000
00000000
00100000
,  // measure 62
00002000
00023000
00032000
00023000
,  // measure 63
00031000
00000000
00000000
00000000
;
