#TITLE:Music-U;
#SUBTITLE:;
#ARTIST:Qrispy Joybox feat. mao;
#TITLETRANSLIT:;
#SUBTITLETRANSLIT:;
#ARTISTTRANSLIT:;
#GENRE:;
#CREDIT:;
#MENUCOLOR:;
#METERTYPE:DDR;
#BANNER:Music-U-bn.png;
#BACKGROUND:Music-U-bg.png;
#LYRICSPATH:;
#CDTITLE:TUNE STREET-cdtitle.png;
#MUSIC:Music-U.mp3;
#OFFSET:-1.200;
#SAMPLESTART:67.620;
#SAMPLELENGTH:13.300;
#SELECTABLE:YES;
#LISTSORT:;
#BPMS:0.000=152.000,166.000=76.000,168.000=152.000;
#STOPS:;
#BGCHANGES:;
#DISPLAYBPM:152;
#ATTACKS:;

//---------------dance-single - ----------------
#NOTES:
     dance-single:
     :
     Hard:
     8:
     0.549,0.504,0.273,0.141,0.035:
0000
0000
0000
0000
,
0000
0000
0000
0000
,
0000
0000
0000
0000
,
0000
0000
0000
0000
0000
0010
0100
0010
,
1000
0000
0001
0100
0001
1000
0000
0010
,
0000
1000
0000
1100
0000
0110
0000
0001
,
0010
0001
0100
0001
1000
0100
0000
0011
,
0000
1100
0000
1001
0000
0100
0010
0100
,
0101
0000
0110
0000
1000
0001
0100
0001
,
0000
0010
0100
1000
0000
0001
0100
0000
,
1100
0000
0110
0000
0010
0001
1000
0100
,
0000
1000
0000
1100
0000
1000
0001
0100
,
0101
0000
0110
0000
0001
1000
0010
0001
,
0000
0010
0000
1000
0000
0001
0100
0010
,
1000
0100
0010
0100
1000
0001
0100
0002
,
0000
1003
0000
1010
0000
0001
2001
0000
,
3010
0100
0010
1000
0001
0000
1000
0000
,
0001
0000
0010
0000
0200
0000
2000
0000
0300
0000
0100
0000
3100
1000
0001
0000
,
1000
0000
0001
0000
0100
0001
0100
0000
,
0010
0000
1000
0000
0001
0010
0100
1000
,
0001
0000
0100
0000
0010
0000
1000
0100
,
1000
0000
0010
0100
0010
0100
0001
0000
,
1000
0001
0010
0000
0001
0010
0100
0000
,
0010
0100
0010
0100
1000
0001
0100
0000
,
0010
1000
0100
0000
0010
0001
0100
0002
,
0000
2003
0000
3100
1000
1001
0000
0100
,
0010
0100
0001
1000
0100
0010
0100
1000
,
0100
1000
0001
0000
0100
0001
0100
0010
,
0000
1000
0001
0010
0100
0000
1000
0100
,
0000
1000
0100
0020
0000
0031
0011
0000
,
0001
0100
0010
1000
0100
0010
0100
1000
,
0000
1001
0000
0001
0100
0001
1000
0010
,
0000
0100
0010
1000
0001
0010
0200
0020
,
0000
0000
0000
0000
0330
0000
0000
0000
1000
0100
1000
0000
0001
0100
0001
0000
,
1001
1000
0100
0000
1000
0001
0100
0000
,
0001
0010
0100
1000
0010
1000
0001
0000
,
0100
0001
1000
0000
0010
1000
0100
0010
,
0000
0100
1000
0100
0000
1000
0001
0000
,
0100
0001
0100
0010
0100
0000
0010
1000
,
0000
0001
0100
0010
0000
1000
0100
0010
,
0001
0010
0100
1000
0001
1000
0010
0010
,
1000
0000
0001
0000
0100
0000
0020
0000
0000
0000
0000
0000
0030
1000
0000
1000
,
0002
0000
0103
0001
1000
0100
0000
1000
,
0000
1010
0000
0001
0000
0011
0000
1000
,
0001
0100
0001
0010
0100
1000
0000
0001
,
0000
0100
0001
2000
0000
3200
0000
1300
,
0010
0000
0110
0100
0001
1000
0000
0001
,
0000
0010
0001
0010
0000
0100
0000
1000
,
0001
0100
0001
1000
0100
1000
0000
0001
,
0000
0100
0001
0010
0000
0001
0010
0100
,
2000
0000
0001
0000
3100
1000
0001
0100
,
0000
0001
1000
0100
0000
1000
1001
0000
,
0010
0100
0001
0100
1000
0100
0000
0010
,
0000
1000
0100
0001
0000
1000
0020
0000
,
0031
0100
0001
1000
0100
1000
0000
0010
,
0000
0110
0000
0001
0000
0101
0000
1000
,
0000
0001
0100
0001
1000
0100
0000
0010
,
0000
0000
0001
0000
0100
0000
1000
0000
0100
0010
0100
0000
0001
1000
0001
0000
,
0101
0000
1010
0000
1000
0010
0100
0001
,
0000
1000
0001
0100
0000
0001
0010
0100
,
1000
0001
1000
0100
1000
0010
0000
1000
,
0000
1000
0100
0010
0000
0100
0010
0001
,
0100
0001
1000
0100
0010
0100
0000
1000
,
0000
0010
0100
0001
0000
1000
0001
1000
,
0010
0100
1000
0100
0010
0100
0000
0001
,
0000
0000
0110
0000
0000
0000
2100
0000
0000
0000
0000
0000
3001
1000
0001
0000
,
0000
0001
0100
0010
1000
0000
1001
0000
,
1100
0100
0010
0011
0000
0000
0000
0000
;

//---------------dance-single - ----------------
#NOTES:
     dance-single:
     :
     Medium:
     5:
     0.342,0.326,0.062,0.062,0.004:
0000
0000
0000
0000
,
0000
0000
0000
0000
,
0000
0000
0000
0000
,
0000
0000
0000
0000
0000
1000
0001
0000
,
1000
0000
0100
1000
0010
0000
0000
1000
,
0000
0000
0000
0100
0000
1000
0000
0001
,
0100
0000
0001
1000
0001
0000
0000
0010
,
0000
0001
0000
0100
0000
0000
1002
0000
,
0103
0000
0001
0000
1000
0000
0100
1000
,
0000
0010
0000
0100
0000
0000
0001
0000
,
1000
0000
0100
0000
1000
0000
0100
0010
,
0000
0100
0000
1000
0000
0001
0100
0000
,
1001
0000
0100
0000
0010
0000
1000
0100
,
0000
1000
0000
0001
0000
0100
0010
0000
,
0100
0000
0001
0000
1000
0000
0001
0010
,
0000
0001
0000
1000
0000
0000
0020
0000
,
0130
0010
0000
0000
0100
0000
0010
0000
,
1000
0000
0001
1000
0000
0000
1001
0000
,
0010
0001
0100
0010
,
0100
0000
0010
0000
1000
0000
0100
0001
,
0000
0100
1000
0001
,
0100
0000
0001
0000
1000
0000
0010
0100
,
0000
0001
0100
0010
,
1000
0000
1000
0000
0001
0000
1000
0100
,
0000
1000
0010
0100
,
0001
0000
0001
0000
0010
0000
0001
0100
,
0001
1000
0010
0100
,
0010
1000
0010
0000
0100
0001
0100
0000
,
0001
1000
0100
0001
,
0100
0000
0010
0001
0000
0000
1001
0000
,
1000
0010
1000
0001
,
0010
0000
0001
0000
0100
0001
1000
0100
,
1000
0000
0001
0000
1000
0000
0100
2000
,
0000
0000
0001
3001
,
1001
0100
0010
1000
,
0001
0000
0010
0001
0000
0000
0100
0000
,
0001
1000
0010
0100
,
1000
0200
0000
0310
,
1000
0001
0010
0001
,
1000
0000
0100
1000
0000
0010
0000
0000
,
0100
0001
0100
0010
,
0100
0000
0000
0000
1000
0000
0100
0000
0000
0000
0000
0000
0000
0010
0000
0000
,
0100
0000
0001
0000
0100
0000
0000
0010
,
0000
1000
0000
0010
0000
1000
0000
0000
,
0001
0000
1000
0000
0001
0000
0000
0010
,
0000
0010
0000
0100
0000
0100
0000
0000
,
1000
0000
0001
0000
0100
0000
0000
0001
,
0000
0010
0000
0100
0000
1000
0000
0000
,
0100
0000
0010
0000
0100
0000
0000
1000
,
0000
0001
0000
0100
0000
0001
0000
0000
,
1000
0000
0001
0000
1000
0000
0100
2000
,
0000
0000
0000
0002
0000
3003
1001
0000
,
0100
0000
0010
0000
0100
0000
0000
0001
,
0000
0100
0000
1000
0000
0100
0000
0000
,
0010
0000
1000
0000
0001
0000
0000
1000
,
0000
1000
0000
0010
0000
0010
0000
0000
,
1000
0000
0100
0000
1000
0000
0000
0001
,
0000
0001
0000
0100
0000
0010
0100
0010
,
0100
0000
0100
0000
0100
0000
0000
0001
,
0000
0100
0000
0001
0000
1000
0100
1000
,
0100
0000
0100
0000
0100
0000
0000
1000
,
0000
0001
0000
1000
0000
0001
0010
0001
,
0010
0000
0010
0000
0010
0000
0000
0001
,
0000
0100
0000
0001
0000
1000
0010
1000
,
0100
0000
0100
0000
0100
0000
0000
1000
,
0000
0100
0000
1002
0000
0000
0103
0000
,
0000
0010
0000
1000
0010
0000
1000
0000
,
1000
0000
0001
0100
0000
0000
0000
0000
;

//---------------dance-single - ----------------
#NOTES:
     dance-single:
     :
     Easy:
     3:
     0.269,0.326,0.088,0.079,0.000:
0000
0000
0000
0000
,
0000
0000
0000
0000
,
0000
0000
0000
0000
,
0000
0000
0000
0000
,
1000
0001
0001
0000
,
1000
0100
0010
0001
,
0100
0010
0100
0000
,
0001
0010
0100
1001
,
0100
1000
0100
0000
,
1000
0010
0200
0301
,
0001
1000
0001
0000
,
1000
0001
0020
0130
,
1000
0010
0100
0000
,
0001
0100
0002
1003
,
0010
0100
0010
1000
,
1000
0001
0101
0000
,
1000
0001
0100
0000
,
0010
0000
1001
0000
,
0001
0010
0001
0000
,
1000
0010
1000
0010
,
0000
0100
0001
1000
,
0001
0000
1000
0000
,
0100
1000
0010
0000
,
0100
0001
1000
0001
,
0000
1000
0100
1000
,
0010
0000
1000
0000
,
0001
0010
0100
0000
,
1000
0100
1000
0001
,
0000
0010
0001
1000
,
0001
0000
0010
0000
,
0001
0010
0001
0000
,
0100
0010
0100
1000
,
0000
0100
0010
0000
,
2002
0000
0000
3003
,
1000
0100
1000
0000
,
0001
0100
0001
0000
,
0010
0100
0010
0001
,
1000
0000
1000
0000
,
0001
0100
0001
0000
,
1000
0100
1000
0000
,
0010
0100
0001
0010
,
0100
2000
0002
3003
,
1001
0100
0010
0000
,
0100
0010
0100
0001
,
0000
1000
0100
1000
,
0001
0001
0010
0010
,
0100
0010
0001
0000
,
1000
0010
0100
0001
,
1000
1000
0001
0000
,
0100
0001
0100
0000
,
0010
1000
0001
0000
,
2000
0000
0200
3300
,
0010
0010
0010
0000
,
0100
0001
0100
0001
,
1000
0100
0010
0000
,
0100
1000
0001
0000
,
0100
0010
1000
0000
,
0001
0001
0010
0000
,
1001
0000
0100
0000
,
0010
0010
0100
0000
,
1001
0000
0010
0000
,
0100
0100
0010
0000
,
0110
0000
1000
0000
,
0001
0001
1000
0000
,
0110
0000
0001
0000
,
1000
1000
0001
0000
,
1000
0001
0010
0100
,
1000
0000
0000
1001
0000
0000
0000
0000
;

//---------------dance-single - ----------------
#NOTES:
     dance-single:
     :
     Beginner:
     1:
     0.112,0.207,0.097,0.106,0.000:
0000
0000
0000
0000
,
0000
0000
0000
0000
,
0000
0000
0000
0000
,
0000
0000
0000
0000
,
0001
0000
0000
0000
,
1000
0000
0000
0000
,
0010
0000
0000
0000
,
0100
0000
0000
0000
,
2002
0000
3003
0000
,
0000
0000
1000
0000
,
0220
0000
0330
0000
,
0000
0000
0001
0000
,
2002
0000
3003
0000
,
0000
0000
0010
0000
,
0220
0000
0330
0000
,
0000
0000
0000
0000
,
1000
0000
0001
0000
,
1000
0000
0000
0000
,
0001
0000
0000
0000
,
0010
0000
0000
0000
,
0001
0000
0000
0000
,
0100
0000
0000
0000
,
0010
0000
0000
0000
,
1000
0000
0000
0000
,
0001
0000
0000
0000
,
0010
0000
0000
0000
,
0100
0000
0000
0000
,
1000
0000
0000
0000
,
0001
0000
0000
0000
,
0100
0000
0000
0000
,
1000
0000
0000
0000
,
0100
0000
0000
0000
,
0001
0000
0000
0000
,
2000
0000
3000
0000
,
1001
0000
0000
0000
,
0100
0000
0000
0000
,
0010
0000
0000
0000
,
0100
0000
0000
0000
,
0001
0000
0000
0000
,
0010
0000
0000
0000
,
0100
0000
0000
0000
,
1000
0000
0001
0000
,
0110
0000
0000
0000
,
0010
0000
0000
0000
,
1000
0000
0000
0000
,
0002
0000
0003
0000
,
1000
0000
0000
0000
,
0001
0000
0000
0000
,
0010
0000
0000
0000
,
0100
0000
0000
0000
,
1000
0000
0000
0000
,
0001
0000
0000
0000
,
0010
0000
0000
0000
,
0200
0000
0300
0000
,
1000
0000
0000
0000
,
0001
0000
0000
0000
,
0100
0000
0000
0000
,
0010
0000
0000
0000
,
1001
0000
0000
0000
,
0000
0000
1000
0000
,
0110
0000
0000
0000
,
0000
0000
0001
0000
,
1001
0000
0000
0000
,
0000
0000
0010
0000
,
0110
0000
0000
0000
,
0000
0000
1000
0000
,
1001
0000
0001
0000
,
0200
0000
0000
0300
0000
0000
0000
0000
;

//---------------dance-double - ----------------
#NOTES:
     dance-double:
     :
     Hard:
     8:
     0.550,0.504,0.334,0.202,0.026: // measure 1
00000000
00000000
00000000
00000000
,  // measure 2
00000000
00000000
00000000
00000000
,  // measure 3
00000000
00000000
00000000
00000000
,  // measure 4
00000000
00000000
00000000
00000000
00000000
10000000
01000000
00100000
,  // measure 5
00110000
00000000
01000000
00100000
01000000
10000000
00000000
00100000
,  // measure 6
00000000
01000000
00000000
00010000
00000000
00100000
00000000
00011000
,  // measure 7
00000000
00010000
00001000
00010000
00000100
00001000
00000000
00000010
,  // measure 8
00000000
00000010
00000000
00001001
00000000
00000010
00000001
00000010
,  // measure 9
00000100
00000000
00001100
00000000
00001010
00000000
00001000
00000010
,  // measure 10
00000000
00000100
00000001
00001000
00000000
00000010
00001000
00000010
,  // measure 11
00010000
00000000
00011000
00000000
10010000
00000000
00010000
01000000
,  // measure 12
00000000
00100000
01000000
00010000
00000000
00100000
01000000
10000000
,  // measure 13
00010000
00000000
01010000
00000000
00101000
00000000
00001000
00010000
,  // measure 14
00000000
00000100
00001000
00000001
00000000
00000100
00000010
00000100
,  // measure 15
00001000
00000000
01000000
00000000
00100000
01000000
00010000
10000000
,  // measure 16
00000000
11000000
00000000
10010000
00000000
00000000
00200000
00000000
,  // measure 17
00301000
00100000
00000000
01000000
00100000
00000000
00010000
00000000
,  // measure 18
01000000
00000000
00100000
00000000
00010000
00000000
00100000
00000000
00000000
00000000
01000000
00000000
00100000
10000000
00100000
00000000
,  // measure 19
01000000
00000000
00010000
00000000
10000000
00000000
00100000
01000000
,  // measure 20
00100000
10000000
10000000
00000000
01000000
00100000
00001000
00010000
,  // measure 21
00001000
00100000
00100000
00000000
00001000
00010000
00000100
00010000
,  // measure 22
00001000
00000000
00010000
00000010
00001000
00000010
00000100
00000001
,  // measure 23
00001000
00000001
00000100
00000000
00001000
00000000
00000100
00000010
,  // measure 24
00001000
00000100
00001000
00000000
00000100
00010000
00001000
00010000
,  // measure 25
00000010
00000000
00000100
00000000
00000010
00000000
00000100
00001000
,  // measure 26
00000000
00010000
00000000
01000000
00000000
00110000
00000000
00010000
,  // measure 27
10010000
00000000
10000000
00000000
00100000
01000000
00100000
00000000
,  // measure 28
10000000
01000000
00100000
00010000
00010000
00100000
00001000
00010000
,  // measure 29
00000100
00000000
00001000
00000100
00001000
00000010
00000100
00000001
,  // measure 30
00000000
00000001
00000010
00000200
00000000
00001000
00001300
00000000
,  // measure 31
00001100
00000000
00010100
00000000
00110000
00000000
01000000
10000000
,  // measure 32
00100000
10000000
00010000
00000000
01000000
00010000
01000000
10000000
,  // measure 33
01000000
00000000
01000000
00100000
01000000
00010000
00200000
00002000
,  // measure 34
00000000
00303000
00101000
00011000
,  // measure 35
00010100
00000000
00001000
00000010
00000100
00000001
00000010
00001000
,  // measure 36
00000000
00000010
00000100
00001000
00000000
00001000
00000100
00010000
,  // measure 37
00000100
00010000
00001000
01000000
00100000
10000000
01000000
00100000
,  // measure 38
00000000
00010000
01000000
00000000
00001000
00010000
00001000
00000000
,  // measure 39
00011000
00000000
00000010
00000100
00000001
00000100
00000010
00001000
,  // measure 40
00000100
00010000
00001000
00010000
00000000
00001000
00010000
01000000
,  // measure 41
20000000
00000000
32000000
00000000
13000000
00010000
00100000
00001000
,  // measure 42
00010000
00000000
00001000
00000000
00000100
00000000
00000002
00000000
00000000
00000000
00000000
00000000
00000000
00000010
00000000
00000013
,  // measure 43
00000001
00000000
00001001
00000000
00011000
00000000
00001000
00200000
,  // measure 44
00000000
00320000
00000000
01030000
00100000
10000000
00000000
01000000
,  // measure 45
10000000
00010000
00100000
00001000
00100000
00010000
01000000
00100000
,  // measure 46
00000000
10100000
00000000
01010000
00000000
10000000
01000000
00100000
,  // measure 47
00010000
00000000
10010000
00000000
00011000
00000000
00010000
00000200
,  // measure 48
00000000
00002300
00000000
00003020
00000000
00000130
00001000
00010000
,  // measure 49
00100000
00000000
01000000
00100000
01000000
00010000
10000000
01000000
,  // measure 50
00000000
20000000
00000000
32000000
00100000
03100000
00010000
00000000
,  // measure 51
10010000
00000000
00011000
00000000
00001001
00000000
00000100
00000010
,  // measure 52
00000000
00000100
00001000
00010000
00000000
00001000
00011000
00000000
,  // measure 53
01000000
00010000
00100000
00010000
01000000
00010000
10000000
00010000
,  // measure 54
00000000
00100000
01000000
00010000
00000000
00010000
00001000
00000010
,  // measure 55
00000001
00000100
00000001
00001000
00000100
00001000
00000000
00000020
,  // measure 56
00000000
00000230
00000000
00000302
00000000
00000013
00000000
00001100
,  // measure 57
00000000
00000100
00010000
00000100
00010000
00001000
00000000
00010000
,  // measure 58
00000000
00000000
00000010
00000000
00000100
00000000
00000001
00000000
00001000
00000100
00001000
00000000
00000010
00000100
00000010
00000000
,  // measure 59
00001000
00000000
00000011
00000000
00001010
00000000
00000100
00000002
,  // measure 60
00000000
00000013
00000100
00001000
00000000
00000100
00010000
00001000
,  // measure 61
01000000
00000000
01010000
00000000
00101000
00000000
00001000
00100000
,  // measure 62
00001000
00010000
00000100
00001000
00000000
00001000
00000100
00000000
,  // measure 63
00020000
00000000
02030000
00000000
23000000
00000000
30010000
01000000
,  // measure 64
00000000
00010000
10000000
01000000
00000000
10000000
01000000
00100000
,  // measure 65
00020000
00000000
02030000
00000000
03100000
10000000
00010000
00100000
,  // measure 66
00000000
00000000
00011000
00000000
00000000
00000000
00011000
00000000
00000000
00000000
00100000
00000000
00001000
00010000
00001000
00000000
,  // measure 67
00100000
00001000
00010000
00000010
00000100
00000010
00001000
00000100
,  // measure 68
00000001
00000100
00001000
00001100
00000000
00000000
00000000
00000000
;

//---------------dance-double - ----------------
#NOTES:
     dance-double:
     :
     Medium:
     6:
     0.425,0.444,0.325,0.220,0.000:
00000000
00000000
00000000
00000000
,
00000000
00000000
00000000
00000000
,
00000000
00000000
00000000
00000000
,
00000000
00000000
00000000
00000000
00000000
00010000
00001000
00010000
,
00001000
00000000
00100000
00000000
00001000
00000000
00000000
00010000
,
00000000
00000100
00000000
00001000
00000000
00000001
00000000
00000001
,
00000100
00000000
00000010
00000000
00001001
00000000
00000000
00000200
,
00000000
00020300
00000000
00032000
00000000
00103000
00010000
00000000
,
00010000
01000000
00010000
00000000
10010000
00000000
00000000
10000000
,
00000000
00010000
00000000
01000000
00000000
00001000
00100000
00000000
,
00010000
00100000
00010000
00000000
01010000
00000000
00000000
00001000
,
00000000
00100000
00000000
00001000
00000000
00010000
00001000
00000000
,
00010000
00000010
00000100
00000000
00001001
00000000
00000000
00000010
,
00000000
00001000
00000000
00000010
00000000
00001000
00000100
00020000
,
00001000
00000000
00001000
00000000
00031000
00000000
01000000
00200000
,
00000000
01000000
00000000
01300000
00000000
00000000
10010000
00000000
,
10000000
00010000
00000000
01000000
00010000
00000000
00100000
00000000
,
01000000
00000000
01000000
10000000
00000000
00010000
20010000
00000000
,
30100000
01000000
00001000
00010000
,
00001000
00000000
00000100
00000000
00000010
00001000
00000001
00000000
,
00000000
00000010
00000100
00000000
00000110
00000000
00001000
00000000
,
00000010
00000000
00001000
00000000
00000001
00000100
00000010
00000000
,
00001000
00000100
00010000
00010000
,
00001000
00000000
00100000
00000000
00010000
01000000
10000000
00000000
,
00000000
01000000
00100000
00000000
10100000
00000000
00010000
01000000
,
00000000
00010000
00000000
00100000
00000000
00002000
00000000
00013000
,
00001000
00010000
00000010
00000100
,
00000001
00000000
00000100
00000000
00000010
00000100
00000010
00001000
,
00000100
00010000
00001000
00100000
,
00001000
00000000
00010000
00000100
00000000
00000000
00010100
00000000
,
00001000
00100000
01000000
10000000
,
00010000
00000000
00100000
00000000
00010000
00100000
00010000
00100000
,
00001000
00000000
00010000
00000000
00000100
00000000
00001000
00000002
,
00000000
00000003
00000011
00000110
,
00001100
00000000
00000010
00000000
00000100
00000000
00000010
00001000
,
00000000
00000100
00000000
00000100
00000000
00000000
00010000
00000000
,
00000010
00000000
00001000
00000000
00000100
00000000
00001000
00010000
,
00000000
00100000
00010000
00000000
10000000
01000000
01000000
00000000
,
10000000
00010000
02000000
00100000
,
03010000
00000000
10000000
01000000
00010000
00000000
00001000
00000000
,
00000010
00000001
00000100
00001000
,
00000100
00000000
00000020
00002000
00000000
00000000
00003030
00000000
,
00001001
00000000
00000110
00000000
00001001
00000000
00000000
00010000
,
00000000
00001000
00000000
01000000
00000000
00100000
00000000
00000000
,
11000000
00000000
10010000
00000000
01010000
00000000
00000000
10000000
,
00000000
01000000
00000000
00100000
00000000
00010000
00000000
00000000
,
00011000
00000000
00001100
00000000
00000110
00000000
00000000
00001000
,
00000000
00000001
00000000
00000100
00000000
00000010
00000000
00001000
,
00000100
00000000
00001100
00000000
00010100
00000000
00000000
00001000
,
00000000
00100000
00000000
01000000
00000000
10000000
00000000
00000000
,
10010000
00000000
00011000
00000000
00001001
00000000
00000001
00000010
,
00000000
00000000
00000100
00001000
00000000
00010000
00100000
00000000
,
00010000
00100000
00010000
00100000
00010000
00100000
00000000
01000000
,
00000000
20000000
00000000
30020000
00000000
01030000
00000000
00000000
,
01010000
00000000
00101000
00000000
01010000
00000000
00000000
00001000
,
00000000
00010000
00000000
00001000
00000000
00100000
00000000
00010000
,
00000000
00000000
10000000
00000000
00100000
01000000
00000000
00010000
,
00000000
00100000
00001000
00010000
00011000
00000000
00011000
00000000
,
00010200
00000000
00020300
00000000
00032000
00000000
00013000
00000100
,
00000000
00000000
00001000
00000001
00000000
00000001
00001000
00000000
,
00001002
00000000
00000203
00000000
00000320
00000000
00001030
00000100
,
00000000
00000000
00010000
00001000
00000000
00001000
00100000
00000000
,
21000000
00000000
32000000
00000000
03020000
00000000
00031000
00000100
,
00000000
00000000
00000100
00000001
00000000
00000010
00000001
00000000
,
00000021
00000000
00000230
00000000
00002300
00000000
00003100
00010000
,
00000000
00001000
00000000
00010000
00000000
00000000
00011000
00000000
,
00000000
00100000
00000000
00000000
00100000
00000000
00001000
00000000
,
00001000
00000000
00010000
00011000
00000000
00000000
00000000
00000000
;

//---------------dance-double - ----------------
#NOTES:
     dance-double:
     :
     Easy:
     4:
     0.293,0.385,0.193,0.317,0.000:
00000000
00000000
00000000
00000000
,
00000000
00000000
00000000
00000000
,
00000000
00000000
00000000
00000000
,
00000000
00000000
00000000
10000000
,
10010000
00000000
01000000
00000000
,
01000000
00000000
00010000
00100000
,
00010000
00000000
00000000
00000000
,
00100000
00000000
00001000
00010000
,
00012000
00023000
00032000
00003000
,
00010000
00000000
00000010
00000100
,
00000102
00000203
00000302
00000003
,
00001000
00000000
00000100
00010000
,
00020100
00030200
00020300
00030000
,
00001000
00000000
00100000
00001000
,
00120000
00230000
00320000
00030000
,
10000000
00000000
00010000
10010000
,
00000000
01000000
00000000
00100000
,
01000000
00000000
00010000
00200000
,
00301000
00000000
00010000
00000000
,
00000010
00000000
00000100
00000100
,
00000001
00000000
00001000
00000000
,
00000010
00000000
00001000
00001000
,
00000100
00000000
00010000
00000000
,
00000100
00010000
00001000
00000000
,
01000000
00010000
01000000
00000000
,
00020000
00000000
00030000
00110000
,
00001000
00000000
00100000
00000000
,
00010000
01000000
00100000
00000000
,
00010000
00000000
00001000
00000000
,
00010000
00000010
00000200
00000000
,
00000301
00000000
00001000
00000000
,
00000100
00010000
00000100
00000000
,
00001000
00000000
00000100
00020000
,
00002000
00000000
00033000
00110000
,
11000000
00000000
00010000
00000000
,
01000000
00000000
00010000
00100000
,
00001000
00000000
00010000
00000000
,
00100000
00000000
00010000
00001000
,
00000100
00000000
00000010
00000000
,
00002000
00000000
00003001
00000001
,
00000010
00000000
00000100
00000010
,
00000001
00000000
00002001
00000000
,
00003010
00000110
00000110
00000000
,
00010000
00000000
00001000
00000000
,
00100000
00010000
00100000
00000000
,
02000000
00000000
23000000
00000000
,
30010000
10010000
10010000
00000000
,
00010000
00000000
00100000
00001000
,
00010000
00001000
00000100
00000000
,
00000010
00000100
00000010
00000100
,
00001000
00011000
00011000
00000000
,
00200000
00000000
02300000
00000000
,
13000000
00100000
10000000
00000000
,
00010000
10000000
00010000
00000000
,
10000000
00100000
00010000
00000000
,
00001000
00000100
00000001
00000000
,
00001000
00000000
00000001
00000000
,
00000200
00000000
00000310
00000110
,
00001002
00002003
00003002
00000003
,
00001000
00000000
00000010
00010000
,
00010020
00020030
00030020
00000030
,
00100000
00010000
01000000
00000000
,
20100000
30200000
20300000
30000000
,
00010000
00100000
00001000
00010000
,
00020100
00030200
00020300
00030000
,
00000100
00000100
00000100
00011000
,
00100000
00000000
00010000
10000000
,
00010000
00000000
00000000
00100000
00000000
00000000
00000000
00000000
;
