#TITLE:Last of "I Love You";
#SUBTITLE:;
#ARTIST:spinning cokes;
#TITLETRANSLIT:;
#SUBTITLETRANSLIT:;
#ARTISTTRANSLIT:;
#GENRE:;
#CREDIT:;
#MENUCOLOR:;
#METERTYPE:DDR;
#BANNER:Last of 'I Love You'-bn.png;
#BACKGROUND:Last of 'I Love You'-bg.png;
#LYRICSPATH:;
#CDTITLE:TUNE STREET-cdtitle.png;
#MUSIC:Last of 'I Love You'.mp3;
#OFFSET:-0.640;
#SAMPLESTART:47.280;
#SAMPLELENGTH:10.680;
#SELECTABLE:YES;
#LISTSORT:;
#BPMS:0.000=180.000;
#STOPS:;
#BGCHANGES:;
#ATTACKS:;

//---------------dance-single - ----------------
#NOTES:
     dance-single:
     :
     Hard:
     8:
     0.589,0.621,0.379,0.258,0.000:
0000
0000
0000
0000
,
0000
0000
0000
0000
,
0000
0000
0000
0000
,
0000
0000
0000
0000
0000
0001
0010
0100
,
1200
0320
2030
3020
,
0031
0100
0001
1000
0000
0010
0100
0001
,
0021
0000
0230
0000
2300
0000
3001
0100
,
0011
0001
0000
1100
0010
0000
1001
0100
,
0000
0110
0001
0000
1100
0000
1001
0000
,
0010
0100
0010
0000
1000
0100
1000
0000
,
0001
0010
0200
0000
1000
0000
0310
0100
,
1000
0000
0001
0100
0000
0010
1000
0000
,
0001
0000
0100
0000
0001
0010
0001
0000
,
1001
0010
0101
1000
,
0100
1000
0010
0100
0010
0000
1000
0000
,
0001
0010
0000
0001
0010
0000
0100
1000
,
0000
0100
1000
0000
1001
0000
0110
0000
,
1000
0100
1000
0000
0001
0000
0100
0010
,
0200
0000
0001
0000
1300
0100
0010
0000
,
0100
0000
0001
1000
0001
0000
1000
0000
,
0001
0010
0002
0000
0100
0000
0013
0001
,
1000
0001
0000
0101
0000
1000
0100
2000
,
0000
3100
0000
1100
0000
1000
0010
0100
,
0010
0100
0000
0001
0100
0000
0010
0100
,
0000
0001
0100
0010
2000
0000
3010
0000
,
0100
0000
0001
0000
1000
0000
0010
1000
,
0100
0000
1000
0000
0001
0010
0001
0010
,
0100
0000
1000
0000
0010
0100
0010
1000
,
0000
0001
1000
0001
0010
0000
0001
0000
,
1000
0001
0100
0020
0000
0000
1030
0000
,
0001
0100
1000
0200
0000
0000
0310
0000
,
1000
0100
1000
0000
0001
0100
0001
0000
,
0001
0010
0001
0000
1000
0010
1000
0000
,
0100
0010
0100
0010
0001
0100
0001
1000
,
0100
1100
1010
1001
,
0020
0000
1030
0100
0020
0000
0031
0000
,
0100
0001
1000
0010
,
0100
0000
1000
0000
0100
0000
0010
0100
,
0001
0000
1000
0000
0010
1000
0010
0100
,
0000
0110
0000
0110
0000
0100
0001
0100
,
0000
0110
0000
0110
0000
1000
0100
0010
,
0100
0010
0002
1000
,
0103
0001
0100
0001
1000
0001
0100
0000
,
0002
0000
1003
0100
0002
0000
0103
0000
,
0010
0001
1000
0100
,
1000
0100
1000
0000
0010
0100
0010
1000
,
0001
0000
0010
0000
0001
0100
0001
0100
,
0000
1001
0000
1001
0000
0010
0100
0010
,
0000
1001
0000
1001
0000
0010
1000
0100
,
0020
0000
0031
0000
0100
0001
0100
0000
,
0010
1000
0001
0100
,
0001
0100
0000
0010
1000
0000
0100
1000
,
0000
0001
0100
0000
0002
0000
0023
0000
,
0130
0010
0000
0100
0001
0000
0100
1000
,
0000
0010
0100
0000
0001
0000
1000
0000
,
1100
0001
0000
0101
1000
0000
0110
0001
,
0000
1001
0100
0000
0020
0000
2030
0000
,
3100
1000
0100
1000
0010
0100
0010
2000
,
0000
3001
0010
0200
0000
0310
0100
1000
,
0001
0100
0001
0100
0001
0010
0001
0010
,
0001
1000
0100
0010
0000
0001
0100
0010
,
1000
0100
1000
0100
1000
0010
1000
0010
,
0100
0010
1000
0001
0000
0010
0001
0100
,
0020
0000
1030
0200
0000
1300
0000
1001
,
0000
0100
0001
1000
0000
0100
1000
0010
,
0100
0001
0100
0010
1000
0010
0100
0010
,
0100
0001
1000
0001
1010
0000
1001
0000
,
1000
0000
0010
0100
0000
0001
0100
0000
,
0010
1000
0000
0100
1000
0001
0100
0010
,
0000
1000
0100
0000
1000
0001
0100
0001
,
1000
0100
1000
0001
0100
0010
0100
0002
,
0010
0100
1003
1001
,
2000
0100
0010
3001
,
0200
0010
1000
0301
,
0101
1001
1100
1001
,
1000
0100
0000
0010
0100
0000
1000
0001
,
0000
0100
0001
0000
1001
0000
0110
0000
,
0001
0010
0000
0001
0100
0000
0010
1000
,
0000
1000
0100
0000
0110
0000
1001
0000
,
0110
0001
0000
1010
0100
0000
1100
0001
,
0000
0101
0010
0000
1100
0000
1001
0000
,
1000
0100
0010
0001
0100
0001
0100
2000
,
0000
0000
0000
0000
,
0000
0000
0000
0000
,
0000
0000
0000
0000
,
0000
0000
3000
0000
;

//---------------dance-single - ----------------
#NOTES:
     dance-single:
     :
     Medium:
     5:
     0.355,0.463,0.258,0.121,0.000:
0000
0000
0000
0000
,
0000
0000
0000
0000
,
0000
0000
0000
0000
,
0000
0000
0000
1000
,
0101
1100
0101
1100
,
0010
0100
0001
1000
,
0011
1010
0011
1010
,
0001
0000
0000
0100
0000
0000
0010
0000
,
0000
1000
0000
0000
0100
0000
1001
0000
,
0010
0100
0001
1000
,
0100
1000
0010
0010
,
0100
0000
0001
0010
0000
0001
0000
0200
,
0000
0000
0300
0010
,
0100
0001
1000
0100
,
1000
0010
0100
0001
,
1000
0000
0000
1000
0000
0000
0100
0000
,
0000
0100
0000
0000
0010
0000
0011
0000
,
0001
0100
0001
1000
,
0010
0100
0001
0010
,
0100
0000
1000
0100
0000
1000
0000
0020
,
0000
0000
0030
0100
,
0001
0100
0000
0001
0000
0000
1000
0000
,
0100
1000
0000
0100
0000
0000
0010
0000
,
0100
0000
0000
0010
0000
0000
0001
0000
,
0000
1000
0000
0000
0010
0000
0100
0000
,
0001
1000
0100
1000
,
0010
0100
0010
0100
,
0001
0000
1000
0100
,
0010
0000
0100
0000
,
2000
0000
0000
3100
0000
0000
0000
0000
,
0002
0000
0000
0103
0000
0000
0000
0000
,
1000
0010
0100
0001
,
0010
0100
0100
1000
,
0002
0000
0000
0103
,
0101
1100
1010
0011
,
1001
0000
0000
0100
0010
0000
0100
0000
,
0001
1000
1000
0000
,
0010
0000
1000
0000
2000
0000
0000
3010
,
0000
0000
0000
0000
0100
0001
0000
0002
,
0000
0000
0000
1003
0000
1000
0000
0200
,
0000
0000
0000
0310
0000
0010
0000
0001
,
0010
0100
1100
0000
,
0101
0011
1010
1100
,
1001
0000
0000
0100
0010
0000
0100
0000
,
0001
1000
0100
0000
,
0010
0000
0001
0000
0002
0000
0000
0013
,
0000
0000
0001
0000
1000
0100
0000
0200
,
0000
0000
0000
0310
0000
0100
0000
2000
,
0000
0000
0000
3001
0000
0001
0000
0200
,
0000
0000
0000
0310
0000
0000
0000
0000
,
1001
1001
0010
0100
,
0001
0000
0000
0100
0000
0000
1000
0000
,
0000
0100
0000
0000
0010
0000
0100
0000
,
0001
0000
0000
1000
0000
0000
0100
0000
,
0000
0100
0000
0000
0010
0000
0100
0000
,
1000
0000
0000
0001
0000
0000
0100
0000
,
0000
0001
0000
0000
1000
0000
0100
0000
,
1000
0000
0000
0001
0000
0000
0100
0000
,
0220
0000
0000
0330
,
1000
0100
1000
0100
,
0010
0001
0000
0100
,
0001
0010
0001
0010
,
0100
1000
0000
0010
,
0100
0010
0100
0001
,
0010
0100
1000
0001
,
0100
0000
0000
0001
0000
0000
0100
0000
,
0000
0010
0000
0000
1000
0000
1000
0000
,
0001
0010
0001
0010
,
0100
1000
0010
0100
,
0010
1000
0100
0010
,
0001
0100
0010
0100
,
1001
0100
0100
0000
,
1001
0010
0010
0000
,
1000
0001
0010
0001
,
0200
0010
0010
0310
,
0001
0000
0000
0100
0000
0000
0010
0000
,
0000
1000
0000
0000
0100
0000
0100
0000
,
1000
0000
0000
0010
0000
0000
0100
0000
,
0000
0001
0000
0000
1000
0000
1000
0000
,
0110
0000
0000
0101
0000
0000
1010
0000
,
0000
1100
0000
0000
1001
0000
1001
0000
,
0010
0000
0000
1000
0000
0000
0100
0001
;

//---------------dance-single - ----------------
#NOTES:
     dance-single:
     :
     Easy:
     4:
     0.288,0.330,0.113,0.137,0.000:
0000
0000
0000
0000
,
0000
0000
0000
0000
,
0000
0000
0000
0000
,
0000
0000
0000
0000
,
0001
0001
0001
0001
,
1000
0100
0100
0000
,
1000
1000
1000
1000
,
0010
0100
0010
0100
,
0001
0000
0001
0000
,
1000
0100
0010
0000
,
0100
0010
0001
0000
,
0100
0001
0100
0000
,
0010
0000
1000
0000
,
0100
1000
0100
0000
,
1000
0000
0010
0000
,
0100
0000
0001
0000
,
0010
0100
1000
0100
,
0010
0000
0100
0000
,
0001
0000
0100
0000
,
1000
0010
0100
0001
,
1000
0000
0001
0000
,
0020
0000
0130
0000
,
2000
0000
3100
0000
,
1000
0000
0001
0000
,
0100
0010
0100
0000
,
1001
0000
0001
0000
,
0020
0000
0030
0000
,
0100
0000
1000
0100
,
0200
0000
1300
0000
,
0001
0100
0001
0000
,
1000
0100
1000
0000
,
0010
0000
1000
0000
,
0001
0010
0100
1000
,
0001
0000
1000
0000
,
0100
0100
0100
0100
,
1001
0000
0010
0000
,
0100
0010
0100
0000
,
0001
0000
0010
0001
,
1000
0000
0100
1000
,
1100
0000
0001
0100
,
0101
0000
0010
0100
,
0020
0000
1000
0030
,
0010
0010
0010
0010
,
1001
0000
0100
0010
,
1000
0000
0001
0000
,
0010
0001
0010
0100
,
0010
0000
0100
1000
,
1100
0000
0001
0010
,
0011
0000
0001
0100
,
0002
0000
1000
0003
,
0001
0000
0100
0010
,
2000
0000
0100
0000
,
0001
0000
3100
1000
,
0002
0000
0100
0000
,
0010
0000
1003
0001
,
0200
0000
0010
0000
,
0001
0000
0310
0100
,
0020
0000
1000
0000
,
0200
0000
0000
0330
,
0001
0001
1000
1000
,
0010
0000
1000
0000
,
0010
0010
0100
0100
,
0001
0000
0100
0000
,
0001
0010
0100
1000
,
0001
0010
0100
1000
,
0002
0000
2000
0003
,
0020
3000
0200
0330
,
0001
1000
0100
0000
,
1000
0010
0100
0001
,
0010
0000
0100
1000
,
0010
0000
0100
0001
,
0001
0010
1000
0000
,
1000
0010
0001
0000
,
0100
0010
0100
0001
,
2000
0000
0200
3300
,
1001
0000
0010
0000
,
0101
0000
1000
0001
,
0110
0000
1000
0000
,
1100
0000
0010
0100
,
1010
0001
0001
0100
,
0010
0100
1001
1001
,
0100
0010
0100
0010
;

//---------------dance-single - ----------------
#NOTES:
     dance-single:
     :
     Beginner:
     1:
     0.135,0.197,0.056,0.169,0.000:
0000
0000
0000
0000
,
0000
0000
0000
0000
,
0000
0000
0000
0000
,
0000
0000
0000
0000
,
0010
0010
0010
0000
,
0100
0000
0000
0000
,
1000
1000
1000
0000
,
0002
0000
0003
0000
,
0200
0000
0300
0000
,
1001
0000
0000
0000
,
0010
0000
0000
0000
,
0100
0000
0100
0000
,
0100
0000
0000
0000
,
0001
0000
0000
0000
,
1000
0000
0000
0000
,
0200
0000
0000
0000
,
0000
0000
0300
0000
,
0110
0000
0000
0000
,
1000
0000
0000
0000
,
0001
0000
0001
0000
,
0001
0000
0000
0000
,
0011
0000
0000
0000
,
1100
0000
0000
0000
,
0020
0000
0000
0000
,
0000
0000
0030
0000
,
1000
0000
0100
0000
,
1000
0000
0000
0000
,
0001
0000
0100
0000
,
0001
0000
0000
0000
,
2000
0000
3000
0000
,
0002
0000
0003
0000
,
0100
0000
0000
0000
,
0100
0000
0010
0000
,
0100
0000
0000
0000
,
0010
0010
0010
0010
,
0010
0000
0000
0000
,
0000
0000
1000
0000
,
1000
0000
0000
0000
,
0001
0000
0000
0000
,
0200
0000
0300
0000
,
0020
0000
0030
0000
,
2000
0000
3000
0000
,
0001
0001
0001
0001
,
0001
0000
0000
0000
,
0000
0000
0100
0000
,
0010
0000
0000
0000
,
1000
0000
0000
0000
,
0020
0000
0030
0000
,
0200
0000
0300
0000
,
0002
0000
0003
0000
,
1000
0000
0010
0000
,
2002
0000
0000
0000
,
0000
0000
0000
0000
,
0000
0000
0000
0000
,
3003
0000
0100
0000
,
0220
0000
0000
0000
,
0000
0000
0000
0000
,
0000
0000
0000
0000
,
0330
0000
0000
0000
,
0001
0000
0001
0000
,
0100
0000
0000
0000
,
1000
0000
1000
0000
,
0100
0000
0000
0000
,
1000
0000
0000
0000
,
0010
0000
0000
0000
,
0220
0000
0000
0000
,
0000
0000
0330
0000
,
0001
0000
0000
0000
,
0010
0000
0100
0000
,
0100
0000
0000
0000
,
1000
0000
0010
0000
,
0100
0000
0000
0000
,
0010
0000
0000
0000
,
0100
0000
0000
0000
,
0001
0000
1000
0000
,
0002
0000
0000
0000
,
0000
0000
0003
0000
,
2000
0000
0000
0000
,
0000
0000
3000
0000
,
0020
0000
0000
0000
,
0000
0000
0030
0000
,
1000
0000
1000
0000
;

//---------------dance-double - ----------------
#NOTES:
     dance-double:
     :
     Hard:
     8:
     0.582,0.562,0.323,0.323,0.000:
00000000
00000000
00000000
00000000
,
00000000
00000000
00000000
00000000
,
00000000
00000000
00000000
00000000
,
00000000
00000000
00000000
00000000
00001000
00000001
00000010
00000100
,
00002000
00003200
00020300
00030020
,
00000130
00000000
00000010
00000001
00000000
00000001
00000010
00000100
,
00000002
00002003
00003200
00020300
,
00031000
00100000
00000000
00010000
01000000
00000000
00100000
10000000
,
00000000
10000000
01000000
00000000
10010000
00000000
00110000
00000000
,
00101000
00000000
00010000
00001000
00010000
00000200
00000000
00010300
,
00000100
00000000
00001000
00000010
00010000
00000200
00000000
00001300
,
00000100
00010000
00001000
00100000
00010000
00000000
10000000
01000000
,
00100000
00000000
00110000
00000000
10000000
00000000
10000000
00010000
,
00100000
00000000
00011000
00000000
00000100
00001000
00010000
01000000
,
10000000
00000000
00010000
00000000
00100000
00001000
00010000
00000000
,
00001000
00000100
00000000
00000100
00000001
00000000
00000001
00000010
,
00000000
00000010
00001000
00000000
00010000
00000000
00011000
00000000
,
00000100
00001000
00000100
00020000
00000000
00031000
00010000
00000000
,
00001000
00100000
00010000
20000000
00000000
31000000
00100000
00000000
,
00010000
00000100
00000010
00001000
00000100
00000010
00000100
00000000
,
00001000
00000000
00001100
00000000
00000001
00000100
00000001
00000100
,
00000000
00000020
00000000
00002030
00000000
00003100
00001000
00000100
,
00000000
00020000
00000000
00032000
00100000
00000000
00013000
00000000
,
00100000
00010000
00100000
01000000
10000000
00100000
01000000
00000000
,
00010000
00000000
00110000
00000000
10000000
01000000
11000000
00000000
,
00200000
00000000
02300000
00000000
00100000
00000000
03010000
01000000
,
00010000
00000000
00100000
00000000
00001000
00010000
01000000
00100000
,
00010000
00000000
00100000
00000000
00001000
00010000
00000100
00001000
,
00000000
00000000
00000010
00000000
00000100
00000010
00000100
00000000
,
00000001
00000010
00000100
00001000
00000000
00000000
00000000
00000000
,
10000000
01000000
00100000
00010000
00000000
00000000
00000000
00000000
,
00002000
00000000
00100000
00000000
00013000
00001000
00010000
00000000
,
00000100
00000000
00001000
00000000
00000010
00000100
00001000
00010000
,
01000000
10000000
00010000
00100000
,
00110000
01010000
00011000
00001010
,
00001001
00000000
00000100
00010000
00001000
00000000
00110000
00000000
,
00001000
00000000
01000000
00010000
00100000
00100000
01000000
00000000
,
10000000
00010000
00100000
00000000
00001000
00010000
00000100
00001000
,
00000100
00000000
00010000
00000000
00001000
00000100
00000000
00000001
,
00000000
00001010
00000000
00000101
00000000
00000001
00000010
00001000
,
00000000
00011000
00000000
01010000
00000000
01000000
10000000
01000000
,
10000000
00000000
10010000
00000000
01000000
00100000
01000000
00010000
,
00100000
00101000
00010100
00011000
,
00000010
00000000
00001000
00000100
00010000
00000000
00000100
00000000
,
00000010
00000001
00000100
00000000
00000010
00010000
00000100
00000000
,
00011000
00000000
00100000
00000000
00010000
00100000
00010000
01000000
,
00100000
00000000
00100000
00000000
10000000
00100000
10000000
00100000
,
00000000
00110000
00000000
00011000
00000000
00001000
00000100
00001000
,
00000000
00001100
00000000
00000101
00000000
00000010
00001000
00000010
,
00000000
00001000
00000100
00010000
00000000
00001000
00100000
00000000
,
00001000
00000000
00011000
00000000
10000000
01000000
00100000
00010000
,
01000000
00010000
00000000
01000000
00010000
00000000
00100000
00001000
,
00000000
00010000
00001000
00000000
00010000
00000000
00011000
00000000
,
00000100
00001000
00000000
00000010
00001000
00000000
00000010
00000100
,
00000000
00000001
00000100
00000000
00000011
00000000
00001100
00000000
,
00000010
00001000
00000100
00010000
00001000
00010000
01000000
10000000
,
00100000
01000000
00100000
00000000
10000000
01000000
00100000
00000000
,
01000000
00100000
00001000
00010000
00000010
00000100
00000010
00002000
,
00000000
00003100
00010000
00002000
00000000
00103000
00010000
00000000
,
00200000
00320000
00032000
00003200
,
00001300
00010000
01000000
00100000
00000000
10000000
00100000
00000000
,
02000000
03020000
00230000
00302000
,
00003100
00000010
00000100
00000001
00000000
00001000
00000100
00000000
,
00001000
00000000
00000010
00000200
00000000
00000320
00000000
00001030
,
00000100
00010000
00000100
00001000
,
00000100
00010000
00000000
00001000
00010000
00000000
00001000
00100000
,
00000000
00010000
01000000
00000000
10010000
00000000
01100000
00000000
,
00020000
00000000
00130000
00002000
00000000
00013000
00000200
00000000
,
00001300
00000020
00000000
00000130
00000001
00000010
00000001
00002000
,
00000000
00003100
00020000
00000000
00031000
00010000
01000000
10000000
,
00100000
01000000
00010000
00100000
00010000
10000000
00000000
00200000
,
00000000
01300000
00010000
01000000
00010000
00100000
00000000
00002000
,
00000000
00013000
00000100
00001000
00000100
00001000
00000000
00000020
,
00000000
00000130
00000010
00000100
00000001
00000010
00000000
00000001
,
00000000
00001000
00001000
00000100
00010000
00000000
00001000
00100000
,
01000000
10000000
00000000
10000000
00100000
00000000
00100000
01000000
,
00000000
00010000
00100000
00000000
00011000
00000000
00011000
00000000
,
00001000
00000100
00000000
00000100
00000001
00000000
00000001
00000010
,
00000000
00000001
00001000
00000000
00011000
00000000
00011000
00000000
,
00010000
00100000
00000000
00100000
01000000
00000000
00100000
10000000
,
00000000
10000000
00010000
00000000
00011000
00000000
00011000
00000000
,
00000100
00010000
00000000
00000100
00001000
00000000
00001000
00010000
;

//---------------dance-double - ----------------
#NOTES:
     dance-double:
     :
     Medium:
     5:
     0.364,0.463,0.097,0.186,0.000: // measure 1
00000000
00000000
00000000
00000000
,  // measure 2
00000000
00000000
00000000
00000000
,  // measure 3
00000000
00000000
00000000
00000000
,  // measure 4
00000000
00000000
00000000
00000000
00000000
10000000
01000000
00000000
,  // measure 5
00200000
00320000
00230000
00302000
,  // measure 6
00013000
00000000
00000100
00001000
00000000
00000100
00001000
00000000
,  // measure 7
00000020
00000230
00000302
00000023
,  // measure 8
00000031
00000000
00000000
00001000
00000000
00000000
00000100
00000000
,  // measure 9
00000000
00010000
00000000
00000000
00000100
00000000
00000100
00000000
,  // measure 10
00001000
00000010
00001000
00000100
,  // measure 11
00010000
00001000
00100000
01000000
,  // measure 12
10000000
00010000
01000000
00100000
,  // measure 13
20000000
00010000
30010000
00100000
,  // measure 14
00001000
00010000
00100000
00010000
,  // measure 15
00001000
00010000
00000100
00001000
,  // measure 16
00000100
00000000
00000000
00001000
00000000
00000000
00000010
00000000
,  // measure 17
00000000
00000100
00000000
00000000
00001000
00000000
00000100
00000000
,  // measure 18
00000101
00001000
00001000
00000100
,  // measure 19
00010000
00001000
00010000
00100000
,  // measure 20
10000000
00100000
01000000
00010000
,  // measure 21
00200000
00000000
00001000
00301000
,  // measure 22
00010000
00001000
00000000
00000100
00000000
00000000
00000010
00000000
,  // measure 23
00001000
00000100
00000000
00010000
00000000
00000000
01000000
00000000
,  // measure 24
10000000
00000000
00000000
00010000
00000000
00000000
00100000
00000000
,  // measure 25
00000000
00001000
00000000
00000000
00002000
00000000
00003200
00000000
,  // measure 26
00000301
00000000
00001000
00000000
00000100
00000000
00010000
00001000
,  // measure 27
00010000
00001000
00000100
00000010
,  // measure 28
00001000
00000100
00010000
00001000
,  // measure 29
00100000
00010000
00100000
00000000
01000000
00000000
10000000
00000000
,  // measure 30
00010000
00000000
00000000
01100000
00000000
00000000
10000000
00000000
,  // measure 31
00010000
00000000
00000000
01010000
00000000
00000000
00010000
00000000
,  // measure 32
10000000
00100000
00100000
01000000
,  // measure 33
00010000
00100000
00001000
00010000
,  // measure 34
00001000
00000020
00000001
00000031
,  // measure 35
00001001
00001001
00001100
00001100
,  // measure 36
00010000
00001000
00100000
00010000
,  // measure 37
10000000
01000000
00100000
00010000
,  // measure 38
02000000
00000000
00000000
00000000
03020000
00000000
00000000
00230000
,  // measure 39
00000000
00000000
00001000
00000000
00301000
00010000
00000000
00001000
,  // measure 40
00000000
00000000
00000000
00000000
00000000
00001000
00000000
00000100
,  // measure 41
00000000
00000000
00000000
00000000
00000000
00000100
00000000
00000001
,  // measure 42
00000000
00000000
00000200
00001000
,  // measure 43
00000310
00000100
00000010
00001000
,  // measure 44
00001100
00000000
00010000
00001000
00010000
00000000
01000000
00000000
,  // measure 45
10000000
00100000
01000000
00010000
,  // measure 46
20000000
00000000
00000000
00000000
30020000
00000000
00000000
00230000
,  // measure 47
00000000
00000000
00010000
00000000
01300000
00100000
00000000
00010000
,  // measure 48
00000000
00000000
00000000
00000000
00000000
00100000
00000000
00001000
,  // measure 49
00000000
00000000
00000000
00000000
00000000
00010000
00000000
00000100
,  // measure 50
00000000
00000000
00001000
00000100
,  // measure 51
00002200
00003000
00010000
00010300
,  // measure 52
00000100
00001000
00000000
00000100
00001000
00000000
00000100
00000000
,  // measure 53
00010000
00001000
00100000
00100000
,  // measure 54
01000000
10000000
00000000
01000000
10000000
00000000
00010000
00000000
,  // measure 55
01000000
00100000
00010000
00001000
,  // measure 56
00010000
00000100
00000000
00010000
00000100
00000000
00001000
00000000
,  // measure 57
00000010
00000100
00000001
00000001
,  // measure 58
00000010
00000100
00000000
00000010
00000100
00000000
00000100
00002000
,  // measure 59
00000000
00000000
00010000
00003100
,  // measure 60
00010000
00001000
00010000
00001000
,  // measure 61
00100000
00000000
00010000
01000000
00000000
00000000
00100000
00000000
,  // measure 62
10000000
01000000
00100000
00001000
,  // measure 63
00010000
00000000
00001000
01000000
00000000
00000000
00010000
00000000
,  // measure 64
00100000
00000000
00000000
00001000
00000000
00010000
00000000
00000100
,  // measure 65
00000000
00000000
00001000
00000010
,  // measure 66
00000100
00000000
00000000
00000001
00000000
00000000
00000010
00000000
,  // measure 67
00000000
00000100
00000000
00000000
00001000
00000000
00000100
00000000
,  // measure 68
00001000
00000000
00000000
00000010
00000000
00000000
00000100
00000000
,  // measure 69
00000000
00001000
00000000
00000000
00010000
00000000
00000000
01000000
,  // measure 70
00000000
00000000
10000000
00000000
00000000
00100000
00000000
00000000
,  // measure 71
01000000
00000000
00010000
00000000
10000000
00000000
00000000
00010000
,  // measure 72
00000000
00000000
00100000
00000000
00101000
00000000
00000000
00001000
,  // measure 73
00000000
00000000
00010000
00000000
00010100
00000000
00000000
00001000
,  // measure 74
00000000
00000000
00000010
00000000
00000110
00000000
00000000
00000001
,  // measure 75
00000000
00000000
00000010
00000000
00000100
00000000
00010000
00000100
,  // measure 76
00010000
00000000
00000000
00001000
00000000
00000000
00100000
00000000
,  // measure 77
00000000
00001000
00000000
00000000
01000000
00000000
00010000
00000000
,  // measure 78
00001000
00000000
00000000
00000100
00000000
00000000
00000001
00000000
,  // measure 79
00000000
00000010
00000000
00000000
00001000
00000000
00010000
00000000
,  // measure 80
01000000
00000000
00000000
10000000
00000000
00000000
00100000
00000000
,  // measure 81
00000000
01000000
00000000
00000000
00010000
00000000
00100000
00000000
,  // measure 82
00001000
00000000
00010000
00000000
00000010
00000000
00000100
00000001
;

//---------------dance-double - ----------------
#NOTES:
     dance-double:
     :
     Easy:
     4:
     0.311,0.330,0.105,0.081,0.000: // measure 1
00000000
00000000
00000000
00000000
,  // measure 2
00000000
00000000
00000000
00000000
,  // measure 3
00000000
00000000
00000000
00000000
,  // measure 4
00000000
00000000
00000000
01000000
,  // measure 5
11000000
00010000
00100000
00010000
,  // measure 6
01000000
00000000
00001000
00010000
,  // measure 7
00000100
00000100
00001000
00000010
,  // measure 8
00000100
00000000
00000100
00000000
,  // measure 9
00000001
00000010
00000100
00001000
,  // measure 10
00000010
00000100
00000010
00000000
,  // measure 11
00001000
00000100
00010000
00000000
,  // measure 12
00000100
00001000
00000100
00010000
,  // measure 13
00001000
00000000
00100000
00100000
,  // measure 14
01100000
00000000
10000000
00010000
,  // measure 15
01000000
00000000
00010000
00100000
,  // measure 16
00020000
00000000
01000000
00000000
,  // measure 17
10000000
01000000
10030000
10010000
,  // measure 18
00100000
00001000
00010000
00000000
,  // measure 19
00000100
00001000
00001000
00000000
,  // measure 20
00000010
00000100
00000001
00000000
,  // measure 21
00000020
00000000
00000001
00000031
,  // measure 22
00001000
00000100
00001100
00000000
,  // measure 23
00000010
00000100
00000110
00000000
,  // measure 24
00001000
00000010
00010000
00001000
,  // measure 25
00100000
00010000
00010000
01000000
,  // measure 26
00001000
00010000
00001000
00100000
,  // measure 27
00010000
00000000
00100000
00001000
,  // measure 28
00010000
00000010
00000100
00000000
,  // measure 29
00000002
00000000
00001000
00001003
,  // measure 30
00000010
00000100
00000001
00000000
,  // measure 31
00001000
00000010
00000100
00000000
,  // measure 32
00000010
00000000
00001000
00001000
,  // measure 33
00000100
00000000
00010000
00000100
,  // measure 34
00001000
00010000
00100000
01000000
,  // measure 35
10000000
10000000
10000000
00100000
,  // measure 36
20020000
30000000
00200000
00030000
,  // measure 37
00001000
00301000
00100000
00010000
,  // measure 38
00001000
00000000
00000100
00000000
,  // measure 39
00000010
00000100
00001000
00000001
,  // measure 40
00000101
00000000
00001000
00000100
,  // measure 41
00001100
00000000
00000010
00010000
,  // measure 42
00010010
00000000
00002000
00000000
,  // measure 43
00013000
00000100
00001000
00000010
,  // measure 44
00000200
00000000
00002300
00000000
,  // measure 45
00013000
00001000
00100000
01000000
,  // measure 46
10000000
00010000
00010000
00100000
,  // measure 47
01000000
00010000
01000000
10000000
,  // measure 48
11000000
00000000
00010000
00100000
,  // measure 49
00110000
00000000
00001000
00010000
,  // measure 50
00010100
00000000
00000010
00000001
,  // measure 51
00000200
00000000
00000010
00001000
,  // measure 52
00000310
00000000
00001000
00000000
,  // measure 53
00000100
00010000
00000100
00010000
,  // measure 54
00001000
00000000
00100000
00000000
,  // measure 55
00010000
10000000
00010000
10000000
,  // measure 56
01000000
00000000
00100000
00000000
,  // measure 57
00010000
00100000
00010000
00100000
,  // measure 58
00001000
00000000
00010000
00000000
,  // measure 59
00000100
00000100
00010000
00011000
,  // measure 60
00100000
00010000
01000000
00100000
,  // measure 61
10000000
01000000
00000000
00100000
,  // measure 62
00010000
00001000
00000100
00000010
,  // measure 63
00000001
00000100
00000000
00000010
,  // measure 64
00001000
00001000
00000100
00000000
,  // measure 65
00010000
00001000
00001000
00000000
,  // measure 66
00100000
00000000
00001000
00000000
,  // measure 67
00000100
00000001
00001000
00000100
,  // measure 68
00010000
00000000
00001000
00100000
,  // measure 69
00010000
01000000
00100000
10000000
,  // measure 70
10000000
00000000
00010000
01000000
,  // measure 71
10000000
01000000
00010000
00000000
,  // measure 72
00100000
00001000
00010000
00000000
,  // measure 73
00000100
00010000
00001000
00000000
,  // measure 74
00000100
00000001
00000010
00000000
,  // measure 75
00000100
00001000
00010000
00100000
,  // measure 76
01000000
00000000
01000000
00000000
,  // measure 77
10000000
00010000
10000000
00000000
,  // measure 78
00010000
00000000
00001000
00000000
,  // measure 79
00000001
00001000
00000001
00000000
,  // measure 80
00001000
00000000
00010000
00000000
,  // measure 81
10000000
00010000
10000000
00000000
,  // measure 82
00010000
00100000
01000000
10000000
;
