#TITLE:キセキはじまり☆;
#SUBTITLE:;
#ARTIST:達見恵 featured by 佐野宏晃;
#TITLETRANSLIT:Kiseki Hajimari☆;
#SUBTITLETRANSLIT:;
#ARTISTTRANSLIT:Megumi Tatsumi featured by Hiraoki Sano;
#GENRE:;
#CREDIT:;
#MENUCOLOR:;
#METERTYPE:DDR;
#BANNER:Kiseki Hajimari-bn.png;
#BACKGROUND:Kiseki Hajimari-bg.png;
#LYRICSPATH:;
#CDTITLE:TUNE STREET-cdtitle.png;
#MUSIC:Kiseki Hajimari.mp3;
#OFFSET:-0.960;
#SAMPLESTART:60.540;
#SAMPLELENGTH:12.000;
#SELECTABLE:YES;
#LISTSORT:;
#BPMS:0.000=168.000;
#STOPS:;
#BGCHANGES:;
#ATTACKS:;

//---------------dance-single - ----------------
#NOTES:
     dance-single:
     :
     Easy:
     3:
     0.263,0.319,0.162,0.124,0.000:
0000
0000
0000
0000
,
0000
0000
0000
0000
,
0000
0000
0000
0000
,
0000
0000
0000
0000
,
0000
0000
0000
0000
,
0000
0000
0000
0000
,
0000
0000
0000
0000
,
0000
0000
0000
0000
,
0110
0110
0110
0000
,
1000
0100
0010
0000
,
0001
0100
0001
0000
,
1001
0000
0010
0000
,
0101
0101
0101
0000
,
1000
0010
0100
0000
,
0001
0000
0010
0000
,
0200
0000
2000
3300
,
1000
1000
0001
0000
,
0100
0001
0100
0000
,
0020
0000
2030
0000
,
3001
0001
0010
0000
,
0001
0000
0100
0000
,
0010
0000
1000
0100
,
1000
0000
0001
0000
,
0100
0001
0010
0100
,
1000
0000
0001
0000
,
0100
0100
0010
0000
,
1000
0000
0100
0000
,
0010
0100
0010
0000
,
0001
0100
0001
0000
,
1000
0100
1000
0000
,
0020
0000
0230
0000
,
0301
0001
1001
0000
,
1000
1000
0001
0001
,
1000
1000
0001
0001
,
0100
0100
0010
0010
,
0100
0100
0010
0000
,
1000
1000
0001
0000
,
0001
0001
0100
0000
,
0020
0000
1000
0000
,
0230
0000
0001
0000
,
0310
0000
0010
0000
,
0000
1001
1001
0000
,
0010
0100
0010
0000
,
1000
0100
1000
0000
,
0002
0000
0100
0000
,
2003
0010
3010
0000
,
0001
0000
0100
0000
,
0010
1000
0001
0000
,
1000
0000
0100
0000
,
1000
0010
1010
0000
,
0001
0100
0001
0000
,
1000
0010
0100
0000
,
0020
0000
0100
0000
,
2030
0001
3001
0000
,
1000
0100
1000
0100
,
0010
0001
0010
0001
,
0200
0000
0010
0000
,
0310
0000
0000
0000
,
1001
1001
1001
0000
,
0100
0000
0010
0000
,
1000
0001
0010
0000
,
0001
0010
0100
0000
,
0110
0110
0110
0000
,
1000
0100
1000
0000
,
0010
0000
0100
0000
,
0001
1000
1000
0000
,
0100
0000
0010
0000
0001
0000
1000
0100
;

//---------------dance-single - ----------------
#NOTES:
     dance-single:
     :
     Medium:
     6:
     0.417,0.501,0.133,0.372,0.000:
0000
0000
0000
0000
,
0000
0000
0000
0000
,
0000
0000
0000
0000
,
0000
0000
0000
0000
,
0000
0000
0000
0000
,
0000
0000
0000
0000
,
0000
0000
0000
0000
,
0000
0000
0000
0000
,
2000
0000
3200
0000
0320
0000
0031
0100
,
0000
0001
1000
0100
1000
0000
0001
0000
,
1000
0000
0100
0000
0010
0000
0001
0100
,
0000
1001
1001
0110
,
0002
0000
2003
0000
3200
0000
0310
0100
,
0000
0010
0001
0010
0001
0000
1000
0000
,
0010
0000
0100
0000
0010
0000
1000
0100
,
0000
0000
1000
0010
0000
0100
0001
0000
,
0100
0100
0010
0010
,
1000
0000
1000
0000
0001
0000
0001
0010
,
0001
1000
0010
0100
,
0010
1000
0001
0000
,
1000
0100
1000
0001
,
0100
0001
0010
0100
,
2000
0000
0200
3000
,
0010
0310
0001
1001
,
1000
0000
0010
0100
0000
0000
0001
0000
,
1000
0000
0010
1000
0000
0000
0001
0000
,
0100
0010
1000
0001
,
0010
0100
0010
0001
,
1000
0020
0130
0002
,
1003
0200
1300
0010
,
0110
0000
1000
0100
0000
0010
0001
0200
,
0000
0010
0310
0100
,
0001
0001
1100
1100
,
0010
0010
0101
0101
,
1000
1000
0011
0011
,
0100
0100
1010
1010
,
0001
1000
0010
1000
,
0001
0000
1000
0000
0100
0010
0001
0000
,
0100
0000
0010
1000
0000
1000
0001
0000
,
0100
0000
0001
0000
0010
0001
0010
0000
,
0100
1000
0001
0100
,
0000
0010
0100
0010
0000
0000
1001
0000
,
1000
1000
1000
0001
,
0100
0000
0001
0000
0100
0001
1000
0000
,
0001
0001
0001
0100
,
0100
0001
1000
0010
,
2000
3200
2300
3002
,
0013
0001
0200
0320
,
0130
0000
0001
0100
0000
0001
1000
0100
,
0000
1000
0100
0010
0000
0000
0100
0000
,
1000
1000
1000
0001
,
0001
0000
0010
0000
0100
0010
0100
0000
,
0010
0001
0001
0001
,
1000
1000
0100
1000
,
0020
0230
0302
0023
,
0130
1000
0002
2003
,
3100
0000
1000
0000
0010
0100
0010
0200
,
0000
0000
0010
0310
,
2000
0000
3002
0000
0203
0000
0301
1000
,
0000
1000
0001
0000
1000
0000
0010
0000
,
0100
0000
0001
0010
0001
0000
0001
2000
,
0000
3002
0023
0130
,
2000
0000
3002
0000
0023
0000
0031
0100
,
0000
0001
1000
0000
0100
0000
1000
0000
,
0010
0000
0100
0001
0100
0000
0001
2000
,
0000
0000
0000
3200
0000
0310
0002
0000
,
1003
0000
1000
0000
0001
0100
0002
2000
,
0000
0000
0000
0000
,
0000
0000
0000
0000
,
0000
0000
0000
0000
,
3003
0000
0000
0000
;

//---------------dance-single - ----------------
#NOTES:
     dance-single:
     :
     Hard:
     7:
     0.471,0.534,0.248,0.210,0.000:
0000
0000
0000
0000
,
0000
0000
0000
0000
,
0000
0000
0000
0000
,
0000
0000
0000
0000
,
0000
0000
0000
0000
,
0000
0000
0000
0000
,
0000
0000
0000
0000
,
0000
0000
0000
0000
,
0001
0000
0101
0000
1100
0000
1000
0100
,
0000
1000
0010
0100
0001
0100
0001
0000
,
1000
0000
0001
0010
0100
0000
0100
1000
,
0000
0010
0110
0000
1001
0000
0100
0000
,
1100
0000
0002
0000
0103
0000
0001
0100
,
0000
0010
1000
0100
1000
0001
1000
0000
,
0001
0000
1000
0100
0010
0000
0100
0020
,
0000
0031
0100
0020
0000
1030
0100
0000
,
1000
0100
1000
0100
,
0010
0000
0001
0000
0100
0000
0001
0100
,
0001
1000
0100
1000
,
0010
0100
0010
0000
1000
0100
1000
0001
,
0100
0001
0010
0100
,
1000
0000
0001
0000
0100
0000
0001
0001
,
1000
0000
0001
0000
1000
0100
0010
0000
,
0001
0000
0100
1000
0100
0010
0100
0000
,
1001
0000
1000
0000
0100
0000
1000
0001
,
0010
0000
0001
0000
0100
0000
0010
0100
,
0001
0000
1000
0100
1000
0000
0010
0000
,
1000
0100
1000
0001
,
0011
0000
1000
0000
0010
0000
0100
0010
,
1000
0001
0100
0001
,
2000
0000
3001
0200
0000
0310
1000
0100
,
0010
0000
0001
0000
0010
0001
0010
0001
,
0100
0110
0010
1010
,
1000
0000
1001
0000
1000
0001
1000
0001
,
0010
0011
0010
0110
,
0100
0000
1100
0000
0001
0100
0010
1000
,
0200
0000
2300
0000
3001
0100
1000
0000
,
0200
0000
0320
0000
0130
0001
1000
0000
,
1001
0000
0001
0000
0100
0010
0100
0020
,
1000
0000
1000
0000
1030
0010
0100
0000
,
0001
0000
1000
0000
0001
0010
0001
0000
,
0000
1000
0001
1001
0000
0000
0020
0000
,
0130
0010
0100
0001
0100
0000
0010
0000
,
1000
0100
0001
0000
1000
0010
0001
0000
,
0100
0101
0001
1001
,
0100
1000
0010
1000
0100
0000
1000
0000
,
0001
0100
0010
1000
,
0100
0000
1000
0001
0100
0000
0001
0000
,
1000
0000
1000
0000
0010
0000
1000
0001
,
0000
0100
0001
1000
0000
0000
1001
0000
,
0010
0100
0010
1000
0001
0000
1000
0000
,
0100
1000
0010
0000
0100
0001
0100
0000
,
0020
1000
0100
0031
,
0200
0001
0010
1300
,
0010
0100
0001
1000
,
0100
0000
0010
0000
0001
0000
0100
0001
,
0100
0000
0010
0000
1000
0100
0010
2001
,
0000
0010
3010
0100
,
0001
0000
1100
0000
1001
0000
0001
0100
,
0000
0010
1000
0001
1000
0000
0100
0000
,
1000
0000
1001
0000
1010
0000
0001
0200
,
0000
0302
2003
3020
,
1030
0000
1100
0000
1001
0000
0001
0100
,
0000
1000
0100
0001
1000
0000
0001
0000
,
1000
0000
0100
0010
0001
0000
0001
0100
,
0000
0001
1000
0002
0000
0103
0020
0000
,
1030
0100
0010
0100
1000
0001
0010
0220
,
0000
0000
0000
0000
,
0000
0000
0000
0000
,
0000
0000
0000
0000
,
0330
0000
0000
0000
;

//---------------dance-single - ----------------
#NOTES:
     dance-single:
     :
     Beginner:
     1:
     0.117,0.287,0.057,0.076,0.000:
0000
0000
0000
0000
,
0000
0000
0000
0000
,
0000
0000
0000
0000
,
0000
0000
0000
0000
,
0000
0000
0000
0000
,
0000
0000
0000
0000
,
0000
0000
0000
0000
,
0000
0000
0000
0000
,
1001
0000
0000
0000
,
0100
0000
0000
0000
,
0010
0000
0000
0000
,
2000
0000
3000
0000
,
0001
0000
0000
0000
,
0010
0000
0000
0000
,
0001
0000
0000
0000
,
0100
0000
0100
0000
,
0010
0000
0000
0000
,
1000
0000
0000
0100
,
0100
0000
0000
0000
,
1000
0000
0000
0000
,
0001
0000
0000
0000
,
0010
0000
0000
0001
,
0001
0000
0000
0000
,
0200
0000
0300
0000
,
1001
0000
0000
0000
,
0100
0000
0000
0000
,
0010
0000
0000
1000
,
1000
0000
0000
0000
,
0100
0000
0000
0000
,
0010
0000
0000
0001
,
0001
0000
0000
0000
,
2000
0000
3000
0000
,
0010
0000
0010
0000
,
0010
0000
0000
0000
,
0100
0000
0100
0000
,
0100
0000
0000
0000
,
0001
0000
0001
0000
,
0100
0000
0000
0000
,
1000
0000
1000
0000
,
0010
0000
0000
0000
,
0220
0000
0330
0000
,
2002
0000
3003
0000
,
0001
0000
0100
0000
,
0001
0000
0000
0000
,
1000
0000
0100
0000
,
1000
0000
0000
0000
,
0010
0000
0000
0000
,
0100
0000
0000
0000
,
1000
0000
0000
0000
,
0001
0000
0000
0000
,
1000
0000
0010
0000
,
0001
0000
0000
0000
,
0001
0000
0100
0000
,
1000
0000
0000
0000
,
0010
0000
0000
0000
,
1000
0000
0000
0000
,
0001
0000
0000
0000
,
0010
0000
0000
0000
,
1001
0000
0000
0000
,
1000
0000
0000
0000
,
0010
0000
0000
0000
,
0100
0000
0000
0000
,
0110
0000
0000
0000
,
0001
0000
0000
0000
,
1000
0000
0000
0000
,
0010
0000
0000
0000
,
0200
0000
0000
0000
0000
0000
0000
0300
;

//---------------dance-double - ----------------
#NOTES:
     dance-double:
     :
     Hard:
     7:
     0.463,0.567,0.229,0.143,0.000: // measure 1
00000000
00000000
00000000
00000000
,  // measure 2
00000000
00000000
00000000
00000000
,  // measure 3
00000000
00000000
00000000
00000000
,  // measure 4
00000000
00000000
00000000
00000000
,  // measure 5
00000000
00000000
00000000
00000000
,  // measure 6
00000000
00000000
00000000
00000000
,  // measure 7
00000000
00000000
00000000
00000000
,  // measure 8
00000000
00000000
00000000
00000000
,  // measure 9
00011000
00000000
00101000
00000000
00010100
00000000
00000100
00001000
,  // measure 10
00000000
00000100
00001000
00000001
00000010
00000100
00001000
00000000
,  // measure 11
00000100
00000000
00010000
00001000
00100000
00000000
00100000
00001000
,  // measure 12
00000000
00010000
01000000
00000000
11000000
00000000
10100000
00000000
,  // measure 13
00010000
00000000
01010000
00000000
00101000
00000000
00001000
00010000
,  // measure 14
00000000
00100000
10000000
00010000
01000000
00100000
01000000
00000000
,  // measure 15
00010000
00000000
10000000
01000000
00100000
00000000
00010000
00001000
,  // measure 16
00000000
00000000
00000000
00000100
00000000
00000010
00000001
00001000
,  // measure 17
00000100
00000001
00000100
00001000
,  // measure 18
00000010
00000000
00001000
00000000
00010000
00000000
00001000
00000100
,  // measure 19
00000010
00000100
00000001
00001000
,  // measure 20
00000100
00000000
00010000
00000000
00001000
00000000
00000100
00001000
,  // measure 21
00010000
00001000
00100000
00010000
,  // measure 22
10000000
00000000
01000000
00000000
00100000
00000000
00001000
00010000
,  // measure 23
00100000
00000000
01000000
00010000
00000000
01000000
00100000
00010000
,  // measure 24
00001000
00000000
00010000
00000100
00010000
00000100
00001000
00000010
,  // measure 25
00000110
00000000
00000100
00000000
00000001
00000000
00001000
00000001
,  // measure 26
00001000
00000000
00000010
00000000
00001000
00000000
00000100
00000010
,  // measure 27
00000002
00000000
00000000
00000103
00000020
00000000
00001000
00000000
,  // measure 28
00001030
00000000
00000010
00000000
00010000
00000000
00000100
00010000
,  // measure 29
00001000
01000000
00100000
00010000
,  // measure 30
00001000
00100000
01000000
10000000
,  // measure 31
00010000
00000000
01000000
00100000
00000000
01000000
00010000
00100000
,  // measure 32
01000000
00000000
10000000
00000000
00100000
00000000
01000000
00010000
,  // measure 33
01000000
01100000
01000000
01010000
,  // measure 34
00010000
00000000
00110000
00000000
00001000
00010000
00001000
00000100
,  // measure 35
00000010
00000110
00000100
00000101
,  // measure 36
00000001
00000000
00000011
00000000
00000001
00000010
00000100
00001000
,  // measure 37
00000200
00020300
00032000
00003200
,  // measure 38
00000320
00002030
00003200
00000320
,  // measure 39
00000031
00000000
00001000
00000000
00000100
00001000
00000100
00010000
,  // measure 40
00001000
00000000
00010000
00000000
00000100
00010000
00000100
00000000
,  // measure 41
00010000
00001000
00010000
00001000
00010000
00001000
00010000
00001000
,  // measure 42
00000000
00100000
00001000
00010000
00000000
00000000
00011000
00000000
,  // measure 43
00001000
00000000
00100000
00001000
00010000
00000000
00001000
00000000
,  // measure 44
00000100
00000000
00000001
00000000
00000010
00000100
00001000
00000000
,  // measure 45
00000010
00001000
00000100
00001000
,  // measure 46
00010000
00000000
00100000
00000000
00010000
00000000
10000000
01000000
,  // measure 47
00100000
01000000
00010000
01000000
,  // measure 48
10000000
00100000
00010000
00000000
00100000
01000000
00010000
00000000
,  // measure 49
10000000
00000000
00100000
00010000
00000000
00001000
00000100
00000001
,  // measure 50
00000000
00001000
00000001
00000010
00000000
00000000
00000110
00000000
,  // measure 51
00001100
00000000
00000010
00001000
00000100
00000000
00010000
00000000
,  // measure 52
00001000
00000000
00000010
00000000
00000001
00000100
00001000
00000000
,  // measure 53
00000100
00000010
00000100
00000001
,  // measure 54
00000010
00000100
00001000
00000000
00000100
00001000
00010000
00000000
,  // measure 55
00100000
00001000
00010000
00000010
,  // measure 56
00000100
00000000
00000010
00001000
00000100
00010000
00001000
00100000
,  // measure 57
01000000
00000000
10000000
00000000
00010000
01000000
00100000
01000000
,  // measure 58
00000000
00010000
01000000
00000000
10010000
00000000
10000000
00010000
,  // measure 59
01010000
00000000
00110000
00000000
00011000
00000000
00000100
00001000
,  // measure 60
00000000
00000010
00000100
00000001
00000010
00000100
00001000
00000000
,  // measure 61
00000100
00000000
00010000
00001000
00010000
00000000
00001000
00100000
,  // measure 62
00000000
00020000
00230000
00302000
,  // measure 63
00013000
00000000
00011000
00000000
00001010
00000000
00000010
00000001
,  // measure 64
00000000
00000001
00000100
00000001
00001000
00000100
00010000
00000000
,  // measure 65
00001000
00000000
00100000
00010000
10000000
00000000
00010000
01000000
,  // measure 66
00000000
00000000
01000000
00001000
00000000
00010000
00001000
00000000
,  // measure 67
00100000
00001000
00010000
00000100
00001000
00000100
00000010
00000022
,  // measure 68
00000000
00000000
00000000
00000000
,  // measure 69
00000000
00000000
00000000
00000000
,  // measure 70
00000000
00000000
00000000
00000000
,  // measure 71
00000033
00000000
00000000
00000000
;

//---------------dance-double - ----------------
#NOTES:
     dance-double:
     :
     Medium:
     6:
     0.410,0.467,0.095,0.133,0.000:
00000000
00000000
00000000
00000000
,
00000000
00000000
00000000
00000000
,
00000000
00000000
00000000
00000000
,
00000000
00000000
00000000
00000000
,
00000000
00000000
00000000
00000000
,
00000000
00000000
00000000
00000000
,
00000000
00000000
00000000
00000000
,
00000000
00000000
00000000
00000000
,
02000000
00000000
03020000
00000000
20030000
00000000
30100000
01000000
,
00000000
01000000
00100000
00000000
01000000
00000000
00010000
00000000
,
00100000
00000000
00010000
10000000
00010000
00000000
00100000
00002000
,
00000000
00013000
00000100
00001000
,
00002010
00000000
00003002
00000000
00000023
00000000
00000031
00000100
,
00000000
00000100
00000001
00000000
00001000
00000000
00000010
00000000
,
00001000
00000000
00000100
00010000
00001000
00000000
00010000
00001000
,
00000000
00000000
00000000
00100000
00000000
01000000
10000000
00000000
,
00010000
00100000
00001000
00010000
,
00100000
00000000
00010000
00000000
00001000
00000000
00010000
00000100
,
00001000
00000010
00000100
00000100
,
00000001
00000000
00000001
00000000
00000010
00000000
00000100
00001000
,
00000001
00000000
00000100
00000000
00000010
00000000
00010000
00000100
,
00010000
00001000
00010000
00001000
,
00000100
00000000
00000010
00000100
00000000
00000001
00000010
00000000
,
00000100
00000000
00001000
00000100
00001000
00000000
00010100
00000000
,
00011000
00000000
00100000
00000000
00010000
00000000
01000000
00010000
,
00100000
00000000
01000000
00000000
00100000
00000000
01000000
00010000
,
01000000
00000000
10000000
00100000
01000000
00000000
00010000
00000000
,
00100000
00000000
00001000
00010000
00000100
00000000
00010000
00001000
,
00100000
01000000
00100000
00010000
,
01000000
00000000
00100000
00000000
01000000
00000000
10000000
01000000
,
00100000
00000000
01000000
00010000
00000000
10000000
01000000
00000000
,
00100000
00000000
00010000
00000000
01000000
00001000
00010000
00000100
,
00001000
00001000
00000100
00000100
,
00000010
00000000
00000010
00000000
00000100
00001000
00000100
00010000
,
00001000
00001000
00100000
00100000
,
00010000
00000000
01000000
00000000
00010000
00100000
01000000
10000000
,
00100000
00010000
00001000
00000100
,
00000001
00000010
00000100
00000010
,
00000100
00000000
00000000
00001000
00000000
00000100
00001000
00000000
,
00000100
00000100
00010000
00001000
,
00010000
00000000
00100000
00000000
00010000
00000000
00001000
01000000
,
00000000
00010000
10000000
00010000
00000000
00000000
00101000
00000000
,
00110000
00010000
01010000
00000000
,
00100000
00000000
00010000
00000000
00100000
00001000
00010000
00000000
,
01000000
10000000
00100000
00010000
,
00001000
00000100
00001000
00010000
,
00001000
00000000
00000100
00000000
00000001
00000000
00000010
00000001
,
00000100
00000010
00001000
00000001
,
00001000
00000000
00000100
00010000
00000000
00000010
00001000
00000100
,
00000000
00010000
00001000
00100000
00010000
00000000
00011000
00000000
,
00000010
00000001
00000010
00001000
,
00000001
00000000
00000100
00000000
00001000
00000000
00010000
00100000
,
01000000
00000000
10010000
00000000
00010000
00000000
01000000
00100000
,
01000000
00000000
00010000
00000000
00100000
00000000
00001000
00010000
,
00001000
00100000
01000000
10000000
,
00010000
00000000
00100000
00001000
00010000
00000000
00000100
00000000
,
00001000
00000000
00001000
00000000
00000010
00001000
00000001
00000010
,
00000000
00000100
00001000
00000000
00000100
00000000
00010000
00000000
,
00021000
00000000
02030000
00000000
23000000
00000000
30010000
00100000
,
00000000
00010000
00100000
00000000
00010000
00000000
01000000
00000000
,
00010000
00000000
10000000
01000000
00010000
00000000
00001000
00000100
,
00000000
00000001
00000100
00000010
,
00001020
00000000
00000230
00000000
00000302
00000000
00000013
00000001
,
00000000
00000000
00001000
00000100
00001000
00000000
00000010
00000000
,
00001000
00000000
00000100
00010000
00001000
00000000
00100000
00010000
,
00000000
00000000
00000000
01000000
00000000
00100000
10000000
00000000
,
00010000
01000000
00010000
01000000
00100000
10000000
00100000
00020000
,
00000000
00000000
00000000
00000000
,
00000000
00000000
00000000
00000000
,
00000000
00000000
00000000
00000000
,
00030000
00000000
00000000
00000000
;

//---------------dance-double - ----------------
#NOTES:
     dance-double:
     :
     Easy:
     4:
     0.302,0.350,0.105,0.067,0.000:
00000000
00000000
00000000
00000000
,
00000000
00000000
00000000
00000000
,
00000000
00000000
00000000
00000000
,
00000000
00000000
00000000
00000000
,
00000000
00000000
00000000
00000000
,
00000000
00000000
00000000
00000000
,
00000000
00000000
00000000
00000000
,
00000000
00000000
00000000
00000000
,
00000010
00000010
00000010
00001000
,
00000100
00000000
00010000
00001000
,
00010000
00000000
01000000
00000000
,
10000000
00010000
10000000
00100000
,
01000000
01000000
01000000
00000000
,
00010000
00100000
00001000
00010000
,
00100000
00010000
00001000
00000000
,
00011000
00000000
00011000
00000000
,
00000010
00001000
00000100
00000000
,
00010000
00001000
00010000
01000000
,
10000000
00000000
00010000
00000000
,
00100000
00001000
00010000
00001000
,
00000100
00000000
00000001
00000000
,
00000010
00000001
00000010
00000100
,
00000100
00000000
00001000
00000000
,
00000100
00010000
00001000
00100000
,
00101000
00001000
00010000
00000000
,
00001000
00010000
00000010
00000100
,
00000100
00000000
00000001
00000000
,
00000010
00000001
00000010
00000000
,
00000100
00001000
00000010
00000001
,
00000010
00000000
00000100
00000010
,
00001000
00000000
00000100
00000000
,
00010000
00001000
00100000
01000000
,
10000000
10000000
00010000
00010000
,
00100000
00100000
00001000
00000100
,
00000001
00000001
00000010
00000010
,
00000100
00001000
00000001
00000000
,
00000100
00000010
00000100
00000010
,
00001000
00000100
00001000
00000100
,
00020000
00001000
00031000
00010000
,
00200000
01000000
01300000
00100000
,
20000000
00010000
30010000
01000000
,
00010000
00100000
00101000
00000000
,
00011000
00001000
00010000
00000100
,
00001000
00010000
01000000
00100000
,
20000000
00010000
30010000
10000000
,
00200000
01000000
01300000
00010000
,
00100000
00001000
00010000
00001000
,
00000100
00000001
00000010
00000100
,
00001000
00010000
00001000
00000100
,
00010000
00001000
00011000
00000000
,
00001010
00000010
00001000
00000001
,
00000010
00000100
00001000
00000100
,
00020000
00000100
00030100
00010000
,
00002000
00100000
00103000
00010000
,
01000000
00100000
10000000
01000000
,
00100000
00010000
00100000
01000000
,
00100000
10000000
00100000
00010000
,
00110000
00000000
00110000
00000000
,
00001000
00001000
00001000
00000000
,
00000100
00000001
00000010
00000100
,
00001000
00000000
00000001
00000000
,
00000110
00000000
00001000
00000100
,
00010000
00010000
00010000
00000000
,
00001000
00010000
00100000
01000000
,
00010000
00000000
10000000
00010000
,
00100000
00001000
00100000
00010000
,
10000000
01000000
00010000
00011000
;
