#TITLE:風と自転車;
#SUBTITLE:;
#ARTIST:ウォリ&荒牧陽子;
#TITLETRANSLIT:Kaze to Jitensha;
#SUBTITLETRANSLIT:;
#ARTISTTRANSLIT:Wolli & Yoko Aramaki;
#GENRE:;
#CREDIT:;
#MENUCOLOR:;
#METERTYPE:DDR;
#BANNER:Kaze to Jitensha-bn.png;
#BACKGROUND:Kaze to Jitensha-bg.png;
#LYRICSPATH:;
#CDTITLE:TUNE STREET-cdtitle.png;
#MUSIC:Kaze to Jitensha.mp3;
#OFFSET:-0.460;
#SAMPLESTART:58.040;
#SAMPLELENGTH:12.820;
#SELECTABLE:YES;
#LISTSORT:;
#BPMS:0.000=37.500,4.000=75.000,20.000=150.000;
#STOPS:;
#BGCHANGES:;
#ATTACKS:;

//---------------dance-single - ----------------
#NOTES:
     dance-single:
     :
     Hard:
     7:
     0.498,0.483,0.332,0.230,0.030:
0000
0000
0000
0000
,
1001
0000
1000
0100
0001
0100
1000
0000
,
1001
0000
0000
0000
0100
0000
0001
0000
1000
0000
0100
0000
1000
0000
0001
0010
,
0001
0000
0000
1000
0000
0000
0001
0000
0010
0000
0100
0000
0010
0000
0001
0000
,
1001
0000
0000
1000
0000
0000
0010
0000
1000
0000
0001
0000
0010
0000
0100
0000
,
0011
0000
1000
0000
0001
0100
0001
0000
,
1000
0100
0010
0100
1000
0000
0001
0000
,
1001
0000
0100
0000
0001
0010
0100
0000
,
0010
0100
0010
1000
0010
0001
0100
0000
,
0001
0000
1000
0200
0000
0000
0010
0000
,
0310
0000
0010
0001
0100
0000
0001
0000
,
1000
0000
0001
0100
0001
0000
1000
0000
,
0000
0100
0010
0000
0000
0010
0001
1000
,
0001
0101
0110
1010
,
1001
0000
0011
0000
1010
0000
1000
0001
,
1000
0011
0110
1001
,
1010
0000
1100
0000
0101
0000
1000
0100
,
0010
1001
1100
0101
,
1100
0110
0101
0011
,
1000
0000
0001
0100
0001
0000
1000
0100
,
0010
0001
0010
0000
0100
1000
0000
1002
,
0000
0000
0103
0010
0001
0010
0100
0010
,
0001
0010
0100
0010
0001
0010
0100
2000
,
0000
3100
0010
0100
1000
0100
0010
0100
,
1000
0100
0010
0100
1000
0100
0010
0100
,
0001
0000
1000
0000
0001
0000
1000
0200
,
0000
0000
1000
0000
0010
0000
1300
0100
,
0010
0000
0001
0000
0100
0000
0001
0020
,
0000
0000
0031
0000
1000
0001
1001
0000
,
0002
0203
2300
3200
,
0310
0100
0010
0000
1000
0100
0010
0001
,
0100
0000
0000
0000
0001
0000
1000
0010
1000
0000
0000
0000
0001
0000
0000
0000
,
1000
0100
0100
0000
0010
0001
0001
0100
,
0020
2030
3200
0320
,
0031
1000
0100
0000
1000
0001
0010
0100
,
0010
0000
0000
0000
0100
0000
1000
0100
0010
0000
0000
0000
0100
0000
0010
0000
,
0100
0020
0000
0031
0100
0002
0000
1003
,
0100
1100
0001
0101
,
0010
0000
1001
0000
0010
0100
0001
1000
,
0200
0000
0000
0000
1300
0000
0010
1000
0010
0000
0000
0000
0100
0000
0000
0000
,
0001
0010
0001
0000
1000
0100
0010
0000
,
0200
0320
0230
2300
,
3100
1000
0001
0000
1000
0100
1000
0001
,
0100
0000
0000
0000
0010
0000
0100
0010
0100
0000
0000
0000
0001
0000
1000
0000
,
0100
2000
0000
3001
0200
0000
0301
2001
,
0000
3010
0100
0000
0001
0010
0000
0011
,
0000
0100
0001
0000
1000
0001
1000
0000
,
0010
1000
0100
1000
0010
0000
0100
0101
,
0000
0001
0010
0100
1000
0100
0010
1001
,
0000
1000
0100
1000
0001
0100
0000
0110
,
0000
0001
0100
0000
0001
1000
0100
0000
,
1000
0100
0001
1000
0010
0001
0100
0000
,
0001
0100
0000
0001
1000
1000
0001
0110
,
0000
0000
0001
0000
0010
0100
0000
1100
,
0000
0000
1000
0000
0100
0000
1000
0001
,
0100
0000
0001
0000
0100
0000
0001
0010
,
0000
0100
1000
0200
0000
1300
0000
1001
,
0000
0000
0110
0000
1000
0100
0010
0002
,
0000
1003
0001
0000
0010
0100
0010
0100
,
1000
0100
1000
0001
0100
0001
1000
0010
,
1000
0001
0010
0001
1000
0100
0010
2002
,
0000
0000
0000
0000
,
0000
0000
0000
0000
,
3003
0000
0000
0000
;

//---------------dance-single - ----------------
#NOTES:
     dance-single:
     :
     Medium:
     5:
     0.343,0.349,0.060,0.111,0.004:
0000
0000
0000
0000
,
1001
0000
0000
0000
0010
0000
0000
0100
0000
0000
0000
0000
0001
0000
1000
0000
,
0001
0000
1000
0000
0100
1000
0100
1000
,
0100
0000
0010
0000
0001
0000
0100
0010
,
1000
0000
0001
0000
0100
0000
0001
1001
,
1000
0000
0001
0100
,
0001
0000
1000
0000
0100
0010
0001
1000
,
0100
1000
0010
0100
,
0001
0000
0100
0000
0001
0010
0001
0000
,
1001
0000
0010
0100
,
0010
0000
0100
0000
0010
1000
0001
0000
,
0100
0000
0000
0001
0100
0000
0000
0010
,
1000
0000
0000
1000
0100
0000
0100
0000
,
0020
0130
2000
3001
,
0200
0310
2000
3100
,
0020
0031
0200
0310
,
0002
0013
2000
3001
,
1000
0100
0010
0001
,
1000
0001
0100
0000
0001
1000
0100
0000
,
2000
0000
0000
3020
0000
0000
0032
0000
,
0103
0000
1000
0000
0001
0100
0000
0010
,
0000
1000
0100
1000
,
0100
0000
1000
0000
0100
0010
0000
0001
,
0000
0010
0001
0010
,
0001
0010
0001
0010
,
0001
0000
0100
0000
0010
0000
1000
0001
,
0000
0000
0100
0000
0001
0100
0001
0000
,
1000
0000
0010
0000
1000
0000
0001
0100
,
0000
0000
0010
0000
1000
0100
1000
0000
,
0001
0010
0100
1000
,
0100
0000
0010
0000
0001
0010
0100
0010
,
0100
0000
1000
0001
1000
0000
0010
0000
,
1000
0000
0001
0000
0100
0100
0100
0000
,
0010
1000
0001
0100
,
0010
0000
0100
0000
0001
0000
0010
0001
,
0010
0000
0100
1000
0100
0000
1000
0001
,
0200
0310
0110
0110
,
1000
1000
0001
1000
,
0001
0000
0010
0000
0100
0000
1000
0010
,
0001
0000
0001
0010
1000
0000
0001
0000
,
0100
0000
0001
0000
0010
0010
0010
0000
,
0100
1000
0001
0010
,
0100
0000
1000
0000
0001
0000
0100
0001
,
0100
0000
0010
0100
0010
0000
1000
0000
,
0001
0000
0000
0001
1000
0000
1000
0100
,
0000
0000
1000
0000
0001
1000
0000
0010
,
0000
0100
0001
0010
,
0100
0000
1000
0000
0001
0000
0100
0001
,
0000
0000
1000
0000
0010
0100
0000
0010
,
0000
0100
0001
0010
,
0001
1000
0010
1000
,
0100
0000
0000
0010
0001
0000
0000
0100
,
0001
0000
0000
0001
1000
0000
0001
1000
,
0000
0000
0001
0000
0010
0100
0000
1000
,
0000
0001
0010
0001
,
1000
0000
0100
0000
1000
0001
0000
0010
,
0000
0001
0000
1000
0000
1001
0000
1001
,
0000
0000
0100
0000
0010
0100
0000
0010
,
0000
1000
0001
1000
,
0001
0000
0000
0100
0000
0000
1000
0000
,
0000
0100
0000
0000
0001
1000
1000
0200
,
0000
0000
0000
0000
,
0000
0000
0000
0000
,
0300
0000
0000
0000
;

//---------------dance-single - ----------------
#NOTES:
     dance-single:
     :
     Beginner:
     1:
     0.101,0.134,0.051,0.034,0.000:
0000
0000
0000
0000
,
1000
0000
0001
0000
,
0100
0000
0010
0000
,
1000
0000
0001
0000
,
0010
0000
0100
0000
,
1000
0000
0000
0000
,
0001
0000
0000
0000
,
0100
0000
0000
0000
,
0010
0000
0000
0000
,
0100
0000
0000
0000
,
0001
0000
0000
0000
,
1000
0000
0000
0000
,
0100
0000
0000
0000
,
1001
0000
0001
0000
,
0001
0000
0000
0000
,
1000
0000
1000
0000
,
1000
0000
0000
0000
,
0100
0000
0100
0000
,
0100
0000
0000
0000
,
0020
0000
0000
0000
,
0030
0000
0000
0000
,
1001
0000
1000
0000
,
1000
0000
0000
0000
,
0001
0000
0001
0000
,
0001
0000
0000
0000
,
0020
0000
0000
0000
,
0030
0000
0000
0000
,
0200
0000
0000
0000
,
0300
0000
0000
0000
,
0110
0000
0000
0000
,
0000
0000
1000
1000
,
1000
0000
0000
0000
,
0000
0000
0000
0000
,
1001
0000
0000
0000
,
0000
0000
0010
0010
,
0010
0000
0000
0000
,
0100
0000
0100
0000
,
1001
0000
0000
0000
,
0000
0000
0100
0100
,
0100
0000
0000
0000
,
0000
0000
0000
0000
,
0110
0000
0000
0000
,
0000
0000
0001
0001
,
0001
0000
0000
0000
,
1000
0000
1000
0000
,
1000
0000
0000
0000
,
0010
0000
0000
0000
,
0100
0000
0000
0000
,
0001
0000
0000
0000
,
0010
0000
0000
0000
,
0100
0000
0000
0000
,
1000
0000
0000
0000
,
0010
0000
0000
0000
,
0001
0000
0000
0000
,
0010
0000
0000
0000
,
1000
0000
0000
0000
,
0001
0000
0000
0000
,
0100
0000
0000
0000
,
0010
0000
0000
0000
,
0100
0000
0100
0000
,
0001
0000
0010
0000
,
0020
0000
0000
0000
,
0000
0000
0000
0000
,
0030
0000
0000
0000
;

//---------------dance-single - ----------------
#NOTES:
     dance-single:
     :
     Easy:
     3:
     0.231,0.241,0.068,0.111,0.000:
0000
0000
0000
0000
,
1001
0000
0100
0010
,
0100
0000
0001
0010
,
0100
0000
1000
0001
,
0200
0000
0001
0310
,
1001
0000
0000
0000
,
0001
0100
0001
0000
,
1001
0000
0000
0000
,
1000
0100
0010
0000
,
0200
0000
0320
0000
,
0031
1000
0001
0000
,
1000
0001
0001
0000
,
0001
1000
1000
0001
,
0100
0010
0100
0010
,
0100
0010
0100
0000
,
0001
1000
0001
1000
,
0001
1000
0001
0000
,
1000
0100
1000
0100
,
1000
0100
1000
0000
,
0001
0000
0100
0000
,
0010
0000
1000
0000
,
0010
1000
0010
1000
,
0010
1000
0010
0000
,
0100
0001
0100
0001
,
0100
0001
0100
0000
,
0001
0000
0010
0000
,
0100
0000
1000
0000
,
0001
0000
0100
0000
,
0010
0000
1001
1001
,
0100
0010
0001
0000
,
1000
0100
0010
0000
,
0200
0000
2300
0000
,
3001
0001
0100
0000
,
0001
0010
0100
0000
,
0010
0100
1000
0000
,
0002
0000
0203
0000
,
0310
0000
0010
0000
,
1000
0100
1000
0000
,
0001
0100
0001
0000
,
2000
0000
3002
0000
,
0103
0001
1000
0000
,
0010
1000
0001
0000
,
0100
0001
1000
0000
,
0002
0000
0023
0000
,
0130
1000
0001
0000
,
1000
0000
0100
0010
,
0100
0000
0010
0000
,
0001
0100
0001
0000
,
1000
0010
0100
0001
,
1000
0000
0001
0010
,
0100
0000
0010
0100
,
0010
0000
0001
0000
,
1000
0000
0100
1000
,
1100
0000
0001
0100
,
0001
0000
0010
0100
,
1000
0000
0001
0000
,
0100
0010
0100
0010
,
1000
0000
0001
1000
,
1001
0000
1000
0000
,
0001
0000
0010
0000
,
0100
0000
1000
0001
,
2002
0000
0000
0000
,
0000
0000
0000
0000
,
3003
0000
0000
0000
;

//---------------dance-double - ----------------
#NOTES:
     dance-double:
     :
     Hard:
     7:
     0.507,0.483,0.230,0.443,0.013: // measure 1
00000000
00000000
00000000
00000000
,  // measure 2
00010100
00000000
00000000
00000000
00010000
00000000
00001000
00000000
00100000
00000000
00010000
00000000
10000000
00000000
00010000
10000000
,  // measure 3
00100000
00000000
01000000
00000000
00010000
00000000
00100000
00010000
,  // measure 4
00002000
00000000
00013000
00100000
00020000
00000000
00130000
00001000
,  // measure 5
00011000
00000000
00000010
00000000
00000000
00000000
00000100
00000000
00000000
00000000
00000001
00000000
00000100
00000001
00001000
00000000
,  // measure 6
00000110
00000000
00001000
00000000
00000001
00000100
00001000
00000000
,  // measure 7
00000100
00000000
00000010
00010000
00000100
00000000
00010000
00001000
,  // measure 8
00200000
00000000
00010000
00000000
01300000
10000000
00100000
00000000
,  // measure 9
20000000
00000000
00010000
00000000
31000000
10000000
00010000
00000000
,  // measure 10
00100000
00000000
00001000
00010000
00000000
00000100
00001000
00000100
,  // measure 11
00001000
00000000
00000001
00000010
00000000
00000100
00000010
00000000
,  // measure 12
00000200
00000000
00001300
00000001
00000001
00000000
00000100
00001000
,  // measure 13
00001000
00000000
00010000
00001000
00001000
00100000
00010000
00000000
,  // measure 14
01010000
01100000
10100000
01010000
,  // measure 15
10100000
00000000
00110000
00000000
10000000
00010000
00100000
00001000
,  // measure 16
00000000
00001100
00000110
00000101
,  // measure 17
00001010
00000000
00001100
00000000
00000001
00000100
00000010
00001000
,  // measure 18
00000000
00011000
00001100
00011000
,  // measure 19
00110000
00101000
01010000
10010000
,  // measure 20
00200000
00000000
01300000
00020000
00000000
00130000
02000000
00000000
,  // measure 21
13000000
00010000
00100000
00001000
00010000
00000100
00000000
00001000
,  // measure 22
00000020
00000230
00000302
00002003
,  // measure 23
00003100
00001000
00000100
00000000
00010000
00001000
00010000
00200000
,  // measure 24
00000000
02300000
03200000
20300000
,  // measure 25
30020000
00000000
00230000
00000000
00302000
00000000
00013000
00000100
,  // measure 26
00001000
00000000
00000010
00000000
00000100
00000010
00000001
00000020
,  // measure 27
00000000
00000130
00000010
00000000
00001000
00000000
00000100
00010000
,  // measure 28
00002000
00000000
00023000
00000000
00031000
01000000
00001000
00200000
,  // measure 29
00000000
00310000
01000000
00000000
00001000
00010000
00010100
00000000
,  // measure 30
00002000
00003002
00000023
00000230
,  // measure 31
00001300
00000010
00000100
00000000
00000010
00001000
00000010
00010000
,  // measure 32
00001000
00000000
00000000
00001000
00010000
00000000
01000000
00000000
,  // measure 33
00100000
00000000
00100000
00000000
00010000
00100000
01000000
00100000
,  // measure 34
00020000
00230000
00302000
00023000
,  // measure 35
00031000
00000100
00001000
00000000
00010000
00001000
00000010
00000000
,  // measure 36
00000002
00000000
00000013
00000001
00000010
00000000
00000000
00000100
,  // measure 37
00001000
00000200
00000000
00000310
00000200
00001000
00001300
00000000
,  // measure 38
00000201
00000320
00002030
00023000
,  // measure 39
00031000
00000000
00001000
00000000
00000100
00010000
00001000
00100000
,  // measure 40
00001000
00000000
00000000
00000000
00001000
00000000
00100000
01000000
10000000
00000000
00000000
00000000
00010000
00000000
00000000
00000000
,  // measure 41
01000000
00000000
00010000
00000000
00100000
00010000
01000000
00000000
,  // measure 42
00020000
00230000
00320000
02030000
,  // measure 43
03100000
10000000
00010000
00000000
10000000
01000000
00100000
00010000
,  // measure 44
01000000
00100000
01000000
00100000
01000000
00100000
01000000
00010000
,  // measure 45
10000000
01000000
00100000
00001000
00010000
00100000
10000000
02000000
,  // measure 46
00000000
13000000
01000000
00000000
10000000
00010000
00000000
00100000
,  // measure 47
00010000
00000000
00100000
00001000
00010000
00000100
00001000
00000001
,  // measure 48
00000020
00000000
00000000
00000230
00000000
00000000
00002300
00000000
,  // measure 49
00003010
00001000
00000100
00010000
00001000
00100000
00001000
00020000
,  // measure 50
00000000
00030010
00001000
00000000
00000100
00010000
00000000
00011000
,  // measure 51
00000000
00010000
00000100
00000000
00010000
00001000
01000000
00000000
,  // measure 52
00010000
00100000
00001000
00010000
00000010
00000100
00000001
00000010
,  // measure 53
00000100
00001000
00000010
00000100
00000010
00001000
00000100
00020000
,  // measure 54
00000000
00030100
00010000
00001000
00010000
01000000
10000000
00200000
,  // measure 55
00000000
01300000
00010000
00000000
01000000
00100000
01000000
00010000
,  // measure 56
10000000
00000000
00010000
00000000
10000000
00000000
00010000
01000000
,  // measure 57
00010000
00100000
00000000
11000000
00000000
00110000
00000000
00012000
,  // measure 58
00000000
00013000
00000100
00000000
00001000
00001000
00000010
00000200
,  // measure 59
00000000
00000310
00000100
00000000
00000001
00000000
00001000
00000100
,  // measure 60
00010000
00001000
00100000
00010000
01000000
00010000
00100000
00001000
,  // measure 61
00010000
00000010
00001000
00000100
00001000
00000010
00000100
00000002
,  // measure 62
00000000
00000000
00000000
00000000
,  // measure 63
00000000
00000000
00000000
00000000
,  // measure 64
00000003
00000000
00000000
00000000
;

//---------------dance-double - ----------------
#NOTES:
     dance-double:
     :
     Medium:
     5:
     0.369,0.429,0.119,0.426,0.000:
00000000
00000000
00000000
00000000
,
00002000
00000000
00010000
00000000
00003100
00001000
00010000
00001000
,
00200000
00000000
00010000
00000000
01300000
00100000
00010000
00000000
,
10100000
00000000
00010000
00000000
00100000
00000000
00001000
00010000
,
00002000
00000000
00003100
00000000
00000010
00000000
00000100
00000010
,
00001000
00000000
00000010
00001000
,
00000100
00000000
00010000
00000000
00000100
00001000
00000100
00000000
,
00002000
00000000
00003001
00001000
,
00000100
00000000
00001000
00000000
00000001
00000000
00000010
00000100
,
00001000
01000000
10000000
00000000
,
01000000
00100000
00010000
10000000
,
02000000
00000000
00000000
10000000
23000000
00000000
00000000
00100000
,
30200000
00000000
00000000
00010000
00320000
00000000
00031000
00000000
,
00012000
00023000
00030200
00002300
,
00003020
00000000
00000230
00000000
00000302
00000000
00000013
00000100
,
00000000
00002000
00003200
00020300
,
00030200
00000000
00002300
00000000
00023000
00000000
01030000
00100000
,
00000000
20000000
30200000
02300000
,
03020000
00230000
02300000
23000000
,
30010000
00000000
00000000
00110000
00000000
00000000
01010000
00000000
,
00010000
00000000
00100000
00000000
00000100
00010000
00000100
00001000
,
00000000
00000101
00001000
00001100
,
00000010
00000000
00000110
00000000
00001000
00000000
00000100
00010000
,
00000000
00011000
00100000
00110000
,
10000000
10100000
00010000
01010000
,
20000000
00000000
00010000
00000000
30010000
00000000
10000000
00200000
,
00000000
01000000
01300000
00000000
,
00020000
00000000
00100000
00000000
00000000
01030000
00000000
00002000
,
00000000
00000000
00103000
00000000
00001000
00001000
00001000
00000000
,
00010000
00000010
00000100
00000001
,
00000010
00000000
00001000
00000000
00000010
00000100
00001000
00000000
,
00000200
00000000
00000000
00010000
00010300
00000000
00000000
00000000
,
00001000
00100000
00001000
00001000
,
00100000
00010000
01000000
00100000
,
10000000
01000000
00100000
00010000
,
00200000
00000000
00000000
00001000
00301000
00000000
00000000
00100000
,
00010000
00000000
00000000
00001000
00000100
00000000
00000010
00000000
,
00000001
00001000
00000100
00000001
,
00000100
00001000
00000100
00010000
,
00002000
00000000
00000000
00100000
00103000
00000000
00000000
00000000
,
00010000
00000000
10000000
01000000
00000000
10000000
00000000
01000000
,
10000000
00010000
00100000
00001000
,
00010000
01000000
10000000
00100000
,
01000000
00010000
00010000
00010000
,
00110000
00000000
00000000
00000000
00011000
00000000
00010000
00000200
,
00000000
00000000
00001300
00000000
00000010
00000100
00000000
00000001
,
00000000
00001000
00000100
00001000
,
00000020
00000000
00000000
00000230
00000000
00000000
00000302
00000000
,
00001003
00000000
00000100
00000000
00010000
00000010
00000000
00001010
,
00000000
00000000
00001000
00000000
00000100
00001000
00000000
00000010
,
00000000
00001000
00000100
00010000
,
00002000
00000000
00000000
00203000
00000000
00000000
00320000
00000000
,
00000000
00032000
00000000
00000000
00023000
00000000
01030000
00100000
,
00000000
00000000
10000000
00000000
00010000
10000000
00000000
00100000
,
00000000
01000000
00010000
00100000
,
00001000
00000000
00100000
00000000
00010000
00000000
01000000
00010000
,
00000000
00200000
00000000
00302000
00000000
00023000
00000000
00030200
,
00000000
00000000
00001300
00000000
00000010
00000100
00000000
00000010
,
00000000
00001000
00000100
00000010
,
00000100
00000000
00000000
00001000
00000000
00000000
00000100
00000000
,
00000000
00010000
00000000
00000000
00001000
00010000
00002000
00020000
,
00000000
00000000
00000000
00000000
,
00000000
00000000
00000000
00000000
,
00033000
00000000
00000000
00000000
;

//---------------dance-double - ----------------
#NOTES:
     dance-double:
     :
     Easy:
     3:
     0.279,0.295,0.128,0.196,0.000:
00000000
00000000
00000000
00000000
,
10010000
01000000
00010000
01000000
,
00200000
10000000
10000000
00010000
,
01300000
00010000
00000000
00100000
,
00012000
00100000
00013000
00000100
,
00001100
00000000
00010000
00000000
,
00000100
00001000
00000010
00000000
,
00000200
00000000
00000001
00000000
,
00000310
00000100
00000001
00000000
,
00002000
00000200
00003000
00010000
,
00000000
00001300
00000100
00010000
,
00002000
00000000
00203000
00000000
,
00320000
00000000
10030000
00010000
,
01000000
01000000
01000000
01000000
,
00100000
00100000
00100000
00100000
,
10000000
10000000
10000000
10000000
,
00010000
00010000
00010000
00010000
,
00100000
00100000
00100000
00100000
,
00001000
00001000
00001000
00001000
,
00010000
00010000
00010000
00010000
,
00000100
00000000
00000100
00000000
00000200
00000000
00000000
00000300
,
00000000
00001000
00001000
00001000
,
00001000
00001000
00001000
00001000
,
00000001
00000001
00000001
00000001
,
00000001
00000001
00000001
00000001
,
00001001
00000000
00000100
00000010
,
00000100
00000000
00000001
00000010
,
00000200
00000000
00001000
00000000
,
00001300
00000010
00000100
00000110
,
00001001
00000010
00000100
00001000
,
00000010
00000000
00001000
00000100
,
00020000
00000000
00032000
00000000
,
00103000
00001000
00010000
00000000
,
00001000
00100000
00010000
01000000
,
00100000
10000000
01000000
00100000
,
02000000
00000000
03200000
00000000
,
00310000
00000000
00100000
00101000
,
00010100
00001000
00000100
00001000
,
00000010
00001000
00000100
00010000
,
00020000
00000000
02030000
00000000
,
13000000
00100000
01000000
00000000
,
00010000
01000000
00010000
01000000
,
00100000
10000000
00010000
01000000
,
00020000
00100000
00100000
00130000
,
00110000
00000000
00011000
00000000
,
00001100
00000000
00001000
00000010
,
00000100
00000000
00000001
00000000
,
00002000
00000000
00003200
00000000
,
00020300
00000000
00030010
00000000
,
00001000
00000100
00010000
00000000
,
00011000
00000000
00100000
00010000
,
01000000
00000000
00100000
00000000
,
10000000
00010000
00100000
00001000
,
00000100
00000000
00000010
00000100
,
00000110
00000000
00000001
00000001
,
00000100
00000000
00000010
00000000
,
00001000
00000100
00010000
00001000
,
00100000
00000000
00010000
00100000
,
00110000
00000000
00010000
01000000
,
00020000
00000000
20030000
00000000
,
30100000
00000000
01000000
00000000
10010000
00000000
00000000
02000000
,
00000000
00000000
00000000
00000000
,
00000000
00000000
00000000
00000000
,
03000000
00000000
00000000
00000000
;
