#TITLE:In my story;
#SUBTITLE:;
#ARTIST:阿部靖広;
#TITLETRANSLIT:;
#SUBTITLETRANSLIT:;
#ARTISTTRANSLIT:Yasuhiro Abe;
#GENRE:;
#CREDIT:;
#MENUCOLOR:;
#METERTYPE:DDR;
#BANNER:In my story-bn.png;
#BACKGROUND:In my story-bg.png;
#LYRICSPATH:;
#CDTITLE:TUNE STREET-cdtitle.png;
#MUSIC:In my story.mp3;
#OFFSET:-0.640;
#SAMPLESTART:39.600;
#SAMPLELENGTH:12.000;
#SELECTABLE:YES;
#LISTSORT:;
#BPMS:0.000=170.000;
#STOPS:;
#BGCHANGES:;
#ATTACKS:;

//---------------dance-single - ----------------
#NOTES:
     dance-single:
     :
     Hard:
     8:
     0.637,0.536,0.459,0.763,0.009:
0000
0000
0000
0000
,
0000
0000
0000
0000
,
0000
0000
0000
0000
,
0000
0000
0000
0000
0000
1000
0100
0020
,
0000
0031
0010
0200
0000
1300
0001
0200
,
0000
0301
0000
1001
0000
1000
0100
2000
,
0000
3010
0100
0020
0000
0130
0001
0010
,
0000
0220
0000
0330
0000
1000
0001
2000
,
0000
3010
0100
0002
0000
0013
0001
0200
,
0000
0320
0000
1030
0000
1000
0100
0002
,
0000
0103
0010
0200
0000
2300
0000
0002
,
0000
0000
0000
0000
3003
0001
0010
0100
,
1000
0001
0100
0001
0000
1000
0001
2000
,
0000
3100
0010
0002
0000
0003
0000
0120
,
0000
1030
0001
0100
0000
0010
0100
0020
,
1000
0000
0100
0000
1030
0100
0010
0100
,
0000
1000
0100
2000
0000
3001
0010
0200
,
0000
1300
0000
0011
0000
1000
0100
0020
,
0000
0130
1000
0100
0010
0100
0010
0001
,
0200
0001
0320
0130
,
1001
0000
1100
1000
0001
0000
0100
0002
,
0000
0023
0000
0230
1000
0000
1300
0000
,
0001
0000
0001
0100
2000
0000
3100
0020
,
0000
0230
0000
0301
2000
0000
3100
0000
,
0110
0000
0010
0001
0010
0000
0001
0100
,
0000
0100
0010
1000
0002
0000
0013
0000
,
0001
0000
0100
0001
1000
0000
1000
0010
,
0100
0000
0000
0010
0000
0000
0110
0000
0000
0000
1000
0000
0100
0000
2000
0000
,
0000
3001
0100
0002
0000
0103
0010
0100
,
0000
1002
0000
0000
0013
0001
0010
0200
,
0000
1300
0001
0020
0000
0130
1000
1000
,
0000
0201
0000
0000
0310
0100
0001
2000
,
0000
3001
0100
0020
0000
1030
0100
0020
,
0000
0031
0010
0022
0000
0033
0000
1000
,
0000
1100
0000
0001
0000
0101
0000
0011
,
0000
1010
0000
0000
1000
0100
0010
0011
,
0000
0001
0000
0101
0000
1010
0000
2001
,
0000
0000
0010
0000
3010
0100
0010
1000
,
0000
1100
0000
0001
0000
0101
0000
1010
,
0000
0201
0000
0000
0301
0010
0100
1100
,
0000
1000
0000
0011
0000
1100
0000
0022
,
0000
0030
1000
0013
,
0000
2000
0200
3000
,
1000
1000
0010
1300
,
0001
0000
0201
0000
0010
0000
0301
0020
,
0100
0000
0100
0000
0031
1000
0100
1000
,
0001
0100
0010
0000
1000
0100
1000
0200
,
0000
0310
0000
0011
0000
1100
0000
0002
,
0000
0103
0000
0001
1000
0100
0010
0002
,
0010
0013
0000
0110
0000
2000
0000
3020
,
0100
0000
0130
0000
0010
1000
0010
1000
,
0100
0010
0001
0010
0100
0010
0001
1000
,
0001
0000
0000
0100
0000
0000
0202
0000
0000
0000
0303
0000
0000
0000
2001
0000
,
0000
3100
1000
0020
0000
0130
0001
0200
,
0000
0302
0000
0000
0013
0100
1000
0200
,
0000
1300
0001
0200
0000
0310
0100
2000
,
0000
3200
0000
0000
0301
0010
0100
2000
,
0000
3100
1000
0002
0000
0103
0001
0200
,
0000
0310
1000
0002
0000
1003
0100
1100
,
0000
0001
0000
0011
0000
0110
0000
2100
,
0000
3002
0000
0103
0001
0010
0100
1100
,
0000
0001
0000
0110
0000
1001
0000
0120
,
0000
0000
1030
0000
0001
0100
0001
1001
,
0000
1000
0000
1010
0000
0101
0000
1002
,
0000
0203
0000
0310
1000
0001
0100
0110
,
0000
1000
0000
1100
0000
0011
0000
2200
,
0000
0300
3001
0100
,
0000
0002
0020
0003
,
0001
0100
0130
1000
,
0001
0000
2010
0000
0001
0000
3001
0200
,
0010
0000
0001
0000
0301
0010
0100
2000
,
0000
3020
0000
0130
0001
1000
1000
0200
,
0000
0310
0001
2000
0000
3001
0000
0201
,
0000
0320
0000
1030
0100
1000
0001
0100
,
0000
0001
0010
1000
0000
1000
0010
0001
,
0000
1010
0000
0101
0000
0001
1000
0100
,
0000
1000
0100
0010
0000
0100
0010
0002
,
0000
0003
0000
0000
;

//---------------dance-single - ----------------
#NOTES:
     dance-single:
     :
     Medium:
     6:
     0.476,0.435,0.269,0.633,0.009:
0000
0000
0000
0000
,
0000
0000
0000
0000
,
0000
0000
0000
0000
,
0000
0000
0000
0000
0000
0000
0000
0002
,
0000
0000
0000
2003
0000
0000
0000
3200
,
0000
0000
0000
0000
0000
0301
0000
2002
,
0000
3003
0000
0202
0000
0303
0000
2010
,
0000
0002
0000
3003
0000
0001
0000
0200
,
0000
0000
0000
0320
0000
0000
0000
2030
,
0000
0000
0000
3002
0000
0000
0000
0023
,
0000
0000
0000
0230
0000
0000
0000
2000
,
0000
0000
0000
3300
0000
0000
0001
0000
,
0100
0000
0000
0000
0010
0000
0100
0001
,
0000
0000
1000
0000
0100
0000
0010
0100
,
0000
1000
0001
0100
,
0020
0000
1000
0000
1000
0000
1030
0001
,
0000
0000
0100
0000
0010
0000
1000
0002
,
0000
0023
0000
0230
0000
0000
1300
0000
,
0001
0100
0001
1000
,
0100
1000
0200
0310
,
1001
0100
0001
0100
,
0010
0100
0010
0000
1000
0100
1000
0000
,
0001
0010
0001
0100
,
0010
1000
0001
0000
0010
0001
0100
0000
,
0010
1000
0100
0010
,
0001
1000
0001
0100
,
0010
1000
0010
1000
0010
1000
0010
0000
,
0100
0000
0000
0010
0000
0000
0100
0000
0000
0000
0000
0000
0000
0000
2002
0000
,
0000
3003
0000
0022
0000
0033
0000
2000
,
0000
0200
0000
3300
0000
0010
0000
0022
,
0000
0033
0000
2020
0000
3030
0000
0002
,
0000
0200
0000
0303
0000
1000
0001
1000
,
0000
0001
0100
0001
0000
1000
0000
1001
,
0000
0001
0100
0020
0000
0000
0000
1030
,
0000
1000
0000
0001
0000
0100
0000
0210
,
0000
0002
0000
0000
0000
0303
0000
1100
,
0000
1000
0000
0001
0000
0011
0000
2002
,
0000
0000
0000
3003
0000
1000
0001
1000
,
0000
0100
0000
0001
0000
0100
0000
1100
,
0000
2020
0000
3030
0000
0001
0100
0001
,
0000
1000
0000
0010
0000
0100
0000
0001
,
0010
0000
0001
0000
1000
0000
0100
1000
,
0001
0110
0110
0001
,
1000
0000
0001
0000
1000
0000
0100
1000
,
0100
0000
2100
0000
0001
0000
3001
1000
,
0001
0010
0001
0100
,
0001
0000
1000
0000
0010
0000
1000
0200
,
0000
0320
0000
0032
0000
2003
0000
3020
,
0000
0230
0000
0000
0310
0000
1000
0000
,
0001
0010
0001
1000
,
0010
0100
0010
1000
,
0001
0100
0001
1000
,
0100
0000
0000
1000
0000
0000
0001
0000
0000
0000
0000
0000
0000
0000
0220
0000
,
0000
0330
0000
2002
0000
3003
0000
0020
,
0000
2000
0000
3030
0000
0000
0000
0022
,
0000
0033
0000
2200
0000
3300
0000
2000
,
0000
0002
0000
3003
0000
1000
0100
2000
,
0000
3001
0100
0002
0000
0013
0000
1002
,
0000
1003
0100
2000
0000
3000
0000
0011
,
0000
0001
0000
1000
0000
0100
0000
1100
,
0000
2020
0000
0000
0000
3030
0000
1100
,
0000
1000
0000
0100
0000
0020
0000
0002
,
0000
0000
0000
0033
0000
1000
0001
0200
,
0000
0301
0000
0010
0000
0100
0000
0110
,
0000
2200
0000
3300
0000
1000
0001
0010
,
0000
0001
0000
0100
0000
0010
0000
1000
,
0001
0000
0100
0000
0001
0000
1000
0010
,
1000
1000
0001
0001
,
0010
0000
0010
0000
0001
0000
0100
0010
,
0100
0000
0102
0000
1000
0000
1003
0001
,
0100
0010
1000
0001
,
1000
0100
0010
0100
,
0010
0001
1000
0001
,
0100
0000
0001
0000
1000
0000
0010
1000
,
0000
0001
0100
0001
0000
1000
0010
1000
,
0000
0001
0100
0001
0000
1000
0100
0010
,
0000
0100
0010
0001
0000
0010
0000
2002
,
0000
3003
0000
0000
;

//---------------dance-single - ----------------
#NOTES:
     dance-single:
     :
     Easy:
     5:
     0.320,0.466,0.156,0.156,0.000:
0000
0000
0000
0000
,
0000
0000
0000
0000
,
0000
0000
0000
0000
,
0000
0000
0000
0000
0000
0000
0000
0100
,
0000
0000
0000
0100
0000
0000
0000
0100
,
0000
0000
0000
0000
0000
0000
0010
0001
,
0000
0000
0000
0001
0000
0000
0000
0001
,
0000
0000
0000
0000
0000
0000
0100
1000
,
0000
0000
0000
1000
0000
0000
0000
0001
,
0000
0000
0000
1000
0000
0000
0000
0010
,
0000
0000
0000
0100
0000
0010
0000
0200
,
0000
0000
0000
0300
,
0001
0000
0001
0000
,
1000
0100
0010
0000
,
0100
0010
0100
1000
,
0001
0000
0100
0001
,
0100
0000
0010
0000
1000
0000
0001
0010
,
0000
0010
0000
0010
0000
0000
0100
0000
,
1000
0100
1000
0001
,
0010
0000
0011
0110
,
2100
0001
0100
0010
,
0010
0100
3001
1001
,
0012
0100
1000
0010
,
0100
1003
1010
0110
,
0201
0010
0001
0001
,
0010
0010
0001
0310
,
0001
1000
0010
1000
,
2002
0000
0000
3003
0000
0000
0000
0002
,
0000
0000
0000
0203
0000
0000
0000
0310
,
0000
1000
0000
0000
0000
1000
0000
2000
,
0000
0000
0000
3002
0000
0000
0000
0103
,
0000
0001
0000
0000
0000
0000
0000
1001
,
0000
0000
0000
1001
0000
0000
0000
0110
,
0000
0000
0000
1001
0000
0000
0000
0100
,
0000
0010
0000
0100
0000
0000
0000
0001
,
0000
0100
0000
0000
0000
0000
0000
0010
,
0000
0100
0000
0010
0000
0000
0000
2000
,
0000
0000
0000
3000
0000
0000
0000
0001
,
0000
0100
0000
0001
0000
0000
0000
1000
,
0000
0100
0000
0000
0000
0000
0000
1000
,
0000
0010
0000
0100
0000
0000
0000
0001
,
0100
0000
0001
0100
,
0001
0001
0010
0010
,
0100
0100
1000
1000
,
0001
0000
1000
0000
0001
0000
0100
0010
,
0000
1000
0100
1000
,
0100
0010
0100
0001
,
0100
1000
0001
0100
,
0010
0100
0001
1000
,
0100
1000
0010
0100
,
0001
0010
0100
1000
,
0001
0100
0001
1000
,
2002
0000
0000
3003
0000
0000
0000
0200
,
0000
0000
0000
0320
0000
0000
0000
1030
,
0000
0100
0000
0000
0000
1000
0000
0002
,
0000
0000
0000
0203
0000
0000
0000
0310
,
0000
0100
0000
0000
0000
0000
0000
0110
,
0000
0000
0000
0110
0000
0000
0000
1001
,
0000
0000
0000
0110
0000
0000
0000
1000
,
0000
0100
0000
1000
0000
0000
0000
0001
,
0000
0100
0000
0000
0000
0000
0000
0001
,
0000
0010
0000
0001
0000
0000
0000
0020
,
0000
0000
0000
0030
0000
0000
0000
0100
,
0000
1000
0000
0001
0000
0000
0000
0100
,
0000
0010
0000
0000
0000
0000
0000
0100
,
0000
0010
0000
1000
0000
0000
0000
0001
,
0100
0000
0001
1000
,
0010
0010
0100
0100
,
0001
0001
1000
1000
,
0010
0100
0010
0100
,
0001
1000
0100
1000
,
0001
0100
0010
1000
,
0001
0010
0100
1000
,
0001
0100
0010
1000
,
0001
0001
0100
0100
,
0010
0010
1000
1000
,
0001
0000
0100
0000
0001
0000
1000
0001
;

//---------------dance-single - ----------------
#NOTES:
     dance-single:
     :
     Beginner:
     1:
     0.126,0.200,0.087,0.269,0.000:
0000
0000
0000
0000
,
0000
0000
0000
0000
,
0000
0000
0000
0000
,
0000
0000
0000
0000
,
1000
0000
0000
0000
,
0001
0000
0000
0000
,
0100
0000
0000
0000
,
0010
0000
0000
0000
,
0100
0000
0000
0000
,
0001
0000
0000
0000
,
1000
0000
0000
0000
,
0100
0000
0000
0000
,
0020
0000
0030
0000
,
0000
0000
0000
0000
,
0002
0000
0003
0000
,
0000
0000
0000
0000
,
2000
0000
3000
0000
,
0000
0000
0000
0000
,
0200
0000
0300
0000
,
0000
0000
1000
1000
,
1000
0000
0000
0000
,
1000
0000
0000
0000
,
0010
0000
0000
0000
,
0010
0000
0100
0100
,
0100
0000
0000
0000
,
0001
0000
0000
0000
,
0010
0000
0000
0000
,
0002
0000
0000
0003
0000
0000
0000
0000
,
0200
0000
0000
0000
,
0300
0000
0000
0000
,
0002
0000
0000
0000
,
0003
0000
0000
0000
,
2002
0000
0000
0000
,
3003
0000
0000
0000
,
0220
0000
0000
0000
,
0330
0000
0000
0000
,
2002
0000
0000
0000
,
3003
0000
0000
0000
,
0022
0000
0000
0000
,
0033
0000
0000
0000
,
2200
0000
0000
0000
,
3300
0000
0000
0000
,
0000
1000
1000
0000
,
0000
0000
0001
0000
,
0000
0010
0000
0000
,
0010
0000
0000
0000
,
0001
0000
0000
0000
,
1000
0000
0000
0000
,
0100
0000
0000
0000
,
0010
0000
0000
0000
,
0100
0000
0000
0000
,
1000
0000
0000
0000
,
0002
0000
0000
0003
0000
0000
0000
0000
,
0200
0000
0000
0000
,
0300
0000
0000
0000
,
0020
0000
0000
0000
,
0030
0000
0000
0000
,
0220
0000
0000
0000
,
0330
0000
0000
0000
,
2002
0000
0000
0000
,
3003
0000
0000
0000
,
0220
0000
0000
0000
,
0330
0000
0000
0000
,
0022
0000
0000
0000
,
0033
0000
0000
0000
,
2200
0000
0000
0000
,
3300
0000
0000
0000
,
0000
0100
0100
0000
,
0000
0000
0010
0000
,
0100
0000
0000
0001
,
0000
0000
0000
0000
,
1000
0000
0000
0000
,
0100
0000
0000
0000
,
0010
0000
0000
0000
,
0001
0000
0000
0000
,
0100
0000
0000
0000
,
0020
0000
0000
0000
0000
0000
0000
0030
;

//---------------dance-double - ----------------
#NOTES:
     dance-double:
     :
     Hard:
     9:
     0.614,0.566,0.286,0.399,0.035: // measure 1
00000000
00000000
00000000
00000000
,  // measure 2
00000000
00000000
00000000
00000000
,  // measure 3
00000000
00000000
00000000
00000000
,  // measure 4
00000000
00000000
00000000
00000000
00000000
00001000
00000100
00002000
,  // measure 5
00000000
00003010
00000100
00000020
00000000
00000130
00000001
00000020
,  // measure 6
00000000
00000031
00001000
00000000
00000001
00000010
00000100
00002000
,  // measure 7
00000000
00003100
00010000
00002000
00000000
00103000
00000000
00101000
,  // measure 8
00000000
01010000
00000000
00000000
10000000
00010000
01000000
00020000
,  // measure 9
00000000
00130000
00010000
02000000
00000000
03010000
00100000
00001000
,  // measure 10
00000000
00011000
00000000
00010100
00000000
00001000
00000100
00001000
,  // measure 11
00000000
00000010
00000100
00000001
00000000
00000011
00000000
00000001
,  // measure 12
00000100
00000000
00000010
00000000
00001000
00000100
00001000
00000010
,  // measure 13
00000200
00000000
00000010
00000000
00001000
00000000
00000301
00002000
,  // measure 14
00000100
00000000
00010000
00000000
00000100
00000000
00003010
00010000
,  // measure 15
00002000
00010000
01000000
00013000
,  // measure 16
01010000
00000000
00000000
00000000
00100000
01000000
00010000
00100000
,  // measure 17
00020000
00000000
01000000
00000000
00100000
00000000
10030000
00010000
,  // measure 18
00000000
01010000
00000000
00101000
00000000
00100000
00001000
00010000
,  // measure 19
00000100
00000000
00001000
00000100
00000000
00000100
00001000
00000001
,  // measure 20
00000100
00000010
00001000
00001100
,  // measure 21
00010100
00000000
00000000
00001000
00010000
00000000
00000000
00001000
00010000
00000000
00000000
00000000
00001000
00000000
00100000
00000000
,  // measure 22
00010000
00100000
10000000
00100000
00010000
01000000
00010000
00000000
,  // measure 23
00110000
00000000
00000000
01000000
00010000
00000000
00000000
01000000
00010000
00000000
00000000
00000000
10000000
00000000
00010000
00000000
,  // measure 24
00100000
00001000
00010000
00000010
00000100
00000000
00000101
00000000
,  // measure 25
00001010
00000000
00000000
00000001
00001000
00000000
00000000
00000001
00001000
00000000
00000000
00000000
00000010
00000000
00000100
00000000
,  // measure 26
00000001
00000010
00001000
00010000
01000000
00000000
10000000
00000000
,  // measure 27
01000000
10000000
00010000
01000000
00000000
00010000
00100000
00001000
,  // measure 28
00010000
00000000
00000000
00001000
00000000
00000000
00001100
00000000
00000000
00000000
00000100
00000000
00000010
00000000
00010000
00000000
,  // measure 29
00000000
00001000
00010000
00100000
00000000
01000000
10000000
20000000
,  // measure 30
00000000
02000000
00000000
33000000
00000000
10000000
00010000
00100000
,  // measure 31
00000000
00100000
01000000
00001000
00000000
00010000
00000010
00000200
,  // measure 32
00000000
00000002
00000000
00000303
00000000
00001000
00000010
00010000
,  // measure 33
00000000
00001000
00100000
00001000
00000000
00010000
00001000
00100000
,  // measure 34
00000000
00010000
00100000
00010000
00000000
01000000
00010000
00200000
,  // measure 35
00000000
00302000
00000000
00023000
00000000
02030000
00000000
23000000
,  // measure 36
00000000
30020000
00000000
00130000
00010000
00100000
00001000
00020000
,  // measure 37
00000000
00030200
00000000
00002300
00000000
00003200
00000000
00000302
,  // measure 38
00000000
00000000
00000103
00000000
00001000
00000001
00000100
00002000
,  // measure 39
00000000
00003200
00000000
00000320
00000000
00020030
00000000
00030200
,  // measure 40
00000000
00010300
00001000
00000000
00100000
00010000
00100000
01000000
,  // measure 41
00000000
11000000
00000000
00010000
00000000
01010000
00000000
00010000
,  // measure 42
00200000
00000000
00301000
00000000
00100000
00010000
00100000
00001000
,  // measure 43
00010000
00011000
00000100
00001100
,  // measure 44
00000010
00000000
00000110
00000000
00000001
00000010
00000100
00001000
,  // measure 45
00010000
00000000
01010000
00000000
00100000
00010000
01000000
10010000
,  // measure 46
00000000
10000000
01000000
00010000
00000000
00001000
00000100
00000001
,  // measure 47
00001000
00000010
00000100
00001000
00000100
00000010
00001000
00000200
,  // measure 48
00000000
00020300
00000000
00032000
00000000
00003020
00000000
00002030
,  // measure 49
00000000
00013000
00001000
00000000
00100000
00010000
00100000
00001000
,  // measure 50
00010000
01000000
10000000
00010000
00100000
00010000
01000000
00100000
,  // measure 51
01000000
00010000
00100000
00001000
00000100
00000010
00000100
00000001
,  // measure 52
00001000
00000100
00000010
00000100
00000000
00000010
00000001
00000100
,  // measure 53
00000010
00000000
00000000
00000100
00000000
00000000
00001001
00000000
00000000
00000000
00001000
00000000
00000100
00000000
00001000
00000000
,  // measure 54
00000000
00000010
00010000
00000100
00000000
00010000
00001000
00020000
,  // measure 55
00000000
00002000
00000000
00033000
00001000
00100000
00010000
10000000
,  // measure 56
00000000
01000000
10000000
00100000
00000000
00010000
00001000
00000200
,  // measure 57
00000000
00000002
00000000
00000303
00000000
00001000
00000001
00000010
,  // measure 58
00000000
00000001
00000100
00001000
00000000
00010000
00100000
01000000
,  // measure 59
00000000
01000000
00010000
02000000
00000000
03100000
00010000
00100000
,  // measure 60
00000000
01100000
00000000
01000000
00000000
11000000
00000000
01010000
,  // measure 61
00000000
01001000
00000000
00010000
00001000
00010000
00000100
00001000
,  // measure 62
00000000
00001010
00000000
00000001
00000000
00000011
00000000
00000101
,  // measure 63
00000000
00000001
00000100
00000000
00000010
00001000
00000100
00000010
,  // measure 64
00000000
00000110
00000000
00001000
00000000
00001100
00000000
00010100
,  // measure 65
00000000
00101000
00000000
00001000
00010000
00001000
00000100
00000002
,  // measure 66
00000000
00000203
00000000
00000320
00000000
00002030
00000000
00003100
,  // measure 67
00000001
00000000
00000100
00000000
00001000
00000010
00000100
00000010
,  // measure 68
00001000
00001000
00000100
00000100
,  // measure 69
00010000
00000100
00010000
00000000
00001000
00100000
00001000
00010000
,  // measure 70
00001000
00000000
00100000
00000000
00010000
01000000
00100000
10000000
,  // measure 71
00000000
00100000
01000000
00010000
00000000
00100000
00010000
00100000
,  // measure 72
00001000
00010000
00000100
00000010
00000001
00000100
00000010
00000100
,  // measure 73
00001000
00010000
01000000
10000000
00000000
00010000
00100000
00010000
,  // measure 74
00000000
10000000
00100000
01000000
00010000
00001000
00010000
01000000
,  // measure 75
00000000
00010000
00100000
00001000
00000000
00010000
00000100
00001000
,  // measure 76
00000010
00000001
00000010
00000100
00000010
00001000
00000100
00010000
,  // measure 77
00000000
00001000
01000000
00010000
00000000
01000000
00100000
00001000
;

//---------------dance-double - ----------------
#NOTES:
     dance-double:
     :
     Medium:
     7:
     0.452,0.568,0.303,0.182,0.000:
00000000
00000000
00000000
00000000
,
00000000
00000000
00000000
00000000
,
00000000
00000000
00000000
00000000
,
00000000
00000000
00000000
00000000
00000000
00010000
00000100
00010000
,
00000000
00001000
00100000
00001000
00000000
00010000
00001000
00010000
,
00000000
00000000
00000100
00000000
00001000
00000000
00000001
00000010
,
00000000
00000001
00000100
00000001
00000000
00001000
00000000
00000010
,
00000000
00000100
00000000
00000000
00001000
00010000
00000000
00011000
,
00000000
00100000
00000000
00010000
00000000
01000000
00100000
10000000
,
00000000
00010000
00000000
00100000
00000000
00001000
00010000
00001000
,
00000000
00000010
00000000
00000001
00000000
00000100
00000000
00000001
,
00001000
00000000
00000100
00000000
00001000
00000100
00000010
00000000
,
00000110
00000000
00001000
00000000
00000001
00000000
00000100
00000001
,
00000010
00000000
00000100
00000000
00001000
00000000
00000010
00001000
,
00000000
00000100
00000000
00010000
00000000
00001000
00010000
00001000
,
00100000
00000000
00010000
00000000
01000000
00000000
00100000
01000000
,
00000000
00010000
10000000
01000000
00000000
00100000
00010000
00100000
,
00000000
00001000
00000000
00011000
00000000
00000000
00001000
00000000
,
00000010
00000100
00000001
00000010
00000000
00000001
00000100
00000001
,
00000000
00001000
00001100
00001100
,
00001001
00001000
00000100
00010000
,
00001000
00010000
00100000
01000000
,
00100000
10000000
01000000
10000000
,
01000000
00010000
00001000
00000110
,
00001001
00000100
00000100
00000001
,
00000100
00000010
00001000
00000100
,
00000010
00000100
00001000
00000100
,
00020000
00000000
00000000
00031000
00000000
00010000
00000000
00011000
,
00000000
00000000
00000000
00101000
00000000
00000000
00000000
00002000
,
00000000
00000200
00000000
00003300
00000000
00001000
00000000
00011000
,
00000000
00000000
00000000
00001100
00000000
00000000
00000000
00000200
,
00000000
00000002
00000000
00000303
00000000
00000001
00000000
00000011
,
00000000
00000000
00000000
00000110
00000000
00000000
00000000
00001000
,
00000000
00000100
00010000
00000020
00000000
00000030
00000000
00000100
,
00000000
00000001
00000000
00000010
00000000
00000100
00000000
00002000
,
00000000
00003200
00000000
00000000
00010300
00001000
00010000
00001000
,
00000000
01000000
00000000
00010000
00000000
00100000
00000000
02000000
,
00000000
00000000
03000000
00000000
10000000
00010000
10000000
00100000
,
00000000
01000000
00000000
00010000
00000000
00100000
00000000
00020000
,
00000000
00032000
00000000
00000000
00003100
00000010
00000001
00000100
,
00000000
00000001
00000000
00001000
00000000
00000100
00000000
00010000
,
00002000
00000000
00010000
00013000
,
00011000
00011000
00010100
00010100
,
00011000
00011000
00101000
00101000
,
00010000
00100000
01000000
00000000
00100000
01000000
10000000
00010000
,
00000000
01000000
00000000
00010000
00000000
00100000
00000000
00001000
,
00000000
00000000
00010000
00000000
00000100
00001000
00000100
00001000
,
00000000
00010000
00000000
01000000
00000000
00100000
00000000
01000000
,
00000000
00010000
00000000
00000000
00100000
00000000
00010000
01000000
,
00000000
00100000
00000000
01000000
00000000
10000000
00000000
01000000
,
00000000
00010000
00000000
01000000
00000000
00010000
00100000
10000000
,
00000000
00100000
00000000
00010000
00000000
00011000
00000000
00001000
,
00000200
00000000
00000000
00000310
00000000
00000100
00000000
00010100
,
00000000
00000000
00000000
00011000
00000000
00000000
00000000
00002000
,
00000000
02000000
00000000
03003000
00000000
01000000
00000000
01010000
,
00000000
00000000
00000000
11000000
00000000
00000000
00000000
20000000
,
00000000
00200000
00000000
30300000
00000000
10000000
00000000
10000000
,
00000000
00010000
00000000
00100000
00000000
00001000
00000000
00010000
,
00000000
00000100
00001000
00000100
00000000
00000000
00000000
00001000
,
00000000
00000010
00000000
00000001
00000000
00000100
00000000
00001000
,
00000000
00000200
00000000
00000000
00010300
00001000
00100000
00010000
,
00000000
00100000
00000000
10000000
00000000
01000000
00000000
00020000
,
00000000
00000000
10030000
00000000
00010000
00100000
00010000
00100000
,
00000000
00001000
00000000
00010000
00000000
00000100
00000000
00001000
,
00000000
00000002
00000000
00000000
00000013
00000100
00001000
00000010
,
00000000
00000100
00000000
00000001
00000000
00001000
00000000
00000100
,
00010000
00000000
00001000
00000000
00100000
00010000
00100000
00000000
,
00011000
00011000
00101000
00101000
,
00011000
00011000
00010100
00010100
,
00100000
00010000
00001000
00000000
00010000
00001000
00000100
00000010
,
00000000
00000001
00000000
00001000
00000000
00000100
00000000
00001000
,
00000000
00000000
00000010
00000000
00001000
00000000
00000100
00010000
,
00000000
00001000
00000000
00100000
00000000
00010000
00000000
00001000
,
00000000
00000000
00010000
00000000
00100000
01000000
10000000
00010000
,
00000000
00100000
00000000
00010000
00000000
00100000
00000000
00001000
,
00000000
00010000
00000000
00001000
00000000
00000100
00000000
00001000
,
00000000
00010000
00000000
01000000
00000000
10000000
01000000
00200000
,
00000000
00300000
00000000
00000000
00000000
00000000
00000000
00000000
;

//---------------dance-double - ----------------
#NOTES:
     dance-double:
     :
     Easy:
     5:
     0.357,0.367,0.069,0.347,0.000:
00000000
00000000
00000000
00000000
,
00000000
00000000
00000000
00000000
,
00000000
00000000
00000000
00000000
,
00000000
00000000
00000000
00000000
00000000
00000000
00000000
00002000
,
00000000
00000000
00000000
00003020
00000000
00000000
00000000
00000230
,
00000000
00000000
00000000
00000000
00000301
00000000
00000010
00000200
,
00000000
00000000
00000000
00020300
00000000
00000000
00000000
00032000
,
00000000
00200000
00000000
00000000
00303000
00000000
00100000
00020000
,
00000000
00000000
00000000
20030000
00000000
00000000
00000000
32000000
,
00000000
00000000
00000000
03200000
00000000
00000000
00000000
00302000
,
00000000
00000000
00000000
00023000
00000000
00000100
00000000
00000200
,
00000000
00000000
00030300
00001000
,
00001010
00000000
00000001
00000100
,
00000101
00000000
00000010
00000100
,
00001000
00000100
00000010
00000001
,
00000100
00000000
00000010
00000100
,
00000001
00000000
00000000
00000000
00001000
00000000
00000100
00010000
,
00000000
00010000
00000000
00010000
00000000
00000000
00001000
00000000
,
00100000
00010000
01000000
00100000
,
01000000
00000000
00010000
00010000
,
10010000
01000000
01000000
00000000
,
01000000
00010000
10000000
00000000
,
00010000
00100000
00001000
00010000
,
00000100
00000010
00000001
00000001
,
00000101
00000010
00000010
00000000
,
00001000
00000001
00001000
00000000
,
00000100
00001000
00000010
00001000
,
00002200
00000000
00000000
00003300
00000000
00000000
00010000
00002000
,
00000000
00000000
00000000
00203000
00000000
00000000
00000000
00320000
,
00000000
00100000
00000000
00030000
00000000
01000000
00000000
02010000
,
00000000
00000000
00000000
03200000
00000000
00000000
00000000
00320000
,
00000000
00001000
00000000
00030000
00000000
00000100
00000000
00002000
,
00000000
00000000
00000000
00003002
00000000
00000000
00000000
00000023
,
00000000
00000100
00000000
00000230
00000000
00000000
00000000
00001300
,
00000000
00000100
00000000
00000010
00000000
00000001
00000000
00000010
,
00000000
00000100
00000000
00000000
00000000
00000000
00001000
00000100
,
00000000
00010000
00000000
01000000
00000000
10000000
00000000
00020000
,
00000000
00000000
00000000
00000000
01000000
00000000
01030000
00010000
,
00000000
10000000
00000000
00100000
00000000
00010000
00000000
00001000
,
00000000
00000200
00000000
00000000
00000000
00000300
00000001
00000010
,
00000000
00000001
00000000
00001000
00000000
00000100
00000000
00000010
,
00000100
00000000
00000100
00001000
,
00000100
00000100
00010000
00010000
,
00001000
00001000
01000000
01000000
,
00100000
00000000
00100000
00000000
00010000
00000000
00010000
00100000
,
00000000
01000000
00000000
00010000
00000000
10000000
00000000
01000000
,
00000000
00000000
00000000
00000000
10000000
00000000
01000000
00100000
,
00000000
00010000
00000000
00100000
00000000
00001000
00000000
00010000
,
00000000
00000100
00000000
00000000
00000010
00000000
00000001
00000010
,
00000000
00000001
00000000
00001000
00000000
00000100
00000000
00000100
,
00000000
00010000
00000000
00001000
00000000
00000000
00000100
00000010
,
00000000
00000100
00000000
00000001
00000000
00000000
00001000
00000000
,
00002200
00000000
00000000
00003300
00000000
00010000
00000000
00012000
,
00000000
00000000
00000000
00203000
00000000
00000000
00000000
00320000
,
00000000
10000000
00000000
00030000
00000000
10000000
00000000
02000000
,
00000000
00000000
00000000
03200000
00000000
00000000
00000000
00302000
,
00000000
00010000
00000000
00003000
00000000
00000100
00000000
00000002
,
00000000
00000000
00000000
00000023
00000000
00000000
00000000
00002030
,
00000000
00010000
00000000
00203000
00000000
00000000
00000000
00310000
,
00000000
00100000
00000000
00001000
00000000
00010000
00000000
00000100
,
00000000
00000100
00000000
00000000
00001000
00000000
00000100
00010000
,
00000000
00010000
00000000
00001000
00000000
01000000
00000000
00010000
,
00000000
00000000
00000000
00000000
00100000
00000000
00100000
01000000
,
00000000
10000000
00000000
00010000
00000000
01000000
00000000
00100000
,
00000000
01000000
00000000
00000000
10000000
00000000
01000000
00010000
,
00000000
00100000
00000000
00001000
00000000
00010000
00000000
00000100
,
00000010
00000000
00000001
00000010
,
00000001
00000001
00001000
00001000
,
00000010
00000010
00000100
00000100
,
00001000
00000000
00001000
00000000
00010000
00000000
00010000
01000000
,
00000000
00000000
00000000
10000000
00000000
00010000
00000000
01000000
,
00000000
00000000
00010000
00000000
00000000
00000000
00100000
00001000
,
00000000
00000000
00000000
00010000
00000000
00000010
00000000
00000100
,
00000000
00000000
00000001
00000000
00000000
00000000
00000010
00000001
,
00000000
00000000
00001000
00000100
00000000
00000000
00010000
00001000
,
00000000
00000000
00001000
00100000
00000000
00000000
00000100
00010000
,
00000000
00000000
00000010
00001000
00000000
00000000
00001000
00000001
;
