#TITLE:ふゆこい;
#SUBTITLE:;
#ARTIST:ピンクターボ;
#TITLETRANSLIT:Fuyu Koi;
#SUBTITLETRANSLIT:;
#ARTISTTRANSLIT:Pink Turbo;
#GENRE:;
#CREDIT:;
#MENUCOLOR:;
#METERTYPE:DDR;
#BANNER:Fuyu Koi-bn.png;
#BACKGROUND:Fuyu Koi-bg.png;
#LYRICSPATH:;
#CDTITLE:TUNE STREET-cdtitle.png;
#MUSIC:Fuyu Koi.mp3;
#OFFSET:-1.580;
#SAMPLESTART:73.680;
#SAMPLELENGTH:14.560;
#SELECTABLE:YES;
#LISTSORT:;
#BPMS:0.000=131.000;
#STOPS:;
#BGCHANGES:;
#ATTACKS:;

//---------------dance-single - ----------------
#NOTES:
     dance-single:
     :
     Hard:
     7:
     0.448,0.452,0.114,0.182,0.045:
0000
0000
0000
0000
,
0000
0000
0000
0000
,
0000
0000
0000
0000
,
0000
0000
0000
0000
,
0000
0000
0000
0000
,
0000
0000
0000
0000
,
0000
0000
0000
0000
,
0000
0000
0000
0000
,
1001
0000
0000
0000
0100
0000
0001
1000
0000
0100
1000
0000
0010
0000
0100
0000
,
0001
0000
1000
0000
0100
0000
1000
0010
0000
1000
0100
0000
0010
0000
0100
0000
,
0001
0000
0100
0000
1000
0010
0001
0010
,
0100
0000
0001
0000
1000
0100
1000
0001
,
1001
0000
1000
0001
0010
0010
0100
0010
,
0001
0010
0001
0100
0010
1000
0001
0010
,
0100
1000
0001
0100
0001
0100
0010
1000
,
0001
0000
0000
0000
0110
0100
0101
0000
,
1000
0100
1000
0100
0001
0100
0001
0100
,
1000
0010
0100
0001
0020
0000
0031
0010
,
0100
0010
0100
1000
0100
1000
0001
0100
,
0010
0100
1000
0100
0020
0000
1030
0010
,
2000
0000
3002
0000
0013
0100
0010
0001
,
1000
0010
0200
0000
0302
0000
1003
0001
,
1001
0000
0001
0100
0200
0000
0310
0100
,
0010
1000
0100
1000
0100
0010
0001
0010
,
0001
0100
0001
1000
0010
1000
0100
0010
,
0001
0010
0100
1000
0002
0000
0103
0001
,
0100
0010
0100
1000
0100
0001
1000
0100
,
0010
0100
1000
0100
2000
0000
3001
0100
,
0002
0000
0023
0000
0130
0010
0100
1000
,
0001
0100
0020
0000
2030
0000
3001
1000
,
0001
0010
0011
0000
1000
0100
1100
0000
,
1000
0010
0100
0002
1000
1000
1003
0000
,
1002
0000
0103
0001
2000
0000
3100
1000
,
0020
0100
1000
0130
,
2010
0000
3001
1000
0200
0000
0310
0100
,
0020
0000
0001
0000
0130
0010
0001
1000
,
0001
0100
0001
1000
0100
1000
0100
0010
,
0100
0010
0001
0100
0001
1000
0010
0010
,
0110
0000
1010
0000
1000
0100
0010
0001
,
0000
0000
0000
0000
0000
0000
1000
0100
1000
0000
0000
0001
0100
0000
0010
0100
,
0010
0000
0000
1000
0010
0000
0100
0000
0001
0000
0010
0000
0100
0000
0010
0000
,
0001
0000
0000
1000
0010
0000
0100
0000
0010
0000
1000
0000
0010
0000
0001
0000
,
0010
0000
0000
0100
0001
0000
0010
0000
0010
0000
0100
0000
1000
0000
0001
0000
,
0010
0000
0001
0000
1000
0001
0010
0001
,
0010
0000
0100
0010
0100
1000
0100
1000
,
0010
0000
1000
0100
1000
0001
0010
0001
,
0100
0000
0010
1000
0100
1001
0000
0101
,
0000
0100
0010
0100
0001
1000
0100
0010
,
0002
0100
0103
0001
0001
1000
0100
0010
,
0002
0100
0103
0001
0001
1000
0100
0010
,
0001
0100
0010
0100
0001
1000
0100
0000
,
1000
0000
0001
0000
0010
0010
0001
0100
,
0010
0000
0100
0001
1000
0000
0010
1000
,
0100
1000
0010
0000
1000
0001
0010
0100
,
2000
0000
3001
0100
0001
1000
0000
1100
,
0000
0000
0001
0000
0010
0001
0010
0001
,
0100
0000
0000
0010
0100
0000
0010
0000
1000
0000
0010
0000
1000
0000
0001
0000
,
0010
0000
0000
0001
0100
0000
0001
0000
0010
0000
0001
0000
0010
0000
0100
0000
,
2000
0000
3001
0100
0001
1000
0100
1000
,
0001
0000
0100
0000
0010
0100
0001
1000
,
1000
0000
0001
0100
0000
0010
0100
0001
,
1001
0000
0010
0000
0100
0001
0010
0100
,
1000
0000
0100
0001
0000
0100
1000
0010
;

//---------------dance-single - ----------------
#NOTES:
     dance-single:
     :
     Medium:
     4:
     0.254,0.309,0.091,0.189,0.000:
0000
0000
0000
0000
,
0000
0000
0000
0000
,
0000
0000
0000
0000
,
0000
0000
0000
0000
,
0000
0000
0000
0000
,
0000
0000
0000
0000
,
0000
0000
0000
0000
,
0001
0001
0001
0001
,
1001
0100
0100
0000
,
0010
1000
0100
0010
,
0001
1000
1000
0000
,
0010
0100
0001
0010
,
0001
1000
1000
0100
,
1000
0100
0100
0010
,
0001
0001
0100
0001
,
0020
0000
0030
0000
0001
1000
1100
0000
,
1010
0100
0010
0100
,
0001
0000
1000
1000
1000
0000
0001
0000
,
0010
0100
0010
0100
,
1000
0000
0001
0001
0001
0000
0100
0000
,
0020
2030
3002
0003
,
0020
0032
2003
3000
,
0010
0100
0010
1000
,
0001
0000
0010
0000
0001
0100
0001
0000
,
1001
1000
0010
0100
,
1000
0000
0100
0100
0100
0000
0010
0000
,
0100
0001
0010
0001
,
1000
0000
0010
0010
0010
0000
1000
0000
,
0002
0023
0230
0300
,
2000
3200
0320
0030
,
0001
0100
0001
1000
,
0100
0100
0010
0100
,
2200
0000
3300
0001
,
0202
0000
0000
0303
,
0220
0000
0330
0001
,
2002
0000
0000
3003
,
0100
0010
0100
0001
,
0010
0100
1000
0001
,
0010
0000
0000
0000
0001
0000
1000
0200
,
0000
0300
0000
1000
0100
0000
1000
0001
,
0100
0000
0000
0000
0010
0000
0000
0100
,
0010
0000
1000
0010
,
1000
0001
0000
1001
,
0100
0010
0100
0001
,
0020
0000
0000
0000
0031
0100
0001
0000
,
0000
0000
0000
0000
1000
0000
1000
0100
,
1000
0000
0010
0000
0000
0100
0000
0010
,
0000
0000
0000
0000
0100
0000
0000
0001
,
0100
0000
0000
0000
0010
0000
0000
1000
,
0100
0000
1000
0001
,
0100
0010
0000
1001
,
0100
0000
0000
0000
0010
0000
1000
0001
,
0020
0000
0100
0000
,
0031
0000
0100
0000
0010
0000
1000
0001
,
0200
0000
0000
0000
0000
0010
0000
0301
,
0000
0000
0100
0010
,
1001
0000
1000
0100
,
1100
0000
0001
0100
,
0001
0000
0010
0000
0001
0100
0001
0000
,
0000
0000
1000
0010
,
0100
0000
0010
0000
0000
0100
0001
0000
,
1000
0001
0001
1000
,
0010
0000
0100
0000
0000
0001
0100
1000
;

//---------------dance-single - ----------------
#NOTES:
     dance-single:
     :
     Easy:
     2:
     0.144,0.168,0.076,0.098,0.000:
0000
0000
0000
0000
,
0000
0000
0000
0000
,
0000
0000
0000
0000
,
0000
0000
0000
0000
,
0000
0000
0000
0000
,
0000
0000
0000
0000
,
0000
0000
0000
0000
,
0000
0000
0000
0000
,
0010
0000
0100
0000
,
0001
0000
1000
1000
,
0100
0000
1000
0000
,
0001
0000
0010
0000
,
0002
0000
0100
0003
,
2000
0000
0010
3000
,
0001
0000
1000
0010
,
0010
0000
0100
0100
,
0010
0000
1000
0000
,
0001
0000
0002
0000
,
0013
0000
0001
0000
,
0100
0000
0020
0000
,
1030
1000
0100
0000
,
0100
0100
0010
0000
,
0010
0000
0001
0000
,
1000
0001
1000
0000
,
0010
0000
0100
0000
,
0010
0000
2000
0000
,
3100
0000
1000
0000
,
0001
0000
0020
0000
,
0031
0001
0100
0000
,
0100
0100
0010
0000
,
0010
0000
1000
0000
,
0001
0000
0100
0100
,
2002
0000
3000
0000
,
0003
0000
1000
0000
,
0220
0000
0030
0000
,
0300
0000
0001
0000
,
1000
0000
0100
0000
,
0010
0000
0001
0000
,
0100
0000
0001
0010
,
0020
0000
0030
0000
,
1100
0000
0000
0000
,
0110
0000
0000
0000
,
0011
0000
0001
0000
,
0100
0000
0000
0000
,
0010
0000
1000
0000
,
0001
0000
0000
0000
,
0001
0000
1000
0001
,
0010
0000
0001
0000
,
0101
0000
0000
0000
,
1001
0000
0000
0000
,
1010
0000
1000
0000
,
0100
0000
0000
0000
,
1000
0000
0010
0000
,
0001
0000
0000
0000
,
0001
0000
0010
1000
,
0001
0000
0100
0000
,
1001
0000
0010
0000
,
0100
0000
0010
0000
,
1000
0000
0001
0000
,
0020
0000
0031
0000
,
0011
0000
0001
0000
,
1000
0000
0001
0000
,
0100
0000
0010
0000
,
0200
0000
0300
0000
;

//---------------dance-single - ----------------
#NOTES:
     dance-single:
     :
     Beginner:
     1:
     0.098,0.149,0.076,0.106,0.000:
0000
0000
0000
0000
,
0000
0000
0000
0000
,
0000
0000
0000
0000
,
0000
0000
0000
0000
,
0000
0000
0000
0000
,
0000
0000
0000
0000
,
0000
0000
0000
0000
,
0000
0000
0000
0000
,
1001
0000
0000
0000
,
0010
0000
0000
0000
,
0100
0000
0000
0000
,
0010
0000
0000
0000
,
1000
0000
0000
0000
,
0100
0000
0000
0000
,
1000
0000
0000
0000
,
1001
0000
0000
0000
,
1001
0000
0000
0000
,
0100
0000
0000
0000
,
0010
0000
0000
0000
,
1000
0000
0000
0000
,
0002
0000
0003
0000
,
0020
0000
0030
0000
,
0200
0000
0300
0000
,
1000
0000
0001
0000
,
0100
0000
0000
0000
,
0010
0000
0000
0000
,
0100
0000
0000
0000
,
0001
0000
0000
0000
,
2000
0000
3000
0000
,
0200
0000
0300
0000
,
0020
0000
0030
0000
,
0001
0000
1000
0000
,
2002
0000
0000
0000
,
0000
0000
3003
0000
,
0220
0000
0000
0000
,
0000
0000
0330
0000
,
0001
0000
0000
0000
,
1000
0000
0000
0000
,
0200
0000
0000
0000
0000
0000
0000
0300
,
0000
0000
1000
0000
,
0001
0000
1000
0000
,
0001
0000
0000
0000
,
0100
0000
0010
0000
,
0010
0000
0000
0000
,
1000
0000
0001
0000
,
1000
0000
0000
0000
,
0001
0000
0010
0000
,
0200
0000
0300
0000
,
1001
0000
0000
0000
,
1001
0000
0000
0000
,
0010
0000
1000
0000
,
1000
0000
0000
0000
,
0001
0000
0000
0000
,
0010
0000
0001
0000
,
0001
0000
0100
0000
,
1001
0000
0000
0000
,
0110
0000
1000
0000
,
0001
0000
0000
0000
,
1000
0000
0001
0000
,
0010
0000
0000
0000
,
0001
0000
0000
0000
,
1000
0000
0001
0000
,
0100
0000
0100
0000
,
2002
0000
0000
0000
,
0000
0000
0000
0000
,
0000
0000
3003
0000
;

//---------------dance-double - ----------------
#NOTES:
     dance-double:
     :
     Hard:
     7:
     0.414,0.429,0.182,0.045,0.072: // measure 1
00000000
00000000
00000000
00000000
,  // measure 2
00000000
00000000
00000000
00000000
,  // measure 3
00000000
00000000
00000000
00000000
,  // measure 4
00000000
00000000
00000000
00000000
,  // measure 5
00000000
00000000
00000000
00000000
,  // measure 6
00000000
00000000
00000000
00000000
,  // measure 7
00000000
00000000
00000000
00000000
,  // measure 8
00000000
00000000
00000000
00000000
,  // measure 9
00110000
00000000
00000000
00000000
10000000
00000000
00010000
01000000
00000000
00010000
01000000
00000000
00010000
00000000
00000000
00000000
,  // measure 10
00100000
00000000
00000000
00000000
00001000
00000000
00010000
00000100
00000000
00010000
00000100
00000000
00001000
00000000
00000001
00000000
,  // measure 11
00000001
00000000
00000000
00000000
00001000
00000000
00000100
00010000
00000000
00000100
00010000
00000000
00001000
00000000
00100000
00000000
,  // measure 12
01000000
00000000
00000000
00000000
10000000
00000000
00010000
00100000
00000000
00010000
00100000
00000000
01000000
00000000
00100000
00000000
,  // measure 13
00010000
01000000
10000000
01000000
00010000
00100000
00001000
00010000
,  // measure 14
00001000
00000100
00000001
00000100
00000010
00001000
00000100
00000000
,  // measure 15
00010000
00001000
00010000
00001000
00010000
00001000
00010000
00000100
,  // measure 16
00010100
00000000
00000000
00000000
00001000
00100000
00001000
00000000
,  // measure 17
00110000
00000000
11000000
00000000
01010000
00000000
10000000
01000000
,  // measure 18
00100000
00000000
01000000
00100000
00010000
00000000
00100000
00000000
,  // measure 19
00101000
00000000
00011000
00000000
00010100
00000000
00010000
00000100
,  // measure 20
00001000
00000000
00000001
00000010
00000100
00000000
00001000
00000000
,  // measure 21
00000010
00000100
00001000
00000000
00010000
00000000
01000000
10000000
,  // measure 22
00010000
00100000
00001000
00000000
00010000
00000000
00000100
00000000
,  // measure 23
00001000
00000000
00010000
00000000
01000000
00100000
01000000
00010000
,  // measure 24
10000000
01000000
00010000
00000000
01000000
00100000
00001000
00010000
,  // measure 25
00010100
00000000
00001100
00000000
00001001
00000000
00000010
00000100
,  // measure 26
00000001
00000000
00001000
00000100
00001000
00000000
00000010
00000000
,  // measure 27
00001100
00000000
00011000
00000000
00101000
00000000
00001000
00010000
,  // measure 28
00000100
00000000
00001000
00010000
01000000
00000000
00100000
00010000
,  // measure 29
10000000
00000000
00100000
00000000
01000000
00000000
00010000
00100000
,  // measure 30
01000000
10000000
00010000
00000000
00100000
00000000
00001000
00010000
,  // measure 31
00001000
00000100
00001000
00010000
00001000
00000000
00100000
00000000
,  // measure 32
00010000
00100000
00010000
00100000
01000000
10000000
00100000
01000000
,  // measure 33
02100000
00000000
00020000
00000000
03030000
10000000
00010000
00100000
,  // measure 34
00102000
00000000
00020000
00000000
00033000
00010000
00000010
00000100
,  // measure 35
00000110
00010000
00000100
00010000
,  // measure 36
00000010
00000100
00001000
00010000
00000000
00001000
00000100
00000001
,  // measure 37
00000010
00000011
00001000
00001100
,  // measure 38
00000010
00010000
00000100
00000000
00001000
00000100
00000010
00000100
,  // measure 39
00002000
00000000
00003100
00010000
00001000
00100000
01000000
01100000
,  // measure 40
00000000
00000000
00000000
00000000
00000000
00000000
10000000
00010000
01000000
00000000
00000000
00010000
00100000
00000000
00010000
01000000
,  // measure 41
00001000
00000000
00000000
00100000
00001000
00000000
00010000
00000000
01000000
00000000
00100000
00000000
00010000
00000000
10000000
00000000
,  // measure 42
00100000
00000000
00000000
01000000
00010000
00000000
00100000
00000000
00001000
00000000
00000100
00000000
00000010
00000000
00000100
00000000
,  // measure 43
00000001
00000000
00000000
00001000
00000100
00000000
00000010
00000000
00000100
00000000
00010000
00000000
00000100
00000000
00000010
00000000
,  // measure 44
00000001
00000000
00001000
00000000
00000100
00010000
00001000
00100000
,  // measure 45
00010000
00000000
00001000
00000100
00000000
00010000
00001000
00000000
,  // measure 46
00100000
00010000
01000000
00100000
00010000
00001000
00000100
00000001
,  // measure 47
00000010
00000000
00000100
00001000
00000100
00010000
00000000
00101000
,  // measure 48
00000000
00010000
00100000
01000000
10000000
00010000
00100000
00010000
,  // measure 49
01000000
00000000
00000000
00010000
00100000
00000000
00010000
00000000
01000000
00000000
00001000
00000000
00100000
00000000
00001000
00000000
,  // measure 50
01000000
00000000
00000000
00010000
00100000
00000000
00001000
00000000
00000100
00000000
00000010
00000000
00000100
00000000
00000001
00000000
,  // measure 51
00000010
00000000
00000000
00000001
00000100
00000000
00000010
00000000
00001000
00000000
00000100
00000000
00000010
00000000
00000100
00000000
,  // measure 52
00000001
00000000
00000100
00001000
00000001
00000100
00000010
00010000
,  // measure 53
00000100
00000000
00010000
00001000
00100000
00001000
01000000
00000000
,  // measure 54
00010000
10000000
00100000
00010000
00001000
00000100
00000001
00000000
,  // measure 55
00001000
00000100
00010000
00001000
00000000
00100000
00000000
00011000
,  // measure 56
00000000
00000000
00000000
00000000
00000010
00000000
00001000
00000000
00000001
00001000
00000000
00000000
00000100
00000000
00000010
00000100
,  // measure 57
00010000
00000000
00001000
00100000
00001000
00010000
01000000
10000000
,  // measure 58
00100000
00000000
01000000
00010000
00100000
00001000
00010000
00000100
,  // measure 59
00010000
00000000
00000100
00001000
00000001
00000010
00000001
00002000
,  // measure 60
00000100
00000000
00003100
00010000
00000100
00010000
00001000
01000000
,  // measure 61
00100000
00000000
00010000
00001000
00000000
00010000
01000000
00000000
,  // measure 62
10000000
00100000
01000000
00010000
00001000
00000100
00000010
00000000
,  // measure 63
00000110
00000000
00000001
00000100
00000000
00001000
00000100
00000101
;

//---------------dance-double - ----------------
#NOTES:
     dance-double:
     :
     Medium:
     4:
     0.273,0.309,0.121,0.076,0.000:
00000000
00000000
00000000
00000000
,
00000000
00000000
00000000
00000000
,
00000000
00000000
00000000
00000000
,
00000000
00000000
00000000
00000000
,
00000000
00000000
00000000
00000000
,
00000000
00000000
00000000
00000000
,
00000000
00000000
00000000
00000000
,
00000000
00000000
00000000
00000000
,
00100000
01000000
00010000
00010000
,
01000000
00100000
00010000
00001000
,
00010000
00010000
00000100
00001000
,
00000010
00000000
00000001
00000000
00000010
00000000
00000100
00000010
,
00001000
00000000
00000000
00000001
00000000
00000000
00000010
00000000
,
00000100
00000000
00000000
00010000
00000000
00000000
00001000
00000000
,
00100000
00100000
00010000
01000000
,
10010000
00000000
00000000
00000000
00100000
01000000
00100000
01000000
,
00010000
00010000
01000000
01000000
,
00001000
00000000
00010000
00001000
00010000
00000000
00000000
00000000
,
00000100
00000100
00001000
00001000
,
00000010
00000000
00000100
00000001
00000010
00000000
00000000
00000000
,
00000001
00000000
00000010
00000000
00000100
00000000
00001000
00000100
,
00000000
00000000
00010000
00000000
00001000
00000000
00100000
00010000
,
00000000
01000000
00100000
00010000
,
00100000
00000000
10000000
00000000
00010000
00000000
10000000
00010000
,
01000000
01000000
00100000
10000000
,
00010000
00000000
00100000
00001000
00010000
00000000
00000000
00000000
,
00001000
00000100
00000010
00000100
,
00000001
00000000
00001000
00000100
00001000
00000000
00000000
00000000
,
00000010
00001000
00000010
00000001
,
00000010
00000000
00000100
00000000
00000010
00000000
00001000
00000100
,
00010000
00000000
00001000
00000000
00100000
00000000
00001000
00010000
,
01000000
00010000
01000000
10000000
00010000
00000000
00000000
00000000
,
02000000
00000000
03010000
00100000
,
00110000
00000000
00101000
00000000
,
00020000
00000000
01030000
00010000
,
11000000
00000000
01010000
00000000
,
00100000
00010000
00100000
00010000
,
00001000
00010000
00001000
00010000
,
00001000
00000000
00000100
00000000
00001000
00000000
00000100
00000010
,
00000000
00000000
00000000
00000001
00000100
00000000
00000101
00000000
,
00002010
00000001
00003100
00001000
,
00010200
00010000
00001300
00000100
,
00001000
00000000
00000001
00000010
00000000
00000100
00001000
00000000
,
00000100
00010000
00100000
01000000
,
20020000
00030000
00100000
30100000
,
01010000
00000000
00100000
00000000
00010000
00000000
01000000
00010000
,
00100000
00000000
00001000
00010000
00000000
00001000
00000100
00000010
,
00000000
00001000
00001100
00011000
,
00001200
00001000
00010300
00000010
,
00002001
00000010
00003001
00001000
,
00000100
00000000
00010000
00001000
00000000
00100000
00010000
00000000
,
01000000
00100000
10000000
01000000
,
00010000
00000000
01000000
00000000
10000000
00100000
01000000
00000000
,
00010000
00000000
00100000
00000000
00001000
00000000
00000100
00000010
,
00000100
00000000
00000001
00000100
00000000
00000010
00001000
00000200
,
00000000
00000000
00001300
00000010
,
00001001
00000100
00010000
00001000
,
00101000
00010000
00100000
01000000
,
20000000
00000000
30010000
01000000
00000000
01000000
00010000
00000000
,
00100000
00001000
00010000
00000100
,
00000010
00000000
00000001
00000100
00000000
00000100
00001000
00000000
,
00010000
00100000
10000000
00010000
,
01000000
00000000
00010000
00000000
00100000
01000000
00000000
00100000
;

//---------------dance-double - ----------------
#NOTES:
     dance-double:
     :
     Easy:
     2:
     0.148,0.215,0.053,0.098,0.000:
00000000
00000000
00000000
00000000
,
00000000
00000000
00000000
00000000
,
00000000
00000000
00000000
00000000
,
00000000
00000000
00000000
00000000
,
00000000
00000000
00000000
00000000
,
00000000
00000000
00000000
00000000
,
00000000
00000000
00000000
00000000
,
00000000
00000000
00000000
00000000
,
10010000
00000000
01000000
00000000
,
00010000
00000000
00100000
00000000
,
00001000
00000000
00001000
00000000
,
00010000
00000000
00000100
00000000
,
00000020
00000000
00000031
00000000
,
00000002
00000000
00000103
00000000
,
00000020
00000000
00002030
00000000
,
00003100
00000000
00000100
00000100
,
00001000
00000000
00000100
00000000
,
00010000
00001000
00010000
00000000
,
01000000
00000000
01000000
00000000
,
10000000
00010000
10000000
00000000
,
00200000
00000000
02300000
00000000
,
03020000
00000000
00230000
00000000
,
00302000
00000000
00010000
00000000
,
00003100
00000010
00000100
00000000
,
00000001
00000000
00001000
00000000
,
00000010
00001000
00000100
00000000
,
00010000
00000000
00000100
00000000
,
00001000
00000100
00000010
00000000
,
00000100
00000000
00010000
00000000
,
00001000
00000000
01000000
00000000
,
00100000
00000000
10000000
00000000
,
01100000
00000000
00000000
00000000
,
00020000
00000000
00000000
00030000
,
00200000
00000000
00000000
00300000
,
00002000
00000000
00000000
00003000
,
00000200
00000000
00000000
00000300
,
00000001
00000000
00000000
00000000
,
00001000
00000000
00000100
00000000
,
00000010
00000000
00000100
00000000
,
00001001
00000000
00000100
00000100
,
00000010
00000000
00001000
00001000
,
00000100
00000000
00010000
00001000
,
00010000
00000000
01000000
00000000
,
00100000
00000000
00000000
00000000
,
10010000
00000000
00010000
00010000
,
01000000
00000000
00010000
00000000
,
00100000
00000000
00001000
00100000
,
00010000
00000000
00100000
00100000
,
00001000
00000000
00010000
00010000
,
00000100
00000000
00001000
00001000
,
00000001
00000000
00000010
00000000
,
00000100
00000000
00000000
00000000
,
00001100
00000000
00000000
00000000
,
00001000
00000000
00000100
00000000
,
00010000
00000000
00001000
00001000
,
00011000
00000000
00001000
00000000
,
00000100
00000000
00000010
00000000
,
00000100
00000000
00000001
00000000
,
00001000
00000000
00000100
00010000
,
00000000
00000000
00001000
00000000
,
00100000
00000000
01000000
10000000
,
00000000
00000000
00010000
00000000
,
00100000
00000000
00001000
00000000
,
00011000
00000000
00000000
00000000
;
