#TITLE:薔薇は永遠に美しく;
#SUBTITLE:;
#ARTIST:TЁЯRA;
#TITLETRANSLIT:Bara wa Eien ni Utsukushiku;
#SUBTITLETRANSLIT:;
#ARTISTTRANSLIT:TERRA;
#GENRE:;
#CREDIT:;
#MENUCOLOR:;
#METERTYPE:DDR;
#BANNER:Bara wa Eien ni Utsukushiku-bn.png;
#BACKGROUND:Bara wa Eien ni Utsukushiku-bg.png;
#LYRICSPATH:;
#CDTITLE:TUNE STREET-cdtitle.png;
#MUSIC:Bara wa Eien ni Utsukushiku.mp3;
#OFFSET:-0.600;
#SAMPLESTART:12.580;
#SAMPLELENGTH:12.000;
#SELECTABLE:YES;
#LISTSORT:;
#BPMS:0.000=160.000;
#STOPS:;
#BGCHANGES:;
#ATTACKS:;

//---------------dance-single - ----------------
#NOTES:
     dance-single:
     :
     Hard:
     8:
     0.510,0.533,0.140,0.317,0.200:
0000
0000
0000
0000
,
0000
0000
0000
0000
,
0000
0000
0000
0000
,
0000
0000
0000
0000
,
1000
0000
0000
0100
0000
0000
0001
0000
0000
0000
0000
0000
0101
0000
0000
0000
,
0001
0000
0000
0100
0000
0000
1000
0000
0000
0000
0001
0000
0000
0100
0000
0000
,
0010
0000
0000
0100
0000
0000
0001
0000
0000
0000
0000
0000
1100
0000
0000
0000
,
1000
0000
0000
0001
0000
0000
0200
0000
0000
0000
0000
0000
0310
0000
0010
0000
,
1001
0000
0000
1000
0000
0000
0010
0000
0100
0000
0000
0001
0000
0000
0010
0000
,
0100
0000
0000
1000
0000
0000
0100
0000
0001
0000
0000
0000
0100
0000
0010
0000
,
0100
0000
0000
1000
0000
0000
0001
0000
0100
0000
0000
0010
0000
0000
0100
0000
,
0001
0000
0000
0010
0000
0000
0100
0000
1000
0000
0000
0000
0001
0000
0100
0000
,
0001
0000
0000
0010
0000
0000
0100
0000
0010
0000
0000
0001
0000
0000
1000
0000
,
0010
0000
0000
0100
0000
0000
0010
0000
1000
0000
0000
0000
0010
0000
0100
0000
,
0001
0000
0000
1000
0000
0000
0100
0000
1000
0000
0000
0001
0000
0000
0010
0000
,
0001
0000
0000
0100
0000
0000
0001
0000
1000
0000
0000
0000
0100
0000
1000
0000
,
1001
0000
0000
0010
0000
0000
0010
0000
0000
0000
0000
0000
0100
0000
0010
0000
,
1000
0000
0000
1000
0000
0000
0001
0000
0000
0000
0000
0000
1000
0000
0000
0000
,
0001
0010
0000
0000
0000
0000
0100
1000
0000
0000
0001
0000
1000
0000
0010
0000
,
0100
2002
0000
3003
,
0010
1000
0001
0000
0010
0001
0010
0100
,
1000
0010
0100
0000
0010
1000
0001
1000
,
0020
0230
0302
0023
,
2030
0000
3020
0000
0031
0100
0001
0000
,
1000
0010
0100
0010
1000
0000
0100
0010
,
0100
1000
0001
0000
0100
0000
0100
0001
,
2000
0000
3001
1000
0020
0000
0001
0000
,
0100
0000
1030
0000
0001
1000
0001
1000
,
0100
0010
0100
1000
0001
0000
0010
0001
,
0010
0100
0010
0100
1000
0000
0001
0100
,
0020
2030
3002
0023
,
0032
2003
3200
0320
,
0130
1000
0001
0100
0010
1000
0100
1000
,
0010
0001
0010
1000
0001
0000
0010
0000
,
1002
0000
0013
0001
2000
0000
0100
0000
,
0001
0000
3010
0000
1000
0001
1000
0001
,
0020
0000
0000
0001
,
0002
0000
0030
1000
,
2000
0000
0000
0000
0003
0000
3010
1000
,
0200
0000
0310
0100
,
1000
0000
0100
0000
1000
0100
0010
0001
,
0100
0000
0001
0000
0010
0001
0010
0100
,
1000
0000
0001
0000
0100
0010
0100
0001
,
2000
3200
0320
0031
,
1001
0000
0100
0000
0010
1000
0001
0100
,
0010
0000
1000
0000
0001
0010
0001
1000
,
0010
0000
0100
0000
0010
0100
0010
1000
,
0100
0000
0000
1000
0000
0000
0100
0000
0010
0000
0001
0000
1000
0000
0001
0000
,
0100
0000
0010
0100
0010
0000
1000
0000
,
0002
0023
0230
1300
,
1002
0000
0013
0001
0200
0000
0010
0000
,
0001
0000
0310
0000
1000
0100
0010
0100
,
1000
0000
0000
0001
0000
0000
0100
0000
0000
0000
0000
0000
0110
0000
0000
0000
,
0010
0000
0000
1000
0000
0000
0001
0000
0000
0000
1000
0000
0000
0010
0000
0000
,
0010
0000
0000
0100
0000
0000
0010
0000
0000
0000
0000
0000
1100
0000
0000
0000
,
0001
0000
0000
0010
0000
0000
0100
0000
0000
0000
0000
1000
0100
0000
1000
0000
,
0001
0000
0000
0100
0000
0000
0001
0000
0000
0000
0000
0000
1001
0000
0000
0000
,
1000
0000
0000
0010
0000
0000
1000
0000
0000
0000
0100
0000
0000
0010
0000
0000
,
0001
0000
0000
0100
0000
0000
1000
0000
0000
0000
0000
0000
1100
0000
0000
0000
,
1000
0000
0000
0100
0000
0000
0001
0000
0000
0000
0000
0000
1000
0000
0010
0000
,
0110
0000
0000
0010
0000
0000
1000
0000
0000
0000
0001
0000
0010
0000
0001
0000
,
0100
0000
0000
0010
0000
0000
1000
0000
0000
0000
0001
0000
0000
1000
0000
0000
,
0100
0000
0000
0010
0000
0000
0100
0000
0000
0000
1000
0000
0200
0000
0000
0000
,
0310
0000
0000
0100
0000
0000
0010
0000
0000
0000
0001
0000
1000
0000
0010
0000
,
1000
0000
0000
1000
0000
0000
0001
0000
0000
0000
0100
0000
0010
0000
1000
0000
,
0001
0000
0000
0010
0000
0000
0001
0000
0000
0000
1000
0000
0000
0100
0000
0000
,
0010
0000
0000
0100
0000
0000
1000
0000
0000
0000
0001
0000
1000
0000
0001
0000
,
0100
0000
0000
0110
0000
0000
1001
0000
0000
0000
0000
0000
0000
0000
0000
0000
;

//---------------dance-single - ----------------
#NOTES:
     dance-single:
     :
     Medium:
     6:
     0.406,0.439,0.177,0.251,0.065:
0000
0000
0000
0000
,
0000
0000
0000
0000
,
0000
0000
0000
0000
,
0000
0000
0000
0000
,
0011
0000
0000
0001
0000
0000
0100
0000
0000
0000
0000
0000
0010
0000
0000
0000
,
1000
0000
0000
0100
0000
0000
1000
0000
0000
0000
0000
0000
0010
0000
0000
0000
,
0100
0000
0000
0001
0000
0000
1000
0000
0000
0000
0000
0000
0010
0000
0000
0000
,
1000
0000
0000
0100
0000
0000
1000
0000
0000
0000
0000
0000
0001
0000
0000
0000
,
0010
0000
0001
0010
0100
0000
1000
0000
,
0010
0000
1000
0100
0010
0000
0001
0000
,
1000
0000
0010
0100
0001
0000
1000
0000
,
0001
0000
0010
0100
0010
0000
1000
0000
,
0010
0000
0001
1000
0010
0000
1000
0000
,
0100
0000
1000
0010
0100
0000
0001
0000
,
1000
0000
1000
0100
0001
0000
0100
0000
,
1000
0000
0010
0100
0001
0000
1000
0001
,
0010
0000
0000
0001
0000
0000
0010
0000
0000
0000
0000
0000
0100
0000
0000
0000
,
1000
0000
0000
0010
0000
0000
1000
0000
0000
0000
0000
0000
0001
0000
0000
0000
,
0200
0000
0000
0020
0000
0000
0330
0000
,
0001
2002
3003
0100
,
1010
0000
1000
0000
0001
0010
0100
0000
,
1000
0000
0001
0000
0100
0000
0010
0100
,
0001
0000
1000
0100
0010
0000
0100
0000
,
1000
0001
0100
0010
,
0100
0001
0100
0000
0010
0000
1000
0001
,
1000
0000
0100
0000
1000
0000
0100
0010
,
0002
1000
0200
0000
,
0000
0303
1000
1001
,
0001
0100
0001
0000
1000
0000
0010
0000
,
1000
0100
0010
0000
0100
0000
1000
0000
,
0020
0100
2030
0100
,
3002
0010
0203
0001
,
0310
1000
0001
0000
0010
0000
0010
0000
,
0001
1000
0100
0000
1000
0000
1000
0000
,
0010
0000
0010
0100
0010
0000
0100
0000
,
0001
0000
0001
0000
1000
0100
1000
0000
,
0102
0000
0000
1000
,
0023
0000
0000
0001
,
0230
0000
0000
0000
0000
0000
1300
0100
,
0010
0000
0010
0001
0000
0001
0100
0000
,
1001
0000
0010
0000
1000
0001
0100
0000
,
0010
0000
1000
0001
1000
0000
0100
0000
,
1010
1000
1000
0001
,
0010
0000
0001
0000
0001
0000
0100
0010
,
0200
0010
0000
0001
,
0320
1000
0000
0100
,
2030
0100
0000
0010
,
3001
0000
1000
0010
1000
0000
0110
0000
,
1000
0000
0001
0100
0010
0000
0100
0000
,
0001
1000
0010
0100
,
0001
0000
1000
0001
1000
0000
0010
0000
,
0200
0302
0023
0130
,
2100
0000
0000
0020
0000
0000
3030
0000
,
0002
0000
0000
0200
0000
0303
1001
0000
,
0020
0000
0000
0200
0000
0000
0330
0000
,
2000
0000
0000
0002
0000
3003
0110
0000
,
0001
0000
0000
0010
0000
0000
0100
0000
,
1000
0000
0000
0001
0000
0000
0110
0000
,
1001
0000
0000
0010
0000
0000
0100
0000
,
0010
0000
0000
0100
0000
0000
1000
0000
,
1001
0000
0000
0001
0000
0000
0010
0000
0000
0000
0000
0000
0001
0000
0000
0000
,
1000
0000
0000
0010
0000
0000
0100
0000
0000
0000
0000
0000
1001
0000
0000
0000
,
0010
0000
0000
1000
0000
0000
0001
0000
0000
0000
0000
0000
1000
0000
0000
0000
,
0100
0000
0000
0010
0000
0000
0001
0000
0000
0000
0000
0000
0110
0000
0000
0000
,
1001
0000
0000
0010
0000
0000
0001
0000
0000
0000
0000
0000
1000
0000
0000
0000
,
0010
0000
0000
0100
0000
0000
0001
0000
0000
0000
0000
0000
1010
0000
0000
0000
,
1000
0000
0000
0001
0000
0000
0010
0000
0000
0000
0000
0000
0100
0000
0000
0000
,
1000
0000
0000
0001
0000
0000
1001
0000
0000
0000
0000
0000
0000
0000
0000
0000
;

//---------------dance-single - ----------------
#NOTES:
     dance-single:
     :
     Beginner:
     2:
     0.141,0.188,0.047,0.140,0.000:
0000
0000
0000
0000
,
0000
0000
0000
0000
,
0000
0000
0000
0000
,
0000
0000
0000
0000
,
0010
0000
0000
0000
,
1000
0000
0000
0000
,
0001
0000
0000
0000
,
0010
0000
0000
0000
,
0002
0000
0003
0000
,
0100
0000
0100
0000
,
0020
0000
0030
0000
,
1000
0000
1000
0000
,
0002
0000
0003
0000
,
0010
0000
0010
0000
,
0200
0000
0300
0000
,
1000
0000
1000
0000
,
1001
0000
0000
0000
,
0010
0000
0000
0000
,
0200
0000
0000
0300
0000
0000
0010
0000
,
0010
0000
0000
0000
,
1000
0000
0000
0000
,
0100
0000
0000
0000
,
0010
0000
0010
0000
,
0001
0000
0001
0000
,
1000
0000
0000
0000
,
0010
0000
0000
0000
,
0100
0000
0001
0000
,
1000
0000
0010
0000
,
0100
0000
0000
0000
,
0001
0000
0000
0000
,
1000
0000
1000
0000
,
0001
0000
0001
0000
,
0010
0000
0000
0000
,
0100
0000
0000
0000
,
1000
0000
0100
0000
,
0010
0000
0001
0000
,
2002
0000
0000
0000
,
3003
0000
0000
0000
,
0220
0000
0000
0000
,
0330
0000
0000
0000
,
0010
0000
1000
0000
,
0001
0000
0000
0000
,
0010
0000
0010
0000
,
0000
0000
0000
0000
,
1001
0000
0000
0000
,
0010
0000
0100
0000
,
0001
0000
0000
0000
,
1000
0000
0100
0000
,
0020
0000
0030
0000
,
0002
0000
0003
0000
,
1000
0000
2000
0000
,
0000
0000
3000
0000
,
0110
0000
0000
0000
,
0001
0000
0000
0000
,
1000
0000
0000
0000
,
0010
0000
0000
0000
,
1000
0000
1000
0000
,
0002
0000
0003
0000
,
0010
0000
0010
0000
,
0200
0000
0300
0000
,
1000
0000
0001
0000
,
1000
0000
0001
0000
,
0010
0000
0100
0000
,
0010
0000
0000
0000
,
0100
0000
1000
0000
,
0100
0000
1000
0000
,
0001
0000
0100
0000
,
0020
0000
0000
0030
0000
0000
0000
0000
;

//---------------dance-single - ----------------
#NOTES:
     dance-single:
     :
     Easy:
     4:
     0.342,0.502,0.177,0.298,0.000:
0000
0000
0000
0000
,
0000
0000
0000
0000
,
0000
0000
0000
0000
,
0000
0000
0000
0000
,
0001
0100
0010
1000
,
0001
1000
0100
0010
,
0001
0100
0010
1000
,
0001
0100
1000
0100
,
1001
0001
0001
0000
,
1000
0100
1000
0000
,
0110
0100
0100
0000
,
0010
1000
0001
0000
,
1010
0010
0010
0000
,
1000
0001
0010
0000
,
1001
1000
1000
0000
,
0010
0100
0001
0000
,
0010
0001
0010
0100
,
1000
0010
0100
0001
,
1000
0000
0000
0001
0000
0000
0000
0000
,
0200
0020
0000
0330
,
0001
0010
0100
0010
,
0001
1000
0100
0010
,
0200
0000
2300
0000
,
3002
0000
0103
0001
,
1000
0001
0100
0010
,
1000
0010
0100
0001
,
0020
0001
0200
0000
,
0000
0330
0100
0001
,
1001
0010
1000
0100
,
0010
0001
0010
0001
,
2000
0100
3200
0010
,
0320
0001
0032
1003
,
0110
1000
0001
0010
,
0100
0010
0001
0010
,
1000
0000
0010
0000
,
0001
0000
0100
0010
,
2010
0000
0000
0000
,
3002
0000
0000
0000
,
0023
0000
0000
0130
,
0220
0330
1000
0001
,
0110
1000
1000
1000
,
0101
0010
0010
0010
,
0001
0010
0100
1000
,
0010
0100
0001
0010
,
0011
0000
1000
0010
,
0110
0000
0010
0001
,
1001
0000
0010
0001
,
1000
0100
0100
1010
,
0102
2003
3020
0130
,
0020
2030
3200
0310
,
0002
0100
2000
0000
,
0000
0000
3003
0010
,
2002
0000
0000
3003
0000
0000
0001
0000
,
0020
0000
0000
0030
0000
0000
0100
0000
,
2000
0000
0000
3000
0000
0000
0001
0000
,
0020
0000
0000
0030
0000
0000
0001
0000
,
0100
0100
0100
0100
,
0001
0001
0001
0001
,
1000
1000
1000
1000
,
0020
0000
0000
0030
0000
0000
0110
0000
,
1001
0010
1000
0001
,
0010
1000
0010
0001
,
1000
0010
0100
0001
,
1000
0001
0010
0001
,
1000
0010
1000
0100
,
1000
0001
0010
0001
,
0100
1000
0100
0001
,
2200
0000
0000
3300
0000
0000
0000
0000
;

//---------------dance-single - ----------------
#NOTES:
     dance-single:
     :
     Challenge:
     9:
     0.621,0.596,0.438,0.112,0.256:
0000
0000
0000
0000
,
0000
0000
0000
0000
,
0000
0000
0000
0000
,
0000
0000
0000
0000
,
0001
0000
0000
0100
0000
0000
0101
0000
0000
0000
0010
0000
0001
0000
0001
0000
,
1000
0000
0000
0001
0000
0000
0110
0000
0000
0000
0001
0000
0000
1000
0000
0000
,
1100
0000
0000
0010
0000
0000
0100
0000
0000
0000
0001
0000
0010
0000
0100
0000
,
1000
0000
0000
0011
0000
0000
1010
0000
0000
0000
1000
0000
0100
0000
1000
0000
,
1001
0000
0000
0010
0000
0000
0001
0000
1000
0000
0000
0010
0000
0000
0100
0000
,
1000
0000
0000
0100
0000
0000
0001
0000
1000
0000
0100
0000
0010
0000
0001
0000
,
1000
0000
0000
0100
0000
0000
0010
0000
0001
0010
0000
0001
0100
0000
0001
0000
,
0100
0000
0000
0001
0000
0000
0010
0000
0001
0000
1000
0000
0001
0000
0010
0000
,
0100
0000
0000
1000
0000
0000
0010
0000
1000
0000
1000
0100
0000
0000
0010
0000
,
0001
0000
0000
0010
0000
0000
0100
0000
0010
0000
0001
0000
1000
0000
0001
0000
,
0010
0000
0000
0100
0000
0000
1000
0000
0001
0010
0000
1000
0010
0000
0001
0000
,
0010
0000
0000
0001
0000
0000
0100
0000
0010
1000
0010
0000
0100
0000
0001
0000
,
0110
0000
0000
0001
0000
0000
1001
0000
0000
0000
0010
0000
1000
0000
0001
0000
,
1000
0000
0000
1010
0000
0000
0101
0000
0000
0000
1000
0000
0001
0000
0010
0000
,
0100
1000
0000
0000
0000
0000
0001
0100
0000
0000
1000
0000
0001
0100
0000
0100
,
0010
0000
0000
0000
2002
0000
0000
0000
3003
0000
0001
0000
0100
0010
0100
0010
,
1000
0100
0010
0001
0100
0010
0100
0001
,
0010
0100
1000
0010
0100
0001
1000
0100
,
2010
0000
3010
0100
0001
0010
0001
0000
,
1001
0000
1010
0000
0101
0000
0001
0001
,
0010
0100
1000
0001
0100
0010
1000
0100
,
1000
0001
0100
0001
0010
0100
1000
0010
,
0001
0000
0010
0100
0010
0000
1100
0000
,
0101
0000
0110
0000
0010
1000
0010
0001
,
0010
1000
0100
1000
0001
0010
0100
1000
,
0010
0100
0001
1000
0100
0001
0100
1000
,
0010
1010
0011
1001
,
0010
1000
0001
0000
0010
0001
1000
0000
,
0010
0100
0001
0010
0100
0001
0100
1000
,
0010
1000
0001
0100
0010
0100
0001
0100
,
1000
0000
1000
0100
0010
0000
0100
0000
,
0010
0000
0101
0000
1010
0000
0001
0100
,
0220
0000
0030
0301
,
2002
0000
0003
3010
,
2200
0000
0000
0000
3000
0000
0310
0100
,
1000
0000
0001
0010
0001
0000
0100
0000
,
1001
0000
0010
0100
0001
1000
0100
0000
,
0110
0000
1000
0010
0001
0010
1000
0000
,
0101
0000
1000
0100
0001
0100
1000
0010
,
0200
0000
0301
0000
0200
0000
0310
0100
,
1001
0000
0010
1000
0001
0010
0001
1000
,
0100
0000
1000
0000
1000
0001
0100
0000
0010
0000
1000
0000
0010
0000
0100
0000
,
1000
0100
0010
0100
0001
1000
0010
0100
,
0001
0000
1000
0100
0000
0010
0001
0000
1000
0000
0001
0000
0010
0000
1000
0000
,
0010
0001
0100
0002
0000
1003
0100
1000
,
0010
0100
0010
1000
0010
0100
0001
1000
,
0001
0000
0010
0001
1000
0001
0100
0010
,
0100
0001
1000
0001
0100
1000
0100
0010
,
1000
0000
0000
0001
0000
0000
1000
0000
0000
0000
0010
0000
0100
0000
0001
0000
,
0100
0000
0000
0010
0000
0000
0100
0000
0000
0000
0001
0000
0000
1001
0000
0000
,
0110
0000
0000
1000
0000
0000
0100
0000
0000
0000
1000
0000
0100
0000
0001
0000
,
0100
0000
0000
1000
0000
0000
1001
0000
0000
0000
0100
0001
0100
0000
0010
0000
,
1001
0000
0000
1000
0000
0000
0010
0000
1000
0000
0000
0000
0010
0000
0000
0000
,
0101
0000
0000
0001
0000
0000
1000
0000
0000
0000
0010
0000
0000
0100
0000
0000
,
0010
0000
0000
1000
0000
0000
0100
0000
1000
0000
0000
0000
1001
0000
0000
0000
,
0010
0000
0000
0010
0000
0000
1000
0000
0000
0000
0000
0000
0010
0100
0010
0100
,
0010
0000
0000
1000
0000
0000
0001
0000
0010
0000
0001
0000
1000
0000
0010
0000
,
0100
0000
0000
0011
0000
0000
0010
0000
0100
0000
1000
0000
0000
0110
0000
0000
,
1000
0000
0000
0001
0000
0000
0010
0000
1000
0000
0010
0000
0001
0000
1000
0000
,
0010
0000
0000
0101
0000
0000
1100
0000
0000
0000
1000
0010
1000
0000
0001
0000
,
0110
0000
0000
1000
0000
0000
0100
0000
0010
0000
0100
0000
1000
0000
0001
0000
,
0010
0000
0000
0011
0000
0000
0100
0000
0010
0000
1010
0000
0000
0001
0000
0000
,
0110
0000
0000
1000
0000
0000
0001
0000
0000
0000
0010
0000
0001
0000
1000
0000
,
1100
0000
0000
0110
0000
0000
0101
0000
0000
0000
0000
0000
0000
0000
0000
0000
;

//---------------dance-double - ----------------
#NOTES:
     dance-double:
     :
     Challenge:
     9:
     0.619,0.628,0.447,0.168,0.251:
00000000
00000000
00000000
00000000
,
00000000
00000000
00000000
00000000
,
00000000
00000000
00000000
00000000
,
00000000
00000000
00000000
00000000
,
10000000
00000000
00000000
01010000
00000000
00000000
10000000
00000000
00100000
00000000
01000000
00000000
00001000
00000000
00100000
00000000
,
00010000
00000000
00000000
00100000
00000000
00000000
00101000
00000000
00000000
00000000
00010100
00000000
00000000
00001000
00000000
00000000
,
00001010
00000000
00000000
00000100
00000000
00000000
00000001
00000000
00000010
00000000
00000100
00000000
00010000
00000000
00000010
00000000
,
00000110
00000000
00000000
00001001
00000000
00000000
00000110
00000000
00000000
00000000
00001000
00000100
00010000
00000000
00000100
00000000
,
00001100
00000000
00000000
00010000
00000000
00000000
00001000
00000000
00100000
00000000
00000000
00010000
00000000
00000000
01000000
00000000
,
10000000
00000000
00000000
01000000
00000000
00000000
00010000
00000000
00100000
00000000
00010000
00000000
10000000
00000000
00100000
00000000
,
01000000
00000000
00000000
00001000
00000000
00000000
00010000
00000000
00000100
00000000
00000000
00010000
00000000
00000000
00001000
00000000
,
00000100
00000000
00000100
00000001
00000000
00000001
00000010
00000000
00000001
00000000
00000010
00000000
00000100
00000000
00001000
00000000
,
00000100
00000000
00000000
00001000
00000000
00000000
00000010
00000000
00010000
00000000
00000000
00001000
00000000
00000000
00100000
00000000
,
01000000
00000000
00000000
10000000
00000000
00000000
00010000
00000000
01000000
00000000
00100000
00000000
01000000
00000000
00010000
00000000
,
00100000
00000000
00000000
01000000
00000000
00000000
10000000
00000000
00010000
00000000
00000000
00100000
00000000
00000000
00001000
00000000
,
00100000
00000000
00010000
00100000
00000000
00100000
00001000
00000000
00010000
00001000
00010000
00000000
00000100
00000000
00001000
00000000
,
00001010
00000000
00000000
00000110
00000000
00000000
00000010
00000000
00001000
00000000
00000001
00000000
00000010
00000000
00000100
00000000
,
00001000
00000000
00000000
00000101
00000000
00000000
00000110
00000000
00000000
00000000
00001000
00000000
00000100
00000000
00010000
00000000
,
00001000
00010000
00000000
00000000
00000000
00000000
00100000
00010000
00000000
00000000
00001000
00000000
00010000
01000000
00000000
01000000
,
10000000
00000000
00000000
00000000
20020000
00000000
00000000
00000000
30030000
00000000
00000000
00000000
00100000
01000000
00100000
01000000
,
00010000
00100000
01000000
10000000
00100000
01000000
00010000
01000000
,
00001000
00010000
00000010
00000100
00000010
00001000
00000100
00000010
,
00000001
00000010
00000100
00000010
00000001
00000010
00001000
00000010
,
00000001
00001000
00000100
00010000
00001000
00000000
00011000
00000000
,
00100000
00010000
01000000
00100000
10000000
00010000
00100000
00001000
,
00010000
01000000
10000000
00100000
01000000
00010000
10000000
00000000
,
01010000
00000000
00001000
00010000
00011000
00000000
00000100
00000000
,
00001000
00000010
00001000
00000001
00000010
00000100
00001000
00000000
,
00000110
00000100
00000001
00000010
00000100
00010000
00001000
00100000
,
00010000
00100000
00001000
00010000
00000100
00010000
00001000
00100000
,
02000000
13000000
02010000
03100000
,
00120000
10030000
00201000
00310000
,
00100000
00001000
00010000
00000100
00001000
00000010
00000100
00000001
,
00000010
00000100
00001000
00000100
00010000
00001000
00100000
00010000
,
01000000
00000000
10000000
01000000
00010000
00000000
10000000
00000000
,
00010000
00000000
00100000
00000000
00001000
00010000
00000100
00001000
,
00002020
00000000
00000030
00003001
,
00000202
00000000
00000300
00000013
,
00020020
00000000
00000000
00000000
00000030
00000000
00030100
00010000
,
00001000
00000000
00100000
00001000
00010000
00000000
00011000
00000000
,
00100000
00010000
01000000
00100000
10000000
00000000
00010000
00000000
,
00200000
00000000
00301000
00000000
00200000
00000000
01300000
10000000
,
00010000
00000000
00100000
00001000
00010000
00000000
00000100
00000000
,
00001000
00000010
00000100
00000001
00000010
00000100
00001000
00000001
,
00000101
00000000
00001000
00000000
00000010
00000100
00000001
00001000
,
00000100
00000000
00010000
00001000
00100000
00000000
00001000
00010000
,
00000100
00000000
00001100
00000000
00001000
00000100
00001000
00010000
,
00100000
00000000
00010000
01000000
00000000
01000000
00100000
00000000
10000000
00000000
00010000
00000000
00100000
00000000
00000000
00000000
,
10010000
00000000
00100000
01000000
00010000
10000000
01000000
00000000
,
12000000
03200000
00320000
00032000
,
00003100
00000000
00001000
00000100
00000010
00000001
00000010
00001000
,
00000010
00000100
00001000
00000100
00001000
00010000
00100000
00010000
,
01100000
00000000
00000000
00010000
00000000
00000000
10010000
00000000
00000000
00000000
00000000
00000000
01100000
00000000
00000000
00000000
,
10000000
00000000
00000000
00010000
00000000
00000000
00100000
00000000
00000000
00000000
01000000
00000000
00000000
00100000
00000000
00000000
,
10010000
00000000
00000000
00010000
00000000
00000000
00001000
00000000
00000000
00000000
00000000
00000000
00001100
00000000
00000000
00000000
,
00000010
00000000
00000000
00000001
00000000
00000000
00000100
00000000
00000000
00000000
00000010
00001000
00000001
00000000
00000100
00000000
,
00000110
00000000
00000000
00001000
00000000
00000000
00000001
00000000
00000010
00000000
00000000
00000000
00000001
00000000
00000000
00000000
,
00001000
00000000
00000000
00000010
00000000
00000000
00000100
00000000
00010000
00000000
00000100
00000000
00000000
00000001
00000000
00000000
,
00001001
00000000
00000000
00000100
00000000
00000000
00010000
00000000
00000000
00000000
00001000
00000000
00100000
00000000
00000000
00000000
,
00010000
00000000
00000000
00100000
00000000
00000000
00001000
00000000
00000000
00000000
00010000
00000000
00001000
00010000
00001000
00010000
,
00000100
00000000
00000000
00010000
00000000
00000000
00101000
00000000
00100000
00000000
00010000
00000000
01000000
00000000
00100000
00000000
,
10000000
00000000
00000000
01000000
00000000
00000000
10000000
00000000
00010000
00000000
00110000
00000000
00000000
01100000
00000000
00000000
,
10000000
00000000
00000000
00110000
00000000
00000000
00010000
00000000
00100000
00000000
00001000
00000000
00000100
00000000
00000001
00000000
,
00000010
00000000
00000000
00000001
00000000
00000000
00001010
00000000
00001000
00000000
00000100
00000000
00010000
00000000
00000010
00000000
,
00001100
00000000
00000000
00010100
00000000
00000000
00010000
00000000
00001000
00000000
00010000
00000000
00100000
00000000
01000000
00000000
,
00010000
00000000
00000000
10100000
00000000
00000000
00010000
00000000
00100000
00000000
01000000
00000000
00000000
00110000
00000000
00000000
,
00101000
00000000
00000000
00010000
00000000
00000000
00000100
00000000
00001000
00000000
00000001
00000000
00000100
00000000
00000001
00000000
,
00000011
00000000
00000000
00001100
00000000
00000000
01010000
00000000
00000000
00000000
00000000
00000000
00000000
00000000
00000000
00000000
;

//---------------dance-double - ----------------
#NOTES:
     dance-double:
     :
     Hard:
     8:
     0.507,0.533,0.242,0.130,0.200:
00000000
00000000
00000000
00000000
,
00000000
00000000
00000000
00000000
,
00000000
00000000
00000000
00000000
,
00000000
00000000
00000000
00000000
,
00010000
00000000
00000000
10000000
00000000
00000000
00010000
00000000
00000000
00000000
00000000
00000000
01010000
00000000
00000000
00000000
,
00010000
00000000
00000000
00001000
00000000
00000000
00010000
00000000
00000000
00000000
00001000
00000000
00000000
00000100
00000000
00000000
,
00000010
00000000
00000000
00000001
00000000
00000000
00000100
00000000
00000000
00000000
00000000
00000000
00001001
00000000
00000000
00000000
,
00000010
00000000
00000000
00000010
00000000
00000000
00000001
00000000
00000000
00000000
00000000
00000000
00001000
00000000
00000100
00000000
,
00001100
00000000
00000000
00000100
00000000
00000000
00000010
00000000
00000100
00000000
00000000
00010000
00000000
00000000
00001000
00000000
,
00100000
00000000
00000000
00010000
00000000
00000000
01000000
00000000
00100000
00000000
00000000
00000000
10000000
00000000
00000000
00000000
,
00010000
00000000
00000000
00100000
00000000
00000000
00001000
00000000
00010000
00000000
00000000
01000000
00000000
00000000
10000000
00000000
,
00010000
00000000
00000000
00100000
00000000
00000000
00010000
00000000
01000000
00000000
00000000
00000000
00001000
00000000
00100000
00000000
,
00001000
00000000
00000000
00010000
00000000
00000000
00000100
00000000
00001000
00000000
00000000
00000001
00000000
00000000
00000010
00000000
,
00000100
00000000
00000000
00001000
00000000
00000000
00000100
00000000
00000010
00000000
00000000
00000000
00000001
00000000
00001000
00000000
,
00000100
00000000
00000000
00010000
00000000
00000000
00001000
00000000
00100000
00000000
00000000
00001000
00000000
00000000
00010000
00000000
,
00100000
00000000
00000000
10000000
00000000
00000000
00010000
00000000
00100000
00000000
00000000
00000000
00010000
00000000
10000000
00000000
,
00010000
00000000
00000000
00100000
00000000
00000000
00010000
00000000
00000000
00000000
00000000
00000000
10010000
00000000
00000000
00000000
,
00100000
00000000
00000000
00001000
00000000
00000000
00010000
00000000
00000000
00000000
00000000
00000000
00011000
00000000
00000000
00000000
,
00001000
00010000
00000000
00000000
00000000
00000000
00001000
00010000
00000000
00000000
00000000
00000000
00001000
00000000
00010000
00000000
,
00000100
00000000
00002200
00000000
00000300
00000000
00003100
00001000
,
00000010
00000001
00000010
00000100
00000001
00000010
00000100
00001000
,
00000100
00000000
00010000
00000000
00001000
00100000
00001000
01000000
,
00200000
10300000
20000000
30010000
,
10010000
00000000
00000000
00000000
10000000
00000000
00000000
00000000
01000000
00000000
00000000
00100000
00000000
00000000
01000000
00000000
,
10000000
01000000
00100000
00010000
00100000
00001000
00010000
00000010
,
00001000
00000000
00000100
00000000
00010000
00001000
00000100
00000000
,
00000100
00000000
00000010
00001000
00000002
00000000
00000010
00000000
,
00001003
00000000
00000010
00010000
00000100
00001000
00000100
00000000
,
00001001
00001000
00000100
00001000
00000001
00000100
00000010
00010000
,
00001000
00000000
00100000
00010000
10000000
00100000
01000000
00000000
,
00020000
00130000
00200000
00301000
,
00011000
00000000
00000100
00000000
00010000
00000000
00001000
00010000
,
00000100
00001000
00000010
00001000
00000100
00010000
00001000
00100000
,
00010000
10000000
01000000
00100000
00010000
00100000
01000000
10000000
,
00010000
00000000
00100000
00001000
00010000
00000000
00000100
00000000
,
00010000
00000000
00000100
00000000
00000010
00000001
00000010
00000001
,
00000200
00000000
00000000
00000010
,
00000002
00000000
00000300
00000010
,
00002000
00000000
00000000
00000000
00000003
00000000
00003100
00010000
,
00000010
00000000
00000100
00000010
00000000
00000010
00001000
00000000
,
00001100
00000000
00000100
00010000
00001000
00000100
00000010
00000000
,
00001000
00000000
00000100
00010000
00001000
00010000
00100000
00000000
,
01000000
00000000
10000000
00010000
01000000
00000000
00100000
00000000
,
10010000
00100000
11000000
01100000
,
00110000
00000000
00100000
00001000
00010000
00000100
00010000
00000000
,
00001000
00000000
00100000
00000000
00001000
00010000
01000000
10000000
,
00010000
00000000
00100000
00000000
00001000
00010000
00000100
00001000
,
00000100
00000000
00000000
00010000
00000000
00000000
00001000
00000000
00010000
00000000
00000000
00000000
00001000
00000000
00100000
00000000
,
00010000
10000000
01000000
00100000
00000000
00010000
00100000
00000000
,
00001000
00011000
00001100
00000110
,
00000001
00000000
00000010
00000001
00001000
00000010
00000100
00000010
,
00010000
00001000
00100000
00010000
01000000
00010000
00100000
00001000
,
00010000
00000000
00000000
00000010
00000000
00000000
00002000
00000000
00000000
00000000
00000000
00000000
00003100
00000000
00000000
00000000
,
00001000
00000000
00000000
00000010
00000000
00000000
00000100
00000000
00000000
00000000
00000001
00000000
00000000
00000001
00000000
00000000
,
00001000
00000000
00000000
00000100
00000000
00000000
00020000
00000000
00000000
00000000
00000000
00000000
00031000
00000000
00000000
00000000
,
00100000
00000000
00000000
00010000
00000000
00000000
10000000
00000000
00000000
00000000
00000000
00000000
00100000
00000000
01000000
00000000
,
01100000
00000000
00000000
10000000
00000000
00000000
00020000
00000000
00000000
00000000
00000000
00000000
00130000
00000000
00000000
00000000
,
00001000
00000000
00000000
00010000
00000000
00000000
01000000
00000000
00000000
00000000
10000000
00000000
00000000
00100000
00000000
00000000
,
00010000
00000000
00000000
00001000
00000000
00000000
00000200
00000000
00000000
00000000
00000000
00000000
00000301
00000000
00000000
00000000
,
00001000
00000000
00000000
00000010
00000000
00000000
00000100
00000000
00000000
00000000
00000000
00000000
00000010
00000000
00001000
00000000
,
00001100
00000000
00000000
00000100
00000000
00000000
00010000
00000000
00000000
00000000
00001000
00000000
00100000
00000000
00001000
00000000
,
00010000
00000000
00000000
00001000
00000000
00000000
00100000
00000000
00000000
00000000
00001000
00000000
00000000
00000100
00000000
00000000
,
00001001
00000000
00000000
00000010
00000000
00000000
00001001
00000000
00000000
00000000
00000100
00000000
00001000
00000000
00000100
00000000
,
00010000
00000000
00000000
00001000
00000000
00000000
00100000
00000000
00000000
00000000
00010000
00000000
10000000
00000000
00100000
00000000
,
00010000
00000000
00000000
00001000
00000000
00000000
00000010
00000000
00000000
00000000
00000100
00000000
00001000
00000000
00000100
00000000
,
00010000
00000000
00000000
00001000
00000000
00000000
00100000
00000000
00000000
00000000
01000000
00000000
00000000
11000000
00000000
00000000
,
10010000
00000000
00000000
01000000
00000000
00000000
00100000
00000000
00000000
00000000
10000000
00000000
00010000
00000000
00100000
00000000
,
00110000
00000000
00000000
00011000
00000000
00000000
00001100
00000000
00000000
00000000
00000000
00000000
00000000
00000000
00000000
00000000
;

//---------------dance-double - ----------------
#NOTES:
     dance-double:
     :
     Medium:
     6:
     0.401,0.408,0.149,0.205,0.065:
00000000
00000000
00000000
00000000
,
00000000
00000000
00000000
00000000
,
00000000
00000000
00000000
00000000
,
00000000
00000000
00000000
00000000
,
00011000
00000000
00000000
00001000
00000000
00000000
00000100
00000000
00000000
00000000
00000000
00000000
00000001
00000000
00000000
00000000
,
00000010
00000000
00000000
00000100
00000000
00000000
00001000
00000000
00000000
00000000
00000000
00000000
00010100
00000000
00000000
00000000
,
00001000
00000000
00000000
00100000
00000000
00000000
00010000
00000000
00000000
00000000
00000000
00000000
10000000
00000000
00000000
00000000
,
00100000
00000000
00000000
10000000
00000000
00000000
00010000
00000000
00000000
00000000
00000000
00000000
00100000
00000000
00000000
00000000
,
00001000
00000000
00010000
00000100
00001000
00000000
00000001
00000000
,
00000010
00000000
00000100
00001000
00000100
00000000
00000000
00000000
,
00010000
00000000
00001000
00100000
00010000
00000000
10000000
00000000
,
00100000
00000000
00010000
00001000
00010000
00000000
00000000
00000000
,
00000100
00000000
00000010
00000001
00000010
00000000
00000100
00000000
,
00001000
00000000
00000100
00010000
00001000
00000000
00000000
00000000
,
00100000
00000000
00010000
10000000
00010000
00000000
10000000
00000000
,
00100000
00000000
01000000
00010000
10000000
00000000
01000000
00000000
,
00100000
00000000
00000000
00010000
00000000
00000000
00100000
00000000
00000000
00000000
00000000
00000000
00011000
00000000
00000000
00000000
,
00000100
00000000
00000000
00001000
00000000
00000000
00000100
00000000
00000000
00000000
00000000
00000000
00000010
00000000
00000000
00000000
,
00000001
00000000
00000000
00001001
00000000
00000000
00001000
00000100
,
00020000
00002000
00033000
00011000
,
00000100
00000000
00010000
00000000
00000100
00010000
00001000
00000000
,
00100000
00000000
00010000
00000000
10000000
00000000
00010000
00100000
,
02000000
10000000
23000000
00010000
,
00020000
30030000
00100000
01000000
,
00010000
00000000
00100000
00000000
00001000
00010000
00000100
00000000
,
00001000
00000001
00000010
00000101
,
00002010
00000000
00000002
00003003
,
00000010
00000000
00000001
00000000
00001000
00000100
00001000
00000100
,
00010000
00000000
00001000
00000000
00100000
00010000
10000000
00000000
,
00100000
00000000
10000000
00000000
01000000
10000000
00010000
00000000
,
00200000
00001000
00302000
00010000
,
00023000
00000100
00000200
00030300
,
00001000
00000010
00000001
00000010
,
00001000
00000000
00010000
00000000
01000000
00000000
10000000
01000000
,
00010000
00000000
10000000
01000000
00100000
00000000
01000000
00000000
,
00100000
00000000
00010000
00000000
00100000
00000000
00001000
00010000
,
00002000
00000000
00000000
00100000
,
00200000
00000000
00003000
00010000
,
00020000
00000000
00000000
00000000
00300000
00000000
00130000
00010000
,
00001000
00000000
00000000
00000100
00000000
00000000
00000010
00000000
,
00000001
00000100
00001000
00000100
,
00000010
00000100
00000001
00001000
,
00000100
00000000
00000010
00000100
00001000
00000000
00000100
00000000
,
00010000
00000000
00001000
00000000
00100000
00010000
10000000
00010000
,
10010000
00000000
01000000
00000000
00100000
00000000
10000000
00010000
,
00100000
00000000
01000000
10000000
00010000
00000000
10010000
00000000
,
00100000
00000000
00001000
00000000
00010000
00000100
00010000
00001000
,
00010000
00000100
00001100
00000000
,
00000010
00000000
00000010
00000001
00000000
00000001
00000100
00000000
,
00000010
00001000
00000100
00010000
,
00001000
00000000
00100000
00010000
10000000
00000000
00100000
00000000
,
01000000
00000000
00010000
00000000
00100000
00001000
00100000
00010000
,
00002000
00000000
00000000
00000200
00003300
00000000
00000001
00000000
,
00000020
00000000
00000000
00000200
00000330
00000000
00001000
00000000
,
00000200
00000000
00000000
00020000
00030300
00000000
00001000
00000000
,
00200000
00000000
00000000
00020000
00330000
00000000
10000000
00000000
,
01100000
00000000
00000000
10000000
00000000
00000000
00010000
00000000
,
00100000
00000000
00000000
00001000
00000000
00000000
00010000
00000000
,
00000100
00000000
00000000
00000010
00000000
00000000
00000001
00000000
,
00001000
00000000
00000000
00001100
00000000
00000000
00010000
00001000
,
00010000
00000000
00000000
00001000
00000000
00000000
00100000
00000000
00000000
00000000
00000000
00000000
00010000
00000000
00000000
00000000
,
10000000
00000000
00000000
00100000
00000000
00000000
01000000
00000000
00000000
00000000
00000000
00000000
10010000
00000000
00000000
00000000
,
10000000
00000000
00000000
01000000
00000000
00000000
00010000
00000000
00000000
00000000
00000000
00000000
01000000
00000000
00000000
00000000
,
00100000
00000000
00000000
00001000
00000000
00000000
00010000
00000000
00000000
00000000
00000000
00000000
00011000
00000000
00000000
00000000
,
00000100
00000000
00000000
00001000
00000000
00000000
00000001
00000000
00000000
00000000
00000000
00000000
00000010
00000000
00000000
00000000
,
00000100
00000000
00000000
00001000
00000000
00000000
00000100
00000000
00000000
00000000
00000000
00000000
00011000
00000000
00000000
00000000
,
00010000
00000000
00000000
00001000
00000000
00000000
00000000
00000000
00100000
00000000
00000000
00000000
00010000
00000000
10000000
00000000
,
00010000
00000000
00000000
00100000
00000000
00000000
10010000
00000000
00000000
00000000
00000000
00000000
00000000
00000000
00000000
00000000
;

//---------------dance-double - ----------------
#NOTES:
     dance-double:
     :
     Easy:
     4:
     0.301,0.345,0.093,0.214,0.000: // measure 1
00000000
00000000
00000000
00000000
,  // measure 2
00000000
00000000
00000000
00000000
,  // measure 3
00000000
00000000
00000000
00000000
,  // measure 4
00000000
00000000
00000000
00000000
,  // measure 5
00100000
00010000
00100000
00010000
,  // measure 6
10000000
01000000
00100000
00010000
,  // measure 7
00001000
00010000
00001000
00010000
,  // measure 8
00000100
00000100
00000010
00000110
,  // measure 9
00001001
00000000
00000010
00000000
,  // measure 10
00000001
00000100
00001000
00000000
,  // measure 11
00000100
00000000
00001010
00000000
,  // measure 12
00001000
00000100
00010000
00000000
,  // measure 13
00001000
00000000
00110000
00000000
,  // measure 14
00010000
00100000
01000000
00000000
,  // measure 15
10000000
00000000
01100000
00000000
,  // measure 16
00010000
10000000
00010000
00100000
,  // measure 17
00002000
00000000
00000000
00003000
00000000
00000000
00010000
00000000
,  // measure 18
00000200
00000000
00000000
00000300
00000000
00000000
00000010
00000000
,  // measure 19
00000001
00000000
00001000
00000010
,  // measure 20
00001000
00001100
00000000
00000100
,  // measure 21
00010000
00001000
00010000
00001000
,  // measure 22
00100000
00010000
10000000
00100000
,  // measure 23
02000000
00000000
03020000
00000000
,  // measure 24
00230000
00000000
00310000
00010000
,  // measure 25
00001000
00000100
00000010
00000001
,  // measure 26
00000100
00000010
00001000
00000100
,  // measure 27
00020000
00000000
00002000
00000000
,  // measure 28
00033000
00000000
00001000
00100000
,  // measure 29
00010000
01000000
00100000
10000000
,  // measure 30
01000000
00010000
00001000
00000100
,  // measure 31
00000002
00000000
00000023
00000000
,  // measure 32
00000230
00000000
00002300
00000000
,  // measure 33
00003010
00001000
00000100
00010000
,  // measure 34
00001000
00100000
00010000
01000000
,  // measure 35
10000000
00000000
01000000
00000000
,  // measure 36
00100000
00000000
01000000
00010000
,  // measure 37
20000000
00000000
00000000
30010000
,  // measure 38
00200000
00000000
00000000
01300000
,  // measure 39
00200000
00000000
00300000
00110000
,  // measure 40
00020000
00000000
02000000
03030000
,  // measure 41
00001000
00000000
00010000
00000000
,  // measure 42
00000100
00001000
00000010
00000100
,  // measure 43
00000110
00000000
00000001
00001000
,  // measure 44
00000100
00000100
00000010
00000100
,  // measure 45
00010000
00000000
00001000
00000000
,  // measure 46
00010000
00000100
00001000
00000010
,  // measure 47
00010000
00000000
00001000
00000000
,  // measure 48
00100000
00010000
10000000
00000000
,  // measure 49
01000000
00000000
10000000
00100000
,  // measure 50
01000000
00000000
00010000
00010000
,  // measure 51
00100000
00000000
00001000
00010000
,  // measure 52
00000100
00010000
00100000
10000000
,  // measure 53
20000000
00000000
00000000
30000000
00000000
00000000
00010000
00000000
,  // measure 54
00200000
00000000
00000000
00300000
00000000
00000000
00010000
00000000
,  // measure 55
00002000
00000000
00000000
00003000
00000000
00000000
00000100
00000000
,  // measure 56
00000020
00000000
00000000
00000030
00000000
00000000
00000000
00000000
,  // measure 57
00000001
00000001
00000001
00001000
,  // measure 58
00000100
00000100
00000100
00000010
,  // measure 59
00001000
00001000
00001000
00010000
,  // measure 60
00200000
00000000
00000000
00300000
01000000
00000000
01000000
00000000
,  // measure 61
10010000
00100000
10000000
00010000
,  // measure 62
00100000
01000000
00100000
00001000
,  // measure 63
00010000
00000100
00001000
00000001
,  // measure 64
00000010
00000100
00001000
00000001
,  // measure 65
00000100
00000010
00001000
00000100
,  // measure 66
00010000
00001000
00100000
01000000
,  // measure 67
10000000
00010000
01000000
00010000
,  // measure 68
00202000
00000000
00000000
00303000
00000000
00000000
00000000
00000000
;
