#TITLE:Apple Butter;
#SUBTITLE:;
#ARTIST:good-cool;
#TITLETRANSLIT:;
#SUBTITLETRANSLIT:;
#ARTISTTRANSLIT:;
#GENRE:;
#CREDIT:;
#MENUCOLOR:;
#METERTYPE:DDR;
#BANNER:Apple Butter-bn.png;
#BACKGROUND:Apple Butter-bg.png;
#LYRICSPATH:;
#CDTITLE:TUNE STREET-cdtitle.png;
#MUSIC:Apple Butter.mp3;
#OFFSET:-0.420;
#SAMPLESTART:85.460;
#SAMPLELENGTH:11.380;
#SELECTABLE:YES;
#LISTSORT:;
#BPMS:0.000=170.000;
#STOPS:;
#BGCHANGES:;
#ATTACKS:;

//---------------dance-single - ----------------
#NOTES:
     dance-single:
     :
     Hard:
     9:
     0.678,0.620,0.276,0.333,0.244:
0000
0000
0000
0000
,
0010
0000
0100
0000
0001
1000
0001
0000
0100
0000
0010
0000
1000
0000
0100
0000
,
0020
0000
0031
2000
0000
3100
2000
0000
,
3010
0200
0000
0301
0010
0001
1000
1000
,
0020
0000
1030
0002
0000
0013
0200
0000
,
1300
0020
0000
0130
0001
1000
0010
0000
,
1002
0000
0013
0200
0000
1300
0020
0000
,
1030
0002
0000
0013
0100
1000
1000
0001
,
0200
0000
0310
2000
0000
3001
0020
0000
,
0031
0000
0100
0001
1001
0000
0000
0000
,
0110
0000
1000
0001
0000
1000
0100
0000
,
0001
0100
0000
1000
0010
0100
0001
0010
,
0001
0100
0002
0000
0013
0100
2000
0000
,
3010
0100
0010
1000
0001
0000
0011
0000
,
1001
0000
1000
0100
0100
0010
0001
0000
,
0010
0001
1000
0000
0100
1000
0001
0100
,
0001
0000
1000
0100
0000
0010
0001
0000
,
1000
0000
0010
0000
0100
0001
1000
0100
,
1100
0000
0100
0010
0000
0010
0001
0000
,
2000
0000
3001
0100
0010
0100
0001
1000
,
0100
0010
0001
0100
0010
0100
0001
0000
,
0001
1000
0100
1000
0001
0000
0010
0001
,
0100
0000
0010
0000
0100
0000
0001
1000
,
0100
0000
1000
0000
0010
1000
0100
0010
,
0001
0100
0010
0100
,
0001
0010
0001
0100
0001
1000
0001
0100
,
0001
0010
0100
1000
0001
0000
1100
0000
,
0110
0000
0011
0000
1000
0100
0010
0001
,
1000
0011
0110
1100
,
0010
0100
0010
1000
0001
0000
1010
0000
,
1001
0000
0101
0000
0100
0010
0100
0001
,
1000
0000
0000
0000
0101
0000
0000
0000
1000
0000
0001
0100
0001
0000
1000
0000
,
0100
1000
0010
0100
0001
0000
0020
0000
,
0032
0000
2003
0000
3100
1000
0001
0010
,
0100
0020
0230
0320
,
0031
1000
0100
0010
0001
0000
0200
0000
,
0302
0000
0023
0000
0031
0010
0100
1000
,
0100
0000
0000
0000
1000
0000
0010
0000
0100
0000
0001
1000
0001
0000
0010
0000
,
0100
1100
0000
1001
0000
0000
0110
0000
,
0000
0101
0000
0000
1100
0011
0000
1001
,
0000
0220
0000
0000
,
0330
0000
0000
0001
1000
0001
1000
0001
1000
0001
1000
0001
,
1000
0001
1000
0001
0000
1000
0100
0000
1000
0100
0000
1000
,
0000
0000
0000
0010
0100
0010
0100
0001
0100
0001
0000
1000
,
0010
0000
1000
0010
0000
0000
0100
0000
0000
0001
0000
0000
,
0010
0001
0010
0001
0000
0001
0100
0000
0010
1000
0000
0000
,
0001
1000
0001
1000
0000
0000
0010
0000
0100
0010
0000
0000
,
0100
0001
1000
0100
,
0010
0000
0010
0001
0000
0001
0100
0000
0100
0010
0000
0010
,
1000
0000
0000
0001
0100
0001
0100
0000
0010
1000
0000
0001
,
0000
0000
0110
0000
0000
0000
1000
0000
0000
0100
0000
0000
,
0010
0000
0000
0001
0000
0000
0100
0000
0000
0001
0000
1000
,
0010
1000
0010
0100
0000
0000
0101
0000
0000
1000
0000
0000
,
1010
0001
0011
1000
,
0100
0000
2000
0000
0000
0000
0100
0000
0000
0001
0000
0000
,
3100
0002
0100
1000
,
0103
0000
0001
1000
0000
0000
1100
0000
0000
0001
0000
0100
,
0001
0000
0000
0010
0001
0010
0001
0010
0001
1000
0100
1000
,
0100
1000
0100
0010
0000
0000
0000
0000
0000
0001
0000
0000
,
0000
0000
0000
0000
0000
0000
1000
0000
0000
0000
0000
0000
0000
0000
0000
0000
0010
0000
0000
0000
0000
0100
0000
0000
,
1001
0000
0001
0010
0100
1000
0001
0010
,
0100
1000
0010
0000
0100
0001
0100
0010
,
1000
0001
0010
0100
,
1000
0100
0010
0100
1000
0100
0010
0000
,
0001
0000
0100
0000
0001
0000
0000
0001
0010
0000
0000
0010
0100
0000
0000
0100
,
1000
0001
0200
0000
0010
0000
0001
0000
,
0310
0100
0020
0000
1000
0000
0100
0000
,
1030
0000
0001
0000
0100
0000
0000
0000
0101
0000
0000
0000
1000
0000
0100
0010
,
0001
0100
0010
1000
0001
0010
0100
1000
,
0001
0010
0001
1000
0100
0010
0001
0010
,
0100
1000
0001
0000
0100
0010
0100
0010
,
1000
0000
0001
0000
0100
0000
0000
0000
0010
0000
1000
0001
1000
0000
0100
0000
,
0010
0000
1001
1000
0010
1000
0001
0010
,
0001
1000
0100
0010
0001
0100
0010
0100
,
0001
1000
0200
0000
2300
0000
3002
0000
,
0203
0000
0301
0010
0010
0100
0100
1000
,
1001
0000
0000
0000
0010
0100
0010
0100
0010
0000
1000
0000
0001
0000
0020
0000
,
0001
0000
0100
0000
0031
0000
1000
0100
,
0010
0001
1000
0100
1000
0010
0100
0001
,
0010
0100
1000
0010
0100
1000
0100
0001
,
1000
0000
0000
0000
0001
1000
0001
1000
0001
0000
0100
0000
0010
0000
2000
0000
,
0100
0000
0001
0000
3100
0000
1000
0001
,
0010
0100
1000
0010
0100
0010
1000
0001
,
0100
0001
2002
0000
0000
0000
0000
0000
,
0000
0000
0000
3003
;

//---------------dance-single - ----------------
#NOTES:
     dance-single:
     :
     Medium:
     7:
     0.476,0.551,0.073,0.179,0.061:
0000
0000
0000
0000
,
0001
1000
0001
1000
0001
1000
0001
1000
,
0010
0000
0000
0100
0000
0000
0001
0000
,
0000
0010
0000
0000
0100
0000
1000
0000
,
0010
0000
0000
0100
0000
0000
0001
0000
,
0000
0100
0000
0000
0010
0000
1000
0000
,
0100
0000
0000
0010
0000
0000
0001
0000
,
0000
1000
0000
0000
0100
0000
1000
0000
,
0001
0000
0000
0010
0000
0000
0100
0000
,
0010
0000
0001
0100
0002
0000
0003
0000
,
1000
0000
0000
0100
0000
0000
1000
0000
,
0000
0010
0000
0100
0001
0000
0010
0000
,
0001
1000
0001
0000
0100
0000
0100
0000
,
0010
1000
0010
0000
0200
0000
0301
0000
,
0010
0000
0000
0001
0000
0000
1000
0000
,
0100
0000
1000
0000
0000
0010
0000
0100
,
0010
0000
0100
0001
0100
0000
0010
0000
,
2000
0000
0001
0000
0010
0000
3001
1000
,
0001
0000
0000
0010
0000
0000
0001
0000
,
0000
0100
0000
0010
0100
0000
0010
0000
,
1000
0001
0010
0000
0001
0000
0100
0000
,
0001
1000
0001
0000
0002
0000
0103
0000
,
0010
0000
0000
1000
0000
0000
0001
0000
,
1000
0000
0100
0000
0010
0001
0100
0010
,
1000
0010
0100
0001
,
1000
0001
1000
0001
1000
0001
1000
0001
,
0010
0010
0010
0002
,
0100
0103
1000
1000
,
1000
0020
0100
0130
,
0010
0010
0010
2000
,
0100
3100
0010
0010
,
0010
0200
1000
1300
,
0001
0000
0010
0000
0100
0000
1000
0100
,
0010
0001
0100
0000
0010
0000
1000
0000
,
0001
0000
0010
0001
0010
0001
1000
0000
,
0010
0000
1000
0000
1000
0000
0001
0010
,
0100
1000
0001
0000
0100
0000
0010
0000
,
0100
0000
0001
1000
0001
1000
0001
1000
,
0010
0100
0000
0001
0000
0000
1000
0000
,
0000
0100
0000
0000
0010
0001
0000
1000
,
0000
2002
0000
0000
,
3003
0000
0000
0010
0000
0100
0010
0000
0000
0010
0000
0100
,
0010
1000
0001
0010
,
0001
0000
0000
1000
0000
0100
1000
0000
0000
0010
0000
0000
,
0100
0001
0100
0010
,
1000
0000
0001
1000
0000
0000
0001
0000
0100
0001
0000
0000
,
0100
0020
1000
2000
,
3030
0000
0000
0100
0000
0001
0000
0000
0000
1000
0000
0001
,
0100
0010
0100
0001
,
0001
0000
0000
0010
0000
0000
0001
0000
1000
0100
0000
1000
,
0000
0000
1001
0000
0000
0000
0010
0000
0000
0100
0000
0000
,
0001
0010
0100
1000
,
0010
0000
1000
0100
0000
0000
1100
0000
0000
0001
0000
0000
,
0101
1000
1001
0010
,
0100
0000
0002
0000
0000
0000
1000
0000
0000
1003
0000
0000
,
0010
2000
0001
3001
,
0010
0000
0001
0100
0000
0000
0010
0000
0000
1000
0000
0000
,
0100
0000
0100
0010
0000
0000
0011
0000
0000
0101
0000
0000
,
1001
0010
0000
1000
,
0000
0000
0000
0000
0000
0000
0001
0000
0000
0000
0000
0000
0000
0000
0000
0000
0100
0000
0000
0000
0000
0001
0000
0000
,
1000
0000
0010
0000
0100
0000
0001
0010
,
0100
1000
0010
0000
1000
0000
0100
0010
,
0100
0000
0010
0000
0001
0000
1000
0100
,
0010
0000
0100
0000
0010
0000
0001
0010
,
0001
0000
1000
0001
0001
1000
1000
0001
,
1000
0000
0010
0000
0100
0001
0200
0000
,
0301
0000
1000
0000
0010
0100
0001
0000
,
1000
0000
0010
0100
0010
0100
0010
0100
,
0001
1000
0100
0000
1000
0000
0100
0000
,
1000
0001
0010
0001
,
0100
0010
0200
0000
0301
1000
0002
0000
,
0013
0001
0020
0000
0031
1000
0100
0000
,
0010
0100
0010
0001
,
1000
0000
0010
0000
0100
0000
0010
0100
,
0001
0020
0001
0001
,
0130
0000
0010
0001
0010
0001
0010
0100
,
2000
0000
3001
0100
0001
1000
0000
1000
,
0100
0000
1000
0000
0010
0000
0100
0010
,
0100
0010
1000
0000
0001
0000
0100
0000
,
0001
0000
0010
0000
0100
0000
1000
0100
,
0010
0000
0100
1000
0100
1000
0000
1000
,
0001
0000
0100
0000
0001
0000
0010
0001
,
0010
0100
0010
0000
0100
0000
1000
0001
,
1000
0220
0000
0000
,
0000
0000
0000
0330
;

//---------------dance-single - ----------------
#NOTES:
     dance-single:
     :
     Easy:
     4:
     0.366,0.517,0.195,0.406,0.000:
0000
0000
0000
0000
,
2002
0000
0000
3003
,
0010
1000
0001
0010
,
0001
0000
1000
0000
,
0010
0100
0001
0010
,
0100
0000
1000
0000
,
0010
1000
0100
1000
,
0001
0000
0010
0000
,
0010
0001
0100
0010
,
0100
0000
1001
0000
,
0010
0000
1000
0000
,
0001
0100
0010
0000
,
1000
0100
0010
0001
,
0010
0000
0010
0000
,
0001
0000
0100
0010
,
1000
0000
0001
0000
,
2000
0000
0001
3000
,
0010
0100
0001
0100
,
0010
0000
1000
0000
,
0001
0010
0001
0100
,
0010
0000
1000
0100
,
0010
0000
0100
0010
,
0001
0000
1000
0000
,
0010
0000
0100
0010
,
0001
1000
0001
0000
,
0200
0010
0010
0310
,
1001
0010
0001
2000
,
0000
3000
0100
1000
,
0001
0020
0000
0030
,
0001
0100
0010
2000
,
0000
3000
0001
1000
,
0010
0200
0010
0310
,
2002
3003
0010
0202
,
0303
0010
2020
3030
,
0100
2002
3003
0100
,
2200
3300
0100
0220
,
0330
0001
2002
3003
,
0010
0022
0033
1000
,
0002
0000
0000
1003
0000
0000
0200
0000
,
0000
0310
0000
0000
0002
0000
0000
0103
,
0000
2002
0000
0000
,
0003
0200
0000
0000
,
3300
0001
0010
0001
,
0000
2000
3020
0130
,
0001
1000
0000
0001
,
2000
3100
1000
0010
,
0000
0100
0001
0220
,
0330
0010
1000
0002
,
0103
0001
0100
0010
,
0100
0002
1003
0200
,
1300
1001
0100
0100
,
0000
0010
1000
0001
,
0020
0031
0011
0000
,
1100
0000
1010
0000
,
0001
0100
0010
1000
,
0001
2000
0000
3000
,
0100
1000
0100
0000
,
0010
0100
0010
0001
,
0100
0001
0000
1000
,
0000
0000
0000
0020
0000
0000
0000
0000
0030
0000
0000
0000
,
0110
1001
1000
0100
,
0010
0001
0000
0100
,
0010
0000
0000
0100
,
1000
0001
0000
0010
,
0000
0000
0001
0010
,
0100
0010
0100
1000
,
0000
0010
0000
0100
,
0010
2000
0001
3001
,
0100
1001
0010
0100
,
0001
1000
0100
0000
,
1000
0001
0100
0010
,
0000
0100
0000
0001
,
0000
1000
0100
0010
,
0100
1000
0000
0010
,
0100
0100
0000
0010
,
0000
2002
0000
3003
,
0110
1001
0100
0010
,
0000
1000
0001
0200
,
0310
2000
0000
3002
,
0000
0023
0001
0130
,
0000
1001
0010
0100
,
0000
0010
0100
0020
,
1030
0001
1000
0010
,
0100
0002
0000
0000
,
0000
0000
0000
0003
;

//---------------dance-single - ----------------
#NOTES:
     dance-single:
     :
     Beginner:
     2:
     0.125,0.203,0.057,0.098,0.000:
0000
0000
0000
0000
,
0000
0000
0000
0000
,
1000
0000
0000
0000
,
0100
0000
0000
0000
,
0010
0000
0000
0000
,
0001
0000
0000
0000
,
0100
0000
0000
0000
,
0010
0000
0000
0000
,
1000
0000
0000
0000
,
0100
0000
1000
0000
,
0100
0000
0000
0000
,
0000
0000
1000
0000
,
0001
0000
0000
0000
,
0010
0000
0000
0000
,
0001
0000
0000
0000
,
0000
0000
0100
0000
,
0010
0000
0000
0000
,
0200
0000
0300
0000
,
1001
0000
0000
0000
,
0000
0000
0001
0000
,
0010
0000
0000
0000
,
0100
0000
0000
0000
,
0010
0000
0000
0000
,
0001
0000
1000
0000
,
0100
0000
0000
0000
,
2000
0000
3000
0000
,
0010
0000
0000
0100
,
0000
0000
0010
0000
,
0000
0100
0000
0000
,
0001
0000
0000
1000
,
0000
0000
0001
0000
,
0000
1000
0000
0000
,
0001
0000
0000
0010
,
0000
0000
0100
0000
,
0000
1000
0000
0000
,
0010
0000
0000
0100
,
0000
0000
0001
0000
,
0000
1000
0000
0000
,
0020
0000
0000
0030
0000
0000
2000
0000
,
0000
3000
0000
0000
0002
0000
0000
0003
,
0000
0200
0000
0000
,
0000
0000
0000
0300
,
0000
0110
0000
0000
,
0000
1000
1000
0000
,
0000
0001
0000
0000
,
0000
0010
0000
0000
,
0000
0001
0000
0000
,
0000
0100
0000
0000
,
0000
0001
0000
0000
,
0000
0010
0000
0000
,
0000
0110
0000
0000
,
0000
0100
0000
0000
,
0000
0000
1000
0000
,
1000
0000
1000
0000
,
0000
0020
0000
0030
,
0000
0020
0000
0030
,
0000
0100
0000
0000
,
0000
0010
0000
0000
,
0000
1001
0000
0000
,
0000
0000
0000
0000
,
0000
0220
0000
0000
,
0000
0330
0000
0000
,
0000
1000
0000
0000
,
0000
0000
0000
0001
,
0000
0010
0000
0000
,
0000
0001
0000
0000
,
0000
1000
0000
0000
,
0000
0020
0000
0030
,
0000
0100
0000
0000
,
0000
0000
0000
0000
,
0000
0010
0000
1000
,
0000
0010
0000
0000
,
0000
0100
0000
0000
,
0000
0001
0000
0000
,
0000
1000
0000
0000
,
0000
0002
0000
0003
,
0000
1001
0000
0000
,
0000
0000
0000
0100
,
0000
0100
0000
0000
,
0000
0000
0000
0010
,
0000
1001
0000
0000
,
0000
0100
0000
0000
,
0000
0010
0000
0010
,
0000
0010
0000
0000
;

//---------------dance-double - ----------------
#NOTES:
     dance-double:
     :
     Hard:
     9:
     0.639,0.620,0.179,0.187,0.199: // measure 1
00000000
00000000
00000000
00000000
,  // measure 2
10000000
00100000
01000000
00010000
00100000
00001000
00000100
00000010
,  // measure 3
00000200
00000000
00000301
00000020
00000000
00001030
00020000
00000000
,  // measure 4
00130000
20000000
00000000
31000000
00010000
00001000
00010000
00000100
,  // measure 5
00002000
00000000
00003100
00020000
00000000
00031000
02000000
00000000
,  // measure 6
03100000
00020000
00000000
00031000
00010000
00000000
00011000
00000000
,  // measure 7
00200000
00000000
00310000
20000000
00000000
30100000
00020000
00000000
,  // measure 8
00031000
00000200
00000000
00000301
00000100
00000010
00001000
00000001
,  // measure 9
00002000
00000000
00003100
00020000
00000000
00031000
00000020
00000000
,  // measure 10
00000130
00000000
00001000
00000100
00001100
00000000
00010000
00001000
,  // measure 11
00010000
00000000
00001000
00100000
00000000
00100000
00010000
00000000
,  // measure 12
10000000
00000000
00010000
00100000
00010000
01000000
00100000
01000000
,  // measure 13
00010000
10000000
01000000
00100000
00010000
00100000
00001000
00000000
,  // measure 14
00001000
00000100
00000010
00000100
00000001
00000010
00000100
00000000
,  // measure 15
00000010
00000000
00000001
00000100
00000000
00000100
00000010
00000000
,  // measure 16
00001000
00000000
00000100
00000000
00010000
00001000
00000000
00001000
,  // measure 17
00010000
01000000
10000000
00100000
01000000
00000000
00010000
00000000
,  // measure 18
10000000
00000000
00100000
00000000
01000000
00000000
00010000
00000000
00100000
00000000
00010000
10000000
00010000
00000000
00100000
00000000
,  // measure 19
00001000
00000000
00010000
00001000
00000000
00001000
00100000
00000000
,  // measure 20
00001000
00000000
00010000
00001000
00100000
00010000
00100000
00001000
,  // measure 21
00010000
00000010
00000100
00001000
00000100
00000010
00001000
00000000
,  // measure 22
00000001
00000010
00000100
00001000
00000010
00000000
00010000
00000000
,  // measure 23
00001000
00000000
00100000
00010000
10000000
00100000
01000000
00000000
,  // measure 24
00002000
00000000
00103000
00000000
00010000
00001000
00000100
00000010
,  // measure 25
00000001
00001000
00000010
00000100
,  // measure 26
00000010
00001000
00000100
00010000
00001000
00100000
00010000
01000000
,  // measure 27
00100000
00000000
10000000
00010000
01000000
00000000
00110000
00000000
,  // measure 28
11000000
00000000
00110000
00000000
01000000
00000000
00001000
00010000
,  // measure 29
00000100
00001100
00010100
00001010
,  // measure 30
00000001
00000000
00000010
00000100
00001000
00000000
00001010
00000000
,  // measure 31
00010100
00000000
00101000
00000000
00010000
00000000
10000000
00100000
,  // measure 32
01000000
00000000
00000000
00000000
00010000
00000000
00100000
00000000
00001000
00000000
00010000
00001000
00010000
00000000
00000100
00000000
,  // measure 33
00001000
00000000
00000001
00000010
00000100
00000000
00001000
00000100
,  // measure 34
00010000
00001000
00100000
00000000
00010000
00000000
10000000
01000000
,  // measure 35
00100000
00000000
00010000
00100000
00001000
00010000
00000100
00000000
,  // measure 36
00001001
00000000
00001000
00000100
00000010
00000000
00000001
00000100
,  // measure 37
00001000
00010000
00100000
00000000
10000000
00000000
00010000
00100000
,  // measure 38
01000000
00000000
10000000
00100000
00010000
00001000
00000100
00000000
,  // measure 39
00000001
00001000
00000000
00011000
00000000
00000000
01010000
00000000
,  // measure 40
00000000
10100000
00000000
00000000
10000000
00010000
00000000
00011000
,  // measure 41
00000000
00202000
00000000
00000000
,  // measure 42
00303000
00000000
00000000
00100000
00010000
00100000
00001000
00010000
00001000
00010000
00000100
00010000
,  // measure 43
00000100
00001000
00000100
00000010
00000000
00000000
00000001
00000000
00001000
00000010
00000000
00001000
,  // measure 44
00000100
00000000
00000000
00010000
00001000
00010000
00001000
00010000
00001000
00100000
00000000
00010000
,  // measure 45
01000000
00100000
10000000
00010000
,  // measure 46
10000000
01000000
10000000
00100000
00000000
01000000
00010000
00000000
00000000
01000000
00000000
00000000
,  // measure 47
00010000
00000000
00100000
00001000
00000000
00000000
00010000
00000000
00000000
02000000
00000000
00000000
,  // measure 48
13000000
00000000
00010000
00100000
00000000
00001000
00010000
00000000
00000000
00000100
00000000
00000000
,  // measure 49
00001000
00000000
00000100
00010000
00000000
00000000
00000010
00000000
00000000
00000100
00000000
00000000
,  // measure 50
00000001
00000000
00000000
00000010
00000001
00000010
00000001
00000000
00000001
00000100
00000000
00000010
,  // measure 51
00000000
00000000
00001001
00000000
00000000
00000000
00001000
00000000
00000000
00000100
00000000
00000000
,  // measure 52
00010000
00000000
00000000
00001000
00000000
00000000
00000010
00000000
00000000
00000001
00000000
00001000
,  // measure 53
00000100
00010000
00000100
00010000
00000000
00000000
00011000
00000000
00000000
00100000
00000000
00000000
,  // measure 54
00101000
00010000
01010000
10000000
,  // measure 55
00010000
00000000
00200000
00000000
00000000
00000000
00001000
00000000
00000000
00010000
00000000
00000000
,  // measure 56
00301000
00000000
01000000
00200000
00000000
00000000
10000000
00000000
00000000
01000000
00000000
00000000
,  // measure 57
10300000
00000000
00100000
01000000
00000000
00000000
00010000
00000000
00000000
00100000
00000000
00000000
,  // measure 58
00010000
00000000
00010000
00100000
00001000
00100000
00001000
00010000
00001000
00010000
00000100
00010000
,  // measure 59
00000100
00001000
00000100
00001000
00000000
00000000
00000000
00000000
00000000
00000010
00000000
00000000
,  // measure 60
00000000
00000000
00000000
00000000
00000000
00000000
00010000
00000000
00000000
00000000
00000000
00000000
00000000
00000000
00000000
00000000
00001000
00000000
00000000
00000000
00000000
00100000
00000000
00000000
,  // measure 61
00010000
00000000
10000000
01000000
00100000
00010000
01000000
00100000
,  // measure 62
00010000
00001000
01000000
00000000
00010000
00100000
00001000
00010000
,  // measure 63
00000100
00010000
00001000
00000000
00000010
00000001
00000010
00000000
,  // measure 64
00000100
00001000
00000100
00010000
00010000
00001000
00100000
00010000
,  // measure 65
10000000
00000000
00100000
01000000
00010000
01000000
10000000
01000000
,  // measure 66
00100000
01000000
00010000
00000000
00100000
00001000
00010000
00000000
,  // measure 67
00010100
00000000
00001000
00000100
00000010
00000000
00000100
00000010
,  // measure 68
00000001
00000000
00001000
00000010
00000100
00001000
00010000
00000100
,  // measure 69
00001000
00010000
00100000
00010000
10000000
01000000
10000000
00100000
,  // measure 70
01000000
00010000
00100000
00000000
10000000
00000000
00100000
00010000
,  // measure 71
01000000
00100000
01000000
00000000
00001000
01000000
00001000
00000000
,  // measure 72
00010000
00000100
00010000
00000000
00001000
00100000
00001000
00000000
,  // measure 73
00010000
00000000
00000010
00000000
00000100
00000001
00000010
00000100
,  // measure 74
00001000
00000100
00010000
00000000
00001000
00000100
00000010
00001000
,  // measure 75
00000100
00000000
00000010
00000100
00001000
00000100
00001000
00000100
,  // measure 76
00010000
00001000
00100000
00100000
00010000
00010000
10000000
01000000
,  // measure 77
00100000
00000000
00000000
00000000
00001000
00010000
00001000
00010000
00001000
00000000
00100000
00000000
00001000
00000000
00010000
00000000
,  // measure 78
00000100
00000000
00001000
00000000
00000100
00000000
00010000
00001000
,  // measure 79
00010000
00100000
01000000
00100000
10000000
00010000
10000000
01000000
,  // measure 80
00100000
00010000
00100000
00010000
01000000
00100000
01000000
00001000
,  // measure 81
00010000
00000000
00000000
00000000
00000100
00001000
00000100
00001000
00000100
00000000
00000010
00000000
00000001
00000000
00001000
00000000
,  // measure 82
00000100
00000000
00010000
00000000
00000010
00000000
00010000
00001000
,  // measure 83
00010000
01000000
10000000
01000000
00100000
00010000
00001000
00100000
,  // measure 84
00010000
00002000
00000200
00000000
00000000
00000000
00000000
00000000
,  // measure 85
00000000
00000000
00000000
00003300
;

//---------------dance-double - ----------------
#NOTES:
     dance-double:
     :
     Medium:
     6:
     0.457,0.551,0.098,0.228,0.057:
00000000
00000000
00000000
00000000
,
00001000
00000000
00100000
00000000
00010000
10000000
00010000
00000000
,
00100000
00000000
00000000
00010000
00000000
00000000
01000000
00000000
,
00000000
00100000
00000000
00000000
10000000
00000000
00010000
00000000
,
00100000
00000000
00000000
00001000
00000000
00000000
00010000
00000000
,
00000000
00000100
00000000
00000000
00000010
00000000
00000001
00000000
,
00000100
00000000
00000000
00000010
00000000
00000000
00000100
00000000
,
00000000
00001000
00000000
00000000
00000100
00000000
00000010
00000000
,
00001000
00000000
00000000
00000100
00000000
00000000
00010000
00000000
,
00001000
00010000
00011000
00000000
,
00100000
00000000
00000000
00010000
00000000
00000000
10000000
00000000
,
01000000
00000000
10000000
00010000
,
00100000
00010000
01000000
00000000
00100000
00000000
01000000
00000000
,
00001000
00100000
00001000
00000000
00010000
00000000
00000000
00000000
,
00000100
00000010
00000001
00000100
,
00000010
00000000
00001000
00000000
00000000
00000100
00000000
00010000
,
00001000
00000000
00010000
00000100
00000000
00000000
00001000
00000000
,
00000010
00000000
00001000
00000000
00000100
00000000
00010000
00001000
,
00010000
00000000
00000000
00001000
00000000
00000000
00100000
00000000
,
00010000
10000000
01000000
00100000
,
01000000
00100000
00010000
00000000
00100000
00000000
00001000
00000000
,
00010000
00000100
00001000
00000000
,
00000010
00000100
00000001
00000010
,
00000001
00000000
00001000
00000000
00000100
00001000
00000100
00010000
,
00001000
00100000
00010000
10000000
,
00100000
01000000
00100000
01000000
00010000
01000000
00010000
01000000
,
00010000
10000000
00010000
00200000
,
00001000
00301000
00010000
00000100
,
00001000
00000020
00000100
00000130
,
00000001
00000010
00001000
00000020
,
00000001
00000031
00001000
00000100
,
00010000
00002000
00100000
00103000
,
00010000
00000000
10000000
00000000
00010000
00000000
00100000
00001000
,
00100000
00001000
00100000
00000000
00010000
00000000
01000000
00000000
,
00001000
00000000
00010000
00000100
00010000
00000100
00010000
00000000
,
00000010
00000000
00000100
00000000
00000001
00000000
00000010
00000100
,
00000010
00000100
00000010
00000000
00000100
00000000
00001000
00000000
,
00000100
00000000
00010000
00001000
00010000
00001000
00010000
00000000
,
00001000
00100000
00000000
00001000
00000000
00000000
00010000
00000000
,
00000000
00000100
00000000
00000000
00010000
00001000
00000000
00100000
,
00000000
00022000
00000000
00000000
,
00030000
00000000
00000000
00013000
00000000
00001000
00010000
00000000
00000000
00001000
00000000
00010000
,
00001000
00000000
00000000
00100000
00000000
00000000
00010000
00000000
00000000
10000000
00000000
01000000
,
00000000
00000000
00000000
10000000
00000000
00000000
11000000
00000000
00000000
00010000
00000000
01000000
,
00010000
00100000
00001000
00010000
,
00000100
00000000
00000100
00000010
00000000
00000000
00000001
00000000
00000001
00000100
00000000
00000000
,
00000010
00002000
00000000
00003100
,
00010000
00000000
00000100
00001000
00000000
00000000
00000100
00000000
00000000
00010000
00000000
00000000
,
00001000
00100000
01000000
10000000
,
00010000
00000000
00000000
01000000
00000000
00000000
00100000
00000000
00000000
10000000
00000000
00020000
,
00000000
00000000
01030000
00000000
00000000
00000000
00100000
00000000
00000000
10000000
00000000
00000000
,
00010000
10000000
01000000
00100000
,
00010000
00000000
00100000
00001000
00000000
00000000
00011000
00000000
00000000
00010000
00000000
00000000
,
00010100
00000100
00001100
00001000
,
00000010
00000000
00000200
00000000
00000000
00000000
00000010
00000000
00000000
00000010
00000000
00000000
,
00000310
00000000
00001000
00000200
00000000
00000000
00010000
00000000
00000000
00010000
00000000
00000000
,
00010300
00000000
00000100
00001000
00000000
00000000
00010000
00000000
00000000
00100000
00000000
00000000
,
01000000
10000000
00010000
01000000
,
00001000
00102000
00000000
00023000
,
00000000
00000000
00000000
00030020
00000000
00000000
00000000
00000000
00001030
00000000
00000000
00000000
,
00001100
00000000
00010000
00000000
00001000
00000000
00100000
00010000
,
00100000
01000000
10000000
00000000
00010000
00000000
01000000
00000000
,
00010000
00100000
00001000
00001000
,
00010000
00000010
00000100
00000001
,
00000001
00000000
00001000
00000100
00001000
00000100
00000010
00000001
,
00000100
00001000
00000100
00000001
,
00000010
00001200
00000000
00010300
,
00001000
00000000
00100000
00001000
00100000
00001000
00010000
00001000
,
00010000
00001000
00100000
00010000
,
01000000
00100000
10000000
00010000
,
00100000
00010000
00100000
00000000
01000000
00100000
01000000
00000000
,
10000000
01000000
10000000
00000000
00010000
01000000
00010000
00000000
,
00100000
00101000
00010000
00001000
,
00010000
00001000
00000100
00000001
,
00000010
00001000
00010000
01000000
,
10000000
00020000
10000000
01030000
,
10010000
00000000
00010000
01000000
00010000
10000000
00000000
10000000
,
01000000
00000000
10000000
00000000
00100000
00000000
01000000
00010000
,
01000000
00020000
00230000
00302000
,
00023000
00032000
00203000
00320000
,
00032000
00000000
00003100
00001000
00000100
00001000
00000000
00001000
,
00000100
00000000
00000010
00000000
00000001
00000000
00001000
00000010
,
00001000
00000020
00020030
00032000
,
01003000
02200000
00000000
00000000
,
00000000
00000000
00000000
03300000
;

//---------------dance-double - ----------------
#NOTES:
     dance-double:
     :
     Easy:
     3:
     0.284,0.413,0.089,0.260,0.000:
00000000
00000000
00000000
00000000
,
00000002
00000000
00000200
00000303
,
00001001
00000000
00001000
00000000
,
00000100
00010000
00001000
00000000
,
00100000
00000000
00010000
00000000
,
10000000
00000000
01000000
10000000
,
00100000
00000000
01000000
00000000
,
00010000
00000000
01000000
00010000
,
01000000
00000000
00001000
00000000
,
00010000
00000000
00011000
00000000
,
00000100
00000000
00001000
00000000
,
00000010
00000000
00000100
00000001
,
00000010
00000000
00000100
00000000
,
00000100
00010000
00001000
00000000
,
00100000
00000000
00010000
00000000
,
10000000
01000000
00000000
10000000
,
00100000
00000000
01000000
00000000
,
00010000
00000000
00100000
00001000
,
00011000
00000000
00100000
00000000
,
00001000
00000000
00010000
00000100
,
00001000
00000000
00000100
00000000
,
00010000
00001000
00010000
00000000
,
00000010
00000000
00000100
00000000
,
00000001
00000000
00000010
00000100
,
00001000
00000000
00000100
00000000
,
00010000
00001000
00010000
00001000
,
00200000
00000000
00310000
02000000
,
00000000
03100000
20000000
00000000
,
31000000
00020000
00000000
00031000
,
00000200
00000000
00000301
00000020
,
00000000
00000130
00002000
00000000
,
00003010
00010000
00010000
00010000
,
00000200
00000000
00001300
00000002
,
00000000
00000013
00000200
00000000
,
00010300
00002000
00000000
01003000
,
00200000
00000000
10300000
02000000
,
00000000
03010000
00002000
00000000
,
00003100
00000002
00000000
00000103
,
00002002
00000000
00000000
00003003
00000000
00000000
00002200
00000000
,
00000000
00003300
00000000
00000000
00020200
00000000
00000000
00030300
,
00000000
00011000
00000000
00000000
,
00000000
00100000
00100000
00001000
,
00001000
00010000
00000000
00000100
,
00000000
00001000
00001000
00000000
,
00000100
00010000
00000000
00010000
,
00001000
00100000
00000000
00010000
,
00000000
01000000
00000000
00100000
,
00000000
10000000
00000000
00100000
,
01000000
00100000
00000000
10000000
,
00010000
00100000
00001000
00000000
,
00000000
00011000
00000000
00000100
,
00000000
00010000
00000000
00001000
,
00010000
00001000
00100000
00000000
,
00010000
00000000
01000000
00000000
,
00100000
20000000
00000000
00000000
,
30010000
00200000
00000000
00000000
,
00301000
00010000
00000100
00000000
,
00001000
00000001
00000010
00000100
,
00001000
00000200
00000000
00000000
,
00000000
00000000
00000000
00000000
,
00010300
00010100
00000000
00010000
,
00001000
00010000
00000000
00000100
,
00000000
00000000
00000010
00000001
,
00000000
00001000
00000000
00000010
,
00000000
00000200
00000000
00000010
,
00000000
00000302
00000000
00001000
,
00000000
00000103
00000000
00000001
,
00000000
00001000
00001000
00001000
,
00000100
00001000
00000000
00000100
,
00000000
00000010
00000000
00000100
,
00010000
00001000
00000000
00100000
,
00000000
00010000
00010000
01000000
,
00000000
10000000
00000000
01000000
,
00000000
00010000
01000000
00010000
,
00000000
00100000
00000000
00001000
,
00000000
00022000
00000000
00000000
,
00033000
00001000
00100000
00001000
,
00000000
00000000
00000000
10000000
,
00000000
00010000
00100000
00001000
,
00000000
00010000
00000000
00000010
,
00000010
00000100
00000001
00000100
,
00000000
00000010
00000000
00001000
,
00000000
00000100
00010000
00001000
,
00000000
00022000
00000000
00000000
,
00000000
00000000
00000000
00033000
;
