#TITLE:Quiet;
#SUBTITLE:;
#ARTIST:フレディ波多江とエレハモニカ;
#TITLETRANSLIT:;
#SUBTITLETRANSLIT:;
#ARTISTTRANSLIT:Eleharmonic and Freddy Hatae;
#CREDIT:;
#BANNER:DARKNESS 3.png;
#BACKGROUND:DARKNESS 3-bg.png;
#LYRICSPATH:;
#CDTITLE:Pop'n Music.png;
#MUSIC:DARKNESS 3.mp3;
#OFFSET:-0.380;
#SAMPLESTART:66.170;
#SAMPLELENGTH:13.480;
#SELECTABLE:YES;
#BPMS:0.000=142.000;
#STOPS:;
#BGCHANGES:;

//---------------dance-single - BASIC----------------
#NOTES:
     dance-single:
     BASIC:
     Easy:
     6:
     0.262,0.487,0.106,0.211,0.000: // measure 1
0000
0000
0000
0000
,  // measure 2
0000
0000
0000
0000
,  // measure 3
0000
0000
0000
0000
,  // measure 4
0000
0000
0000
0000
,  // measure 5
0000
0000
0000
0000
,  // measure 6
0000
0000
0000
0000
,  // measure 7
1000
0001
0001
0000
,  // measure 8
0010
0100
0100
0000
,  // measure 9
1000
0001
1000
0001
,  // measure 10
0010
0001
0010
0100
,  // measure 11
1000
0001
0010
0000
,  // measure 12
0001
1000
0100
0000
,  // measure 13
0001
0100
1000
0100
,  // measure 14
0001
0000
0000
1000
0000
0000
0001
0000
,  // measure 15
1000
0000
0010
0000
,  // measure 16
0100
0010
0000
1000
,  // measure 17
0020
0000
0030
0100
,  // measure 18
0002
0000
0003
0000
,  // measure 19
1000
0100
0010
0000
,  // measure 20
0001
1000
0100
0000
,  // measure 21
0010
0001
1000
0010
,  // measure 22
0100
0010
1000
0001
,  // measure 23
0010
0000
1000
0000
,  // measure 24
0001
0010
0000
1000
,  // measure 25
0020
0000
0030
0000
,  // measure 26
0010
2000
0000
3000
,  // measure 27
0001
0100
0001
0000
,  // measure 28
1000
0010
0100
0000
,  // measure 29
0010
0100
0010
1000
,  // measure 30
1001
0000
0000
0110
0000
0000
1001
0000
,  // measure 31
2000
0001
3001
0000
,  // measure 32
0002
0010
0013
0000
,  // measure 33
0100
1000
0001
0000
,  // measure 34
0010
0100
0010
0000
,  // measure 35
0002
0010
0013
0000
,  // measure 36
0200
0010
0310
0000
,  // measure 37
0001
1000
0100
0010
,  // measure 38
1001
0000
0110
0000
,  // measure 39
1001
1100
0011
1001
,  // measure 40
0002
2003
3020
0230
,  // measure 41
0310
1000
0010
0000
,  // measure 42
0200
0000
0300
0000
,  // measure 43
0002
0000
0003
0000
,  // measure 44
1000
0001
0010
0000
,  // measure 45
0010
0001
0010
0000
,  // measure 46
0100
1000
0200
0300
,  // measure 47
0001
0100
2000
3000
,  // measure 48
0002
0203
0320
2030
,  // measure 49
3001
0010
0001
0000
,  // measure 50
2000
0000
3000
0000
,  // measure 51
0200
0000
0300
0000
,  // measure 52
0010
0001
1000
0000
,  // measure 53
0010
0100
0001
0000
,  // measure 54
0010
0100
0010
1000
,  // measure 55
0001
0010
0010
0000
,  // measure 56
1000
0100
0001
0010
,  // measure 57
1000
0100
0001
0010
,  // measure 58
1000
0100
0001
0010
,  // measure 59
1000
0001
0010
0001
,  // measure 60
1000
0010
0100
0001
,  // measure 61
1000
0010
0100
0001
,  // measure 62
0010
0100
0010
0001
,  // measure 63
1001
0000
0000
0110
0000
0000
2002
0000
,  // measure 64
0000
0000
0000
0000
,  // measure 65
0000
0000
0000
0000
,  // measure 66
3003
0000
0000
0000
;

//---------------dance-single - DIFFICULT----------------
#NOTES:
     dance-single:
     DIFFICULT:
     Medium:
     9:
     0.394,0.487,0.159,0.264,0.009: // measure 1
0000
0000
0000
0000
,  // measure 2
0000
0000
0000
0000
,  // measure 3
0000
0000
0000
0000
,  // measure 4
0000
0000
0000
0000
,  // measure 5
0000
0000
0000
0000
,  // measure 6
0000
0000
0000
0000
,  // measure 7
1000
0001
0010
0000
0001
0000
1000
0000
,  // measure 8
0010
0100
0001
0000
0010
0000
0100
0000
,  // measure 9
0010
0001
1000
0000
0010
0000
0100
0000
,  // measure 10
0001
1000
0100
0010
0001
1000
0001
0000
,  // measure 11
0010
0001
1000
0000
0100
0000
0010
0000
,  // measure 12
0100
1000
0010
0000
0100
0000
0010
0000
,  // measure 13
0100
0001
0100
0000
0010
0000
1000
0000
,  // measure 14
0001
1000
0000
1000
0100
0000
0010
0001
,  // measure 15
1000
0000
0001
0000
0010
0001
0010
0000
,  // measure 16
0100
1000
0001
0010
,  // measure 17
0002
1000
1003
0000
,  // measure 18
2000
0100
3100
0010
,  // measure 19
2000
0001
3001
0010
,  // measure 20
0002
0010
0013
0001
,  // measure 21
1000
0000
0100
0010
0100
0000
1000
0000
,  // measure 22
0001
0010
0001
1000
,  // measure 23
0010
0000
0100
0000
0010
1000
0100
0000
,  // measure 24
0010
0001
1000
0001
,  // measure 25
0020
0001
0031
0000
,  // measure 26
0200
1000
1300
0010
,  // measure 27
0200
0010
0310
0010
,  // measure 28
2000
0001
3001
0100
,  // measure 29
0010
1000
0001
0010
0001
0000
1000
0000
,  // measure 30
0010
0000
0000
0100
0000
0000
0010
0000
0000
0100
0000
0000
0010
0000
1000
0000
,  // measure 31
0001
0000
0010
0100
0010
0000
0001
0000
,  // measure 32
1000
0000
0010
0100
0001
0000
1000
0000
,  // measure 33
0011
1100
0022
0033
,  // measure 34
0101
1010
0202
0303
,  // measure 35
0001
0000
1000
0100
0001
0000
0100
0000
,  // measure 36
1000
0000
0010
0100
0001
0000
0010
0000
,  // measure 37
0001
1000
0001
1000
0001
0000
0010
0000
,  // measure 38
0100
1000
0000
0000
1000
0001
0000
0000
,  // measure 39
1000
0000
0001
0000
0100
0010
1000
0001
,  // measure 40
0020
0032
2003
3020
,  // measure 41
0130
0000
0001
1000
0100
0000
0001
0000
,  // measure 42
2100
0100
3001
0100
,  // measure 43
1002
1000
0013
1000
,  // measure 44
0001
0000
1000
0000
0010
0100
0001
0000
,  // measure 45
1000
0010
0100
0001
,  // measure 46
1001
0110
2002
3003
,  // measure 47
1100
0101
2200
3300
,  // measure 48
2000
3200
0302
0203
,  // measure 49
1300
0000
0010
0100
0010
0000
1000
0000
,  // measure 50
0120
0100
1030
0010
,  // measure 51
0201
0001
0310
0001
,  // measure 52
1000
0000
0001
0100
0001
0000
0010
0000
,  // measure 53
0001
0000
1000
0010
0100
0000
0010
0000
,  // measure 54
1000
0000
0010
0000
0100
0010
1000
0000
,  // measure 55
0001
0010
0001
1000
,  // measure 56
0010
1000
0001
0000
0010
0000
0100
0000
,  // measure 57
1000
0001
0010
0000
0001
0000
0010
0000
,  // measure 58
0100
1000
0100
0000
0001
0000
0100
0000
,  // measure 59
1000
0010
0100
0001
0010
0100
0010
0000
,  // measure 60
0001
1000
0100
0000
1000
0000
0010
0000
,  // measure 61
0100
0010
1000
0000
0001
0000
0010
0000
,  // measure 62
0001
1000
0100
0000
0010
0000
0001
0000
,  // measure 63
0100
0100
0000
0010
0010
0000
1001
2002
,  // measure 64
0000
0000
0000
0000
,  // measure 65
0000
0000
0000
0000
,  // measure 66
3003
0000
0000
0000
;

//---------------dance-single - EXPERT----------------
#NOTES:
     dance-single:
     EXPERT:
     Hard:
     13:
     0.516,0.687,0.079,0.070,0.282: // measure 1
0000
0000
0000
0000
,  // measure 2
0000
0000
0000
0000
,  // measure 3
0000
0000
0000
0000
,  // measure 4
0000
0000
0000
0000
,  // measure 5
0000
0000
0000
0000
,  // measure 6
0000
0000
0000
0000
,  // measure 7
0100
0000
0001
0010
0000
0000
0100
0000
0010
0000
0001
0000
1000
0000
0100
0000
,  // measure 8
0001
0000
0100
1000
0000
0000
0010
0000
0100
0000
0010
0000
1000
0000
0001
0000
,  // measure 9
0010
0000
0001
1000
0000
0000
0010
0000
0100
0000
0001
0000
0100
0000
1000
0000
,  // measure 10
0100
0010
0001
1000
0100
0010
0100
1000
,  // measure 11
0001
0000
0010
0001
0000
0000
1000
0000
0100
0000
1000
0000
0001
0000
0010
0000
,  // measure 12
0001
0000
1000
0100
0000
0000
1000
0000
0001
0000
0010
0000
0001
0000
0100
0000
,  // measure 13
0010
0000
1000
0001
0000
0000
0010
0000
0001
0000
0100
0000
0001
0000
1000
0000
,  // measure 14
0001
1000
0001
1000
0000
0000
0010
0100
0010
0100
0000
0000
0001
0010
0001
0010
,  // measure 15
0001
1000
0000
0100
1000
0100
0000
0010
,  // measure 16
0001
1000
0100
0000
0010
0000
0001
1000
,  // measure 17
0100
0000
1000
0100
0001
0000
0100
1000
,  // measure 18
0010
0000
0010
0100
0010
0000
1000
0000
,  // measure 19
0002
1000
1003
0100
,  // measure 20
0020
0000
0001
0000
0031
0000
1000
0001
,  // measure 21
0010
0000
0100
1000
0100
0000
0010
0000
,  // measure 22
1001
0010
0101
0001
,  // measure 23
0001
0010
0000
1000
0010
0001
0000
0010
,  // measure 24
0100
0001
1000
0000
0010
0000
0100
0010
,  // measure 25
0100
0000
0001
0100
1000
0000
0100
0010
,  // measure 26
0001
0000
0010
0100
0010
0000
0001
0000
,  // measure 27
2000
0010
3010
0100
,  // measure 28
0020
0000
1000
0000
1030
0000
0001
1000
,  // measure 29
0100
0000
0010
0001
1000
0000
0010
0000
,  // measure 30
1001
0000
0000
0011
0000
0000
1001
0000
0000
0110
0000
0000
0101
0000
0001
0000
,  // measure 31
1000
0000
0010
0000
0100
0000
0000
0010
0000
0000
0001
0000
0010
0000
0100
0000
,  // measure 32
0010
0000
0001
0000
1000
0000
0000
0100
0000
0000
1000
0000
0100
0000
0010
0000
,  // measure 33
1000
0000
0000
0100
0000
0000
0010
0000
0001
0000
0000
0000
1100
0000
0000
0000
,  // measure 34
0001
0000
0000
0010
0000
0000
0100
0000
1000
0000
0000
0000
0011
0000
0000
0000
,  // measure 35
0100
0000
0010
0000
1000
0010
0100
0001
,  // measure 36
0010
0000
0100
1000
0100
0000
1000
0010
,  // measure 37
0100
0001
0010
0100
0010
0000
0001
0100
,  // measure 38
0010
1000
0000
0001
1000
0010
0000
0100
,  // measure 39
0001
0000
1000
0000
0001
0000
0100
0000
0001
1000
0001
1000
0001
1000
0001
1000
,  // measure 40
0001
0000
0000
0001
0010
0000
0000
0100
1000
0000
0000
1000
0001
0000
0000
0001
,  // measure 41
0100
0000
0100
0010
1000
0000
0001
0010
,  // measure 42
0100
0000
0001
0010
0100
0000
0010
0001
,  // measure 43
1000
0000
0010
0100
0010
0000
1000
0000
,  // measure 44
0010
0000
0100
0000
0010
0100
0001
0100
,  // measure 45
0010
0000
1000
0010
1000
0000
0001
0100
,  // measure 46
0010
0000
0000
0100
0000
0000
0001
0000
0010
0000
0000
0000
0100
0000
0000
0000
,  // measure 47
0010
0000
0000
0001
0000
0000
1000
0000
0100
0000
0000
1000
0000
0000
0001
0000
,  // measure 48
0010
0000
0000
0001
0100
0000
0000
0100
0010
0000
0000
0010
1000
0000
0000
1000
,  // measure 49
0100
0000
0010
0001
0100
0000
0001
1000
,  // measure 50
0100
0000
0010
0100
1000
0000
0010
0100
,  // measure 51
1000
0000
0001
0010
0001
0000
1000
0000
,  // measure 52
0020
0000
0130
0000
0001
1000
0100
0010
,  // measure 53
0001
1000
0010
1000
,  // measure 54
0002
0000
0013
0000
0001
1000
0100
0001
,  // measure 55
0100
1000
0010
0100
,  // measure 56
0001
0000
1000
0100
0000
0100
1000
0000
0001
0010
0001
0000
0100
0010
0100
0000
,  // measure 57
0010
0000
1000
0100
0000
0010
0001
0000
1000
0100
1000
0000
0010
0100
0010
0000
,  // measure 58
0100
0000
0001
0010
0000
0010
0001
0000
0010
0100
0010
0000
0001
0100
0001
0000
,  // measure 59
1000
0010
0100
0001
0100
1000
0100
0001
,  // measure 60
1000
0000
0001
0010
0000
0010
0001
0000
1000
0010
1000
0000
0010
0100
0010
0000
,  // measure 61
0100
0000
0001
0010
0000
0010
0001
0000
0100
0010
0100
0000
0010
1000
0010
0000
,  // measure 62
0100
0000
0001
0010
0000
0100
1000
0000
0010
0100
0010
0100
0010
0100
0010
0000
,  // measure 63
1000
0001
1000
0001
0000
0000
0010
0100
0010
0100
0000
0000
0010
0001
0020
0002
,  // measure 64
0000
0000
0000
0000
,  // measure 65
0000
0000
0000
0000
,  // measure 66
0033
0000
0000
0000
;

//---------------dance-single - BEGINNER----------------
#NOTES:
     dance-single:
     BEGINNER:
     Beginner:
     1:
     0.109,0.143,0.018,0.070,0.000:
0000
0000
0000
0000
,
0000
0000
0000
0000
,
0000
0000
0000
0000
,
0000
0000
0000
0000
,
0000
0000
0000
0000
,
0000
0000
0000
0000
,
1000
0000
0000
0000
,
0001
0000
0000
0000
,
0010
0000
0000
0000
,
0001
0000
1000
0000
,
0001
0000
0000
0000
,
0100
0000
0000
0000
,
0010
0000
0000
0000
,
1000
0000
0001
0000
,
1000
0000
0010
0000
,
1000
0000
0000
0000
,
0001
0000
0000
0000
,
0010
0000
0000
0000
,
0002
0003
0000
0000
,
2000
3000
0000
0000
,
0001
0000
0000
0000
,
1000
0000
0000
0000
,
0010
0000
0100
0000
,
0010
0000
0000
0000
,
2000
3000
0000
0000
,
0002
0003
0000
0000
,
0020
0030
0000
0000
,
0200
0300
0000
0000
,
1000
0000
0000
0000
,
0001
0000
0000
0000
,
1000
1000
0000
0000
,
0001
0001
0000
0000
,
1000
0000
0000
0000
,
0001
0000
0000
0000
,
1000
1000
0000
0000
,
0001
0001
0000
0000
,
1000
0000
0001
0000
,
1000
0000
0000
0000
,
1001
0000
0000
0000
,
0010
0000
1000
0000
,
0001
0000
0000
0000
,
1000
0000
0000
0000
,
0010
0000
0000
0000
,
1000
1000
0000
0000
,
0001
0000
0000
0000
,
0010
0000
0001
0000
,
0010
0000
0000
0000
,
1000
0000
0001
0000
,
1000
0000
0000
0000
,
0010
0000
0000
0000
,
0100
0000
0000
0000
,
0001
0001
0000
0000
,
1000
0000
0000
0000
,
0010
0010
0000
0000
,
1000
0000
0000
0000
,
0001
0000
0100
0000
,
0001
0000
0000
0000
,
0010
0000
0100
0000
,
0010
0000
0000
0000
,
0100
0000
1000
0000
,
0100
0000
0000
0000
,
0001
0000
1000
0000
,
0001
0000
0000
2002
,
0000
0000
0000
0000
,
0000
0000
0000
0000
,
3003
0000
0000
0000
;
