#TITLE:Dimanche;
#SUBTITLE:;
#ARTIST:Orange Lounge;
#TITLETRANSLIT:;
#SUBTITLETRANSLIT:;
#ARTISTTRANSLIT:;
#CREDIT:;
#BANNER:Dimanche.PNG;
#BACKGROUND:Dimanche-bg.PNG;
#LYRICSPATH:;
#CDTITLE:popnmusic.PNG;
#MUSIC:Dimanche.mp3;
#OFFSET:-1.200;
#SAMPLESTART:36.240;
#SAMPLELENGTH:12.000;
#SELECTABLE:YES;
#BPMS:0.000=164.000;
#STOPS:;
#BGCHANGES:;

//---------------dance-single - EASY----------------
#NOTES:
     dance-single:
     EASY:
     Easy:
     6:
     0.298,0.425,0.205,0.092,0.000:
0000
0000
0000
0000
,
0000
0000
0000
0000
,
0000
0000
0000
0000
,
0000
0000
0000
0000
,
1000
0000
1000
0000
0000
0010
0000
1000
,
0000
0001
0000
0200
0000
0000
0300
0000
,
0010
0000
0010
0000
0000
1000
0000
0001
,
0000
0010
0000
0002
0000
0000
0003
0000
,
0010
0000
0110
0000
0000
0001
0000
1000
,
0000
0001
0000
0020
0000
0000
0030
0000
,
0001
0000
1001
0000
0000
1000
0000
0001
,
0000
0010
0000
0002
0000
0000
0003
0000
,
1000
0000
1010
0000
0000
0001
0000
1000
,
0000
0010
0000
0200
0000
0000
0300
0000
,
0001
0000
0011
0000
0000
1000
0000
0001
,
0000
0100
0000
0020
0000
0000
0030
0000
,
1000
0001
0010
0000
,
0010
0000
0010
0000
,
1000
0000
0001
0000
0000
0100
0000
0010
,
0000
0001
0001
0000
,
1000
0001
0010
0000
,
0010
0000
0010
0000
,
1000
0000
0001
0000
0000
0100
0000
0100
,
0000
0010
0100
0010
,
1000
0000
0001
0000
,
1000
0001
0010
0000
,
0010
0000
0100
0000
,
0010
1000
0001
0000
,
0010
0000
1000
0000
,
0001
0100
0001
0000
,
1000
0000
0010
0000
,
1000
0001
1000
0000
,
0010
0010
0010
0000
,
0100
0100
0100
0000
,
0001
0010
0100
1000
,
0010
0000
0010
0000
,
0001
0001
0001
0000
,
1000
1000
1000
0000
,
0001
0100
0010
1000
,
0001
0000
0001
0000
,
1000
0001
0010
0000
,
0100
0001
1000
0000
,
0001
0100
0001
1000
,
0001
0001
0001
0000
,
0100
0001
1000
0000
,
0100
0010
1000
0000
,
0001
0000
1000
0000
0000
1001
0000
1001
,
0000
0000
0010
0010
,
1000
0000
1000
0000
0000
0001
0000
0001
,
0000
0000
0010
1000
,
0001
0000
0001
0000
0000
0100
0000
0100
,
0000
0000
0001
1000
,
0010
0000
0100
0000
0000
0001
0000
1000
,
0000
0000
1000
0010
,
1000
0000
0001
0000
0000
1000
0000
0002
,
0000
0000
0000
0003
,
1000
0000
1100
0000
0000
0101
0000
0101
,
0000
0000
0010
1000
,
0001
0000
1001
0000
0000
0110
0000
0110
,
0000
0000
0010
1000
,
0010
0000
0110
0000
0000
1001
0000
1001
,
0000
0000
1000
0001
,
0010
0000
0011
0000
0000
1100
0000
2200
,
0000
3300
1001
1001
;

//---------------dance-single - NORMAL----------------
#NOTES:
     dance-single:
     NORMAL:
     Medium:
     8:
     0.459,0.491,0.421,0.072,0.000:
0000
0000
0000
0000
,
0000
0000
0000
0000
,
0000
0000
0000
0000
,
0000
0000
0000
0000
,
0001
0000
1000
0000
0000
0010
1000
0010
,
0000
1000
0000
0001
0000
1000
0010
0000
,
0010
0000
0010
0000
0000
0010
0100
0010
,
0000
0100
0000
0001
0000
1000
0001
0000
,
0001
0000
0011
0000
0000
1000
0001
0010
,
0000
0100
0000
1001
0000
1000
0001
0000
,
0010
0000
1010
0000
0000
1000
0001
0010
,
0000
0001
0000
1001
0000
0001
1000
0000
,
0010
0000
0110
0000
0000
0010
1000
0010
,
0000
1000
0000
0101
0000
0001
0100
0000
,
0010
0000
1010
0000
0000
1000
0001
0010
,
0000
0100
0000
1001
0000
0001
0010
0000
,
0011
0000
0011
0000
0000
1000
0010
1000
,
0000
0001
0000
1000
0000
0001
1000
0000
,
1001
0000
0101
0000
0000
1100
0000
1100
,
0000
0010
1000
0001
0000
1000
0010
0000
,
1010
0000
1010
0000
0000
0001
1000
0010
,
0000
0100
0000
0001
0000
1000
0010
0000
,
1010
0000
1001
0000
0000
0101
0000
0101
,
0000
0010
1000
0001
0010
0001
0010
0000
,
0001
0000
1000
0001
0010
0000
0100
0001
,
1000
0010
0000
1000
0000
0001
1000
0000
,
1000
0000
0001
0000
0001
1000
0010
1000
,
0010
0100
0000
0001
0000
1000
0010
0000
,
1000
0000
0001
1000
0010
0000
1000
0000
,
0001
1000
0000
0001
0000
1000
0010
0000
,
1000
0001
0010
0000
0001
0010
0100
1000
,
0010
1000
0000
0001
0000
1000
0001
0000
,
0100
0000
0000
1000
0001
0000
0000
1000
,
0001
0010
0000
0010
0000
0001
1000
0000
,
0010
0000
1000
0000
0001
0010
0100
1000
,
0010
1000
0000
0001
0000
1000
0010
0000
,
0010
0000
0000
1000
0001
0000
0000
1000
,
0010
1000
0000
0001
0000
1000
0010
0000
,
1000
0000
0000
1000
0001
0100
0010
0100
,
0010
1000
0000
0001
0000
1000
0010
0000
,
0100
0001
1000
0010
,
0100
0001
1000
0010
,
0100
0001
1000
0100
,
0010
0001
1000
0010
,
0100
0001
1000
0100
,
0010
0001
0100
0001
,
1001
0000
1001
0000
0000
0101
0000
0101
,
0000
0000
0000
0000
0010
1000
0001
0000
,
1010
0000
2010
0000
0000
0001
0000
0001
,
0000
0000
0010
3010
,
0101
0000
0102
0000
0000
1000
0000
1000
,
0000
0000
0010
0013
,
0110
0000
0120
0000
0000
1000
0000
1000
,
0000
0000
0100
0130
,
1001
0000
1001
0000
0000
1010
0000
2020
,
0000
0000
0000
3030
,
1000
0000
1001
0000
0000
0001
1000
0010
,
0000
1000
0000
0001
1000
0001
1000
0000
,
0001
0000
0101
0000
0000
1000
0001
0010
,
0000
0001
0000
1000
0010
1000
0010
0000
,
1000
0000
1001
0000
0000
0001
1000
0010
,
0000
1000
0000
0001
0100
0001
1000
0000
,
1000
0000
1010
0000
0000
0011
0000
0022
,
0000
0000
0033
0000
1010
1000
0001
0000
;

//---------------dance-single - HYPER----------------
#NOTES:
     dance-single:
     HYPER:
     Hard:
     10:
     0.560,0.523,0.544,0.051,0.000:
0000
0000
0000
0000
,
0000
0000
0000
0000
,
0000
0000
0000
0000
,
0000
0000
0000
0000
,
1000
0000
1001
0000
0000
0001
1000
0010
,
0000
0100
0001
0010
0100
1000
0010
1000
,
0001
0000
1001
0000
0000
0010
0001
0010
,
0000
0100
0010
0001
1000
0010
0100
0010
,
1000
0000
0011
0000
0000
1001
0000
1001
,
0000
1000
0001
0010
0100
1000
0010
0100
,
0010
0000
1001
0000
0000
0110
0000
0110
,
0000
1000
0001
0010
0100
1000
0010
0100
,
0010
0000
0101
0000
0000
1010
0000
1010
,
0000
0001
1000
0100
1000
0100
0001
0100
,
1000
0000
0011
0000
0000
0101
0000
0101
,
0000
0001
0010
0001
0010
1000
0010
0001
,
1000
0000
1010
0000
0000
0001
1000
0010
,
0000
1001
0000
0012
0000
1000
1003
0000
,
1010
0000
0101
0000
0000
1000
0001
1001
,
0000
0001
1000
0100
1000
0001
0010
0000
,
0011
0000
1001
0000
0000
1000
0001
0010
,
0000
0011
0000
2010
0000
0001
3001
0000
,
0011
0000
1100
0000
0000
0010
0100
0110
,
0000
0010
1000
0100
0010
0001
0010
0000
,
0001
0000
0010
0001
0010
0000
1000
0010
,
1000
0001
0000
0010
1000
0010
0001
1000
,
0100
0010
0100
1000
0001
0010
0001
0100
,
1000
0100
0000
0001
0000
1000
0010
0100
,
0010
1000
0100
0000
0010
0001
1000
0000
,
1000
0010
0100
0001
0010
0100
1000
0010
,
1000
0000
0001
0000
1000
0100
1000
0001
,
0010
0001
0000
0100
0000
0001
1000
0010
,
0100
0000
0001
1000
0100
0000
0001
0100
,
1000
0100
1000
0001
0010
0100
0010
0001
,
0100
0001
1000
0000
0010
1000
0001
1000
,
0100
1000
0000
0001
0000
0100
1000
0100
,
0001
0000
1000
0001
0010
0000
0001
1000
,
0010
0100
0001
0010
0001
1000
0100
1000
,
0100
0000
0010
0001
1000
0010
1000
0001
,
0010
1000
0000
0010
0000
0001
1000
0010
,
1000
0010
0001
0000
0010
0000
1000
0000
,
1000
0100
0010
0000
0001
0000
1000
0000
,
0100
0010
0001
0000
1000
0000
0001
0000
,
1000
0010
0100
0000
0001
0000
1000
0000
,
0010
0100
0001
0000
0010
0000
1000
0000
,
0010
0001
1000
0000
0100
0000
1000
0000
,
1100
0000
0101
0000
0000
0011
0000
1010
,
0000
1001
0000
1000
0100
0010
0001
0000
,
1010
0000
0101
0000
0000
0011
0000
1100
,
0000
1000
0000
0001
1000
0100
0010
0000
,
1001
0000
1100
0000
0000
1100
0000
1001
,
0000
0001
0000
1000
0100
0001
0100
0000
,
1001
0000
0101
0000
0000
0101
0000
1001
,
0000
0001
0000
1000
0001
0010
0001
0000
,
1010
0000
0101
0000
0000
0101
0000
2020
,
0000
0000
0000
3030
,
1000
0010
1010
0000
0000
0001
1000
0100
,
0000
0001
0000
0100
0000
1000
0010
0000
,
0100
0010
0110
0000
0000
1000
0001
0010
,
0000
0001
0000
1000
0000
0100
1000
0000
,
0001
0010
0011
0000
0000
0001
1000
0100
,
0000
0010
0000
0100
0000
1000
0010
0000
,
0100
0001
0101
0000
0000
1000
0100
0020
,
0000
0000
0000
0000
0031
1000
1001
0000
;

//---------------dance-single - BEGINNER----------------
#NOTES:
     dance-single:
     BEGINNER:
     Beginner:
     2:
     0.142,0.196,0.010,0.072,0.000:
0000
0000
0000
0000
,
0000
0000
0000
0000
,
0000
0000
0000
0000
,
0000
0000
0000
0000
,
1000
0000
0000
1000
,
0000
1000
0000
0000
,
0010
0000
0000
0010
,
0000
0010
0000
0000
,
0100
0000
0000
0100
,
0000
0100
0000
0000
,
0010
0000
0000
0010
,
0000
0010
0000
0000
,
0001
0000
0000
0001
,
0000
0001
0000
0000
,
1000
0000
0000
1000
,
0000
1000
0000
0000
,
0001
0000
0000
0000
,
1000
0000
0000
0000
,
0001
0000
0000
0000
,
1000
0000
0000
0000
,
0010
0000
0000
0000
,
0100
0000
0000
0000
,
0010
0000
0000
0000
,
0100
0000
0000
0000
,
0001
0000
1000
0000
,
0001
0000
1000
0000
,
0001
0000
1000
1000
,
1000
0000
0000
0000
,
0010
0000
0100
0000
,
0010
0000
0100
0000
,
0010
0000
0100
0100
,
0100
0000
0000
0000
,
0001
0000
0100
0000
,
0010
0000
1000
0000
,
0001
0000
1000
1000
,
1000
0000
0000
0000
,
0100
0000
1000
0000
,
0001
0000
0010
0000
,
0001
0000
0100
0100
,
0100
0000
0000
0000
,
0002
0000
0003
0000
,
2000
0000
3000
0000
,
0020
0000
0030
0000
,
0200
0000
0300
0000
,
0002
0000
0003
0000
,
2000
0000
3000
0000
,
0020
0000
0000
0000
,
0030
0000
0000
0000
,
1000
0000
0000
0000
,
0000
0000
0001
0000
,
0001
0000
0000
0000
,
0000
0000
1000
0000
,
1000
0000
0000
0000
,
0000
0000
0010
0000
,
0010
0000
0000
0000
,
0000
0000
0000
0000
,
0100
0000
0001
0000
,
1000
0000
0001
0000
,
1000
0000
1000
0000
,
0001
0000
0001
0000
,
0100
0000
0100
0000
,
0010
0000
0010
0000
,
0001
0000
0001
0000
,
1000
0000
1000
1001
;

//---------------dance-double - EXPERT----------------
#NOTES:
     dance-double:
     EXPERT:
     Hard:
     10:
     0.513,0.523,0.565,0.031,0.000:
00000000
00000000
00000000
00000000
,
00000000
00000000
00000000
00000000
,
00000000
00000000
00000000
00000000
,
00000000
00000000
00000000
00000000
,
00001100
00000000
00001100
00000000
00000000
00000011
00000000
00001001
,
00000000
00001100
00000000
00001000
00000100
00010000
00001000
00000000
,
00101000
00000000
00101000
00000000
00000000
01010000
00000000
10010000
,
00000000
11000000
00000000
10000000
01000000
00010000
00001000
00000000
,
00000010
00000001
00000010
00000000
00000001
00001000
00000100
00010000
,
00000000
00010100
00000000
00010000
00000100
00010000
00001000
00000000
,
00001000
00100000
00010000
00000000
10000000
01000000
00010000
00000100
,
00000000
00000110
00000000
00000010
00000001
00001000
00000100
00000000
,
00001000
00000100
00001100
00000000
00001000
00000100
00010000
00000000
,
00011000
00000000
00001000
00100000
00010000
01000000
00100000
00000000
,
10000000
00010000
10010000
00000000
10000000
00100000
01000000
00000000
,
00010000
00000000
00110000
00000000
00010000
10000000
01000000
00010000
,
00001000
00000000
00000011
00000000
00000000
00000101
00000000
00000110
,
00000000
00000101
00000000
00000011
00000000
00000001
00001000
00000000
,
00001100
00000000
00010100
00000000
00000000
00011000
00000000
00010100
,
00000000
00010000
00000000
00001000
00000000
00100000
00010000
00000000
,
11000000
00000000
01010000
00000000
00000000
00110000
00000000
11000000
,
00000000
00110000
00000000
10010000
00000000
01000000
00010000
00000000
,
00110000
00000000
00101000
00000000
00000000
00011000
00000000
00010100
,
00000000
00000100
00000000
00000010
00000100
00000001
00000010
00000000
,
00000001
00000000
00000001
00000100
00001000
00000000
00010000
00100000
,
10000000
00100000
00000000
00010000
00000000
10000000
01000000
00000000
,
00010000
00000000
01000000
00000000
10000000
01000000
00010000
00001000
,
00000010
00000001
00000000
00001000
00000000
00000010
00000100
00000000
,
00000001
00000000
00000100
00001000
00010000
00000000
00100000
10000000
,
00010000
10000000
00000000
00010000
00000000
00100000
00001000
00000000
,
00010000
00000000
00001000
00000000
00010000
00000010
00000100
00000010
,
00001000
00000001
00000000
00000001
00000000
00000010
00000001
00000000
,
00000001
00000010
00001000
00000000
00000010
00000001
00001000
00000000
,
00000100
00010000
00000000
00001000
00000000
00100000
00010000
10000000
,
00100000
01000000
00100000
10000000
,
00010000
00100000
00000000
00001000
00000000
00010000
00001000
00000000
,
00010000
00000010
00000100
00000000
00000100
00000010
00001000
00000000
,
00000001
00000010
00000000
00000001
00000000
00001000
00000100
00000000
,
00001000
00000000
00000100
00000000
00010000
00001000
00100000
00010000
,
10000000
00100000
00000000
01000000
00000000
00010000
10000000
00000000
,
00010000
00100000
00001000
00000000
00010000
00000000
00000100
00000000
,
00001000
00000001
00000010
00000000
00000100
00000000
00001000
00000000
,
00000001
00000000
00000100
00000000
00000010
00001000
00000000
00000001
,
00000000
00000010
00000000
00000001
00000000
00001000
00000100
00000000
,
00010000
00001000
01000000
00000000
00100000
00000000
10000000
00000000
,
00010000
00100000
00001000
00000000
00010000
00000000
00000100
00000000
,
00001001
00000000
00001001
00000000
00000000
00000011
00000000
00001001
,
00000000
00001000
00000000
00000010
00000000
00001000
00000100
00000000
,
00010100
00000000
00011000
00000000
00000000
00100000
00000000
00010000
,
00000000
01000000
00000000
00010000
00000000
10000000
01000000
00000000
,
11000000
00000000
10100000
00000000
00000000
01010000
00000000
01010000
,
00000000
00010000
00000000
00100000
00000000
00001000
00010000
00000000
,
00010100
00000000
00001100
00000000
00000000
00000011
00000000
00001001
,
00000000
00001000
00000000
00000001
00000000
00000010
00000001
00000000
,
00001100
00000000
00001001
00000000
00000000
00000011
00000000
00002002
,
00000000
00000000
00000000
00003003
,
00000001
00001000
00000100
00000000
00010000
00001000
00100000
00000000
,
00010000
10000000
00000000
00100000
00000000
01000000
00010000
00000000
,
00010000
10000000
01000000
00000000
00010000
00001000
00000010
00000000
,
00000001
00001000
00000000
00000100
00000000
00001000
00000001
00000000
,
00000001
00000100
00001000
00000000
00010000
00100000
10000000
00000000
,
00010000
01000000
00000000
00001000
00000000
00010000
00000100
00000000
,
00001000
00000001
00000010
00000000
00000000
00000011
00000000
00001200
,
00000000
00000000
00000000
00000000
00001000
00001000
00001300
00000000
;

//---------------dance-double - DIFFICULT----------------
#NOTES:
     dance-double:
     DIFFICULT:
     Medium:
     8:
     0.452,0.491,0.472,0.092,0.000: // measure 1
00000000
00000000
00000000
00000000
,  // measure 2
00000000
00000000
00000000
00000000
,  // measure 3
00000000
00000000
00000000
00000000
,  // measure 4
00000000
00000000
00000000
00000000
,  // measure 5
10000000
00000000
00110000
00000000
00000000
00110000
00000000
00101000
,  // measure 6
00000000
00011000
00000000
00001000
00010000
00000000
00000100
00000000
,  // measure 7
00001000
00000000
00001100
00000000
00000000
00000011
00000000
00001001
,  // measure 8
00000000
00001100
00000000
00000100
00010000
00001000
00100000
00000000
,  // measure 9
00101000
00000000
00110000
00000000
00000000
01000000
00010000
01000000
,  // measure 10
00000000
00100000
00000000
10000000
01000000
00000000
00010000
00000000
,  // measure 11
11000000
00000000
10010000
00000000
00000000
00010000
00100000
00001000
,  // measure 12
00000000
00100000
00000000
00010000
10000000
00000000
01000000
00000000
,  // measure 13
00010000
00000000
00011000
00000000
00000000
00000010
00000001
00001000
,  // measure 14
00000000
00001000
00000000
00000010
00000100
00000000
00000001
00000000
,  // measure 15
00000100
00000000
00000011
00000000
00000000
00000001
00001000
00000100
,  // measure 16
00000000
00010000
00000000
00001000
00100000
00000000
00010000
00000000
,  // measure 17
10010000
00000000
10010000
00000000
00000000
00010000
00000000
10000000
,  // measure 18
00000000
01000000
00000000
10000000
00000000
00010000
00100000
00000000
,  // measure 19
00011000
00000000
00010100
00000000
00000000
00001100
00000000
00001001
,  // measure 20
00000000
00000001
00000000
00000010
00000000
00000001
00001000
00000000
,  // measure 21
00001100
00000000
00001100
00000000
00000000
00000001
00000000
00001000
,  // measure 22
00000000
00000100
00000000
00010000
00000000
00001000
00100000
00000000
,  // measure 23
00101000
00000000
00110000
00000000
00000000
00010000
00000000
10000000
,  // measure 24
00000000
00100000
00000000
01000000
00010000
01000000
00010000
00000000
,  // measure 25
10000000
00000000
00010000
00100000
00001000
00000000
00001000
00010000
,  // measure 26
00000010
00000100
00000000
00000001
00000000
00000010
00000001
00000000
,  // measure 27
00001000
00000000
00000100
00000000
00000010
00000001
00001000
00000000
,  // measure 28
00001000
00000100
00000000
00010000
00000000
00001000
00100000
00000000
,  // measure 29
00010000
00000000
01000000
00100000
10000000
00000000
00010000
00100000
,  // measure 30
00001000
00010000
00000000
00000100
00000000
00001000
00000010
00000000
,  // measure 31
00000100
00000000
00000100
00000000
00000001
00000010
00000001
00000000
,  // measure 32
00001000
00000001
00000010
00000100
,  // measure 33
00001000
00000100
00010000
00000000
00001000
00000000
00100000
00000000
,  // measure 34
00010000
00000000
10000000
01000000
00010000
00000000
00001000
00000000
,  // measure 35
00000010
00000001
00000010
00000001
,  // measure 36
00001000
00000010
00000000
00000100
00000000
00000001
00001000
00000000
,  // measure 37
00000010
00000100
00000001
00000000
00001000
00000000
00000100
00000000
,  // measure 38
00001000
00000000
00000001
00000100
00001000
00000000
00010000
00000000
,  // measure 39
00100000
10000000
00010000
00100000
,  // measure 40
00010000
10000000
00000000
00010000
00000000
00100000
00010000
00000000
,  // measure 41
10000000
00000000
10000000
00000000
01000000
00010000
01000000
00000000
,  // measure 42
10000000
00000000
00010000
00000000
00100000
00001000
00100000
00000000
,  // measure 43
00001000
00000000
00010000
00000000
00000010
00000100
00000010
00000000
,  // measure 44
00000100
00000000
00000001
00000000
00000010
00000001
00001000
00000000
,  // measure 45
00000010
00000100
00000001
00000010
,  // measure 46
00000001
00000000
00001000
00000000
00000100
00001000
00000100
00000000
,  // measure 47
00010100
00000000
00010100
00000000
00000000
00001100
00000000
00001100
,  // measure 48
00000000
00000100
00000000
00010000
00001000
00000000
01000000
00000000
,  // measure 49
10100000
00000000
10100000
00000000
00000000
00110000
00000000
00220000
,  // measure 50
00000000
00330000
00000000
00000000
,  // measure 51
00001100
00000000
00001100
00000000
00000000
00000011
00000000
00000022
,  // measure 52
00000000
00000033
00000000
00000000
,  // measure 53
00001001
00000000
00001001
00000000
00000000
00011000
00000000
00022000
,  // measure 54
00000000
00033000
00000000
00000000
,  // measure 55
10010000
00000000
10010000
00000000
00000000
00011000
00000000
00022000
,  // measure 56
00000000
00000000
00000000
00033000
,  // measure 57
00010000
00000100
00001000
00000000
00000000
00000010
00000000
00000100
,  // measure 58
00000000
00000001
00000000
00001000
00000000
00000001
00001000
00000000
,  // measure 59
00000010
00000001
00001000
00000000
00000000
00000100
00000000
00010000
,  // measure 60
00000000
00001000
00000000
00100000
00000000
00010000
10000000
00000000
,  // measure 61
00010000
00100000
00001000
00000000
00000000
00010000
00000000
00000100
,  // measure 62
00000000
00001000
00000000
00000001
00000000
00000010
00000001
00000000
,  // measure 63
00001000
00000100
00010000
00000000
00000000
00101000
00000000
00210000
,  // measure 64
00000000
00000000
00000000
00000000
00010000
00010000
00310000
00000000
;

//---------------dance-double - BASIC----------------
#NOTES:
     dance-double:
     BASIC:
     Easy:
     6:
     0.306,0.393,0.349,0.082,0.000: // measure 1
00000000
00000000
00000000
00000000
,  // measure 2
00000000
00000000
00000000
00000000
,  // measure 3
00000000
00000000
00000000
00000000
,  // measure 4
00000000
00000000
00000000
00000000
,  // measure 5
00000001
00001000
00000010
00000000
,  // measure 6
00001000
00000000
00000100
00000000
,  // measure 7
00100000
00010000
10000000
00000000
,  // measure 8
10000000
00000000
00010000
00000000
,  // measure 9
00010000
00000100
00001000
00000010
,  // measure 10
00000100
00000010
00001000
00000000
,  // measure 11
00001000
00000100
00010000
00001000
,  // measure 12
00100000
00010000
01000000
00000000
,  // measure 13
00010000
00100000
00010000
10000000
,  // measure 14
01000000
00010000
00001000
00000000
,  // measure 15
00000010
00000001
00000100
00000010
,  // measure 16
00001000
00000100
00010000
00000000
,  // measure 17
10010000
10010000
01010000
00000000
,  // measure 18
00010000
00000000
00100000
00000000
,  // measure 19
00011000
00000000
00011000
00000000
00000000
00001100
00000000
00002200
,  // measure 20
00000000
00000000
00003300
00000000
,  // measure 21
00001010
00001010
00001001
00000000
,  // measure 22
00000001
00000000
00001000
00000000
,  // measure 23
00001100
00000000
00001100
00000000
00000000
00010100
00000000
00020200
,  // measure 24
00000000
00000000
00030300
00000000
,  // measure 25
00010000
00000000
00001000
00000000
,  // measure 26
00100000
00010000
10000000
00000000
,  // measure 27
01000000
00010000
01000000
10000000
,  // measure 28
00010000
00100000
00001000
00000000
,  // measure 29
00010000
00000000
00000100
00000000
,  // measure 30
00001000
00000010
00000100
00000000
,  // measure 31
00000001
00000100
00001000
00010000
,  // measure 32
00100000
10000000
00100000
00000000
,  // measure 33
00010000
00000000
10000000
00000000
,  // measure 34
00010000
00100000
00001000
00000000
,  // measure 35
00010000
00000100
00001000
00000010
,  // measure 36
00000100
00000001
00000010
00000000
,  // measure 37
00000001
00000000
00001000
00000000
,  // measure 38
00000100
00001000
00000100
00000000
,  // measure 39
00010000
00001000
00100000
00010000
,  // measure 40
01000000
00100000
10000000
00000000
,  // measure 41
00010000
10000000
01000000
00000000
,  // measure 42
00010000
00001000
00000010
00000000
,  // measure 43
00000001
00000000
00001000
00000000
,  // measure 44
00000010
00000100
00000010
00001000
,  // measure 45
00000100
00010000
00001000
00000000
,  // measure 46
00100000
00010000
10000000
00010000
,  // measure 47
10010000
00000000
10010000
00000000
00000000
00110000
00000000
00220000
,  // measure 48
00000000
00000000
00330000
00000000
,  // measure 49
10000000
00000000
00010000
00000000
00000000
00010000
00000000
10000000
,  // measure 50
00000000
00000000
00010000
00000000
,  // measure 51
00100000
00000000
00001000
00000000
00000000
00001000
00000000
00010000
,  // measure 52
00000000
00000000
00000100
00000000
,  // measure 53
00001000
00000000
00000001
00000000
00000000
00000001
00000000
00000010
,  // measure 54
00000000
00000000
00000001
00000000
,  // measure 55
00001000
00000000
00000001
00000000
00000000
00000001
00000000
00002000
,  // measure 56
00000000
00000000
00000000
00003000
,  // measure 57
00001010
00000000
00001010
00000000
00000000
00010100
00000000
00010100
,  // measure 58
00000000
00000000
00000100
00000000
,  // measure 59
00101000
00000000
00101000
00000000
00000000
00110000
00000000
00110000
,  // measure 60
00000000
00000000
00010000
00000000
,  // measure 61
11000000
00000000
11000000
00000000
00000000
00110000
00000000
00110000
,  // measure 62
00000000
00000000
00001000
00000000
,  // measure 63
00001100
00000000
00001100
00000000
00000000
00000101
00000000
00000102
,  // measure 64
00000000
00000000
00001000
00001003
;
