#TITLE:ABSOLUTE;
#SUBTITLE:;
#ARTIST:dj TAKA f/ good-cool;
#TITLETRANSLIT:;
#SUBTITLETRANSLIT:;
#ARTISTTRANSLIT:;
#CREDIT:;
#BANNER:ABSOLUTE (ROCK GUITAR)-jacket.PNG;
#BACKGROUND:ABSOLUTE (ROCK GUITAR)-bg.PNG;
#LYRICSPATH:;
#CDTITLE:Pop'n Music.PNG;
#MUSIC:ABSOLUTE (ROCK GUITAR).mp3;
#OFFSET:0.620;
#SAMPLESTART:19.340;
#SAMPLELENGTH:12.000;
#SELECTABLE:YES;
#BPMS:0.000=144.000,270.000=133.630,271.000=120.480,272.000=114.070,272.500=110.700,273.000=89.550,273.500=87.720,274.000=85.470,275.000=70.590,275.500=50.180;
#STOPS:;
#BGCHANGES:;

//---------------dance-single - EASY----------------
#NOTES:
     dance-single:
     EASY:
     Easy:
     5:
     0.212,0.353,0.138,0.168,0.000: // measure 1
0000
0000
0000
0000
,  // measure 2
0000
0000
0000
0000
,  // measure 3
0000
0000
0000
0000
,  // measure 4
0000
0000
0000
0000
,  // measure 5
0000
0000
0000
0000
,  // measure 6
0000
0000
0000
0000
,  // measure 7
0000
0000
0000
0000
,  // measure 8
0000
0000
0000
0000
,  // measure 9
0000
0000
0000
0000
,  // measure 10
0000
0000
0000
0000
,  // measure 11
0000
0000
0000
0000
,  // measure 12
0000
0000
0000
0000
,  // measure 13
1000
0010
0100
0001
,  // measure 14
0200
0000
0000
0300
,  // measure 15
0010
1000
0010
0100
,  // measure 16
0002
0000
0000
0003
,  // measure 17
1000
0100
0010
0001
,  // measure 18
0200
0000
0000
0300
,  // measure 19
0001
0010
0100
1000
,  // measure 20
0002
0000
0000
0003
,  // measure 21
1000
0000
0001
0000
,  // measure 22
1000
0100
0010
0001
,  // measure 23
0100
0000
0010
0000
,  // measure 24
0100
0010
1000
0001
,  // measure 25
0100
0000
0001
0000
,  // measure 26
1000
0100
0010
0001
,  // measure 27
0100
0000
0001
0000
,  // measure 28
0001
1000
0010
0000
,  // measure 29
2002
0000
0000
3003
,  // measure 30
1000
0000
0011
0000
,  // measure 31
1000
0010
1000
0010
,  // measure 32
0001
0000
1100
0000
,  // measure 33
0001
0010
1000
0010
,  // measure 34
0001
0000
0101
0000
,  // measure 35
1000
0100
0010
0100
,  // measure 36
1000
0000
1100
0000
,  // measure 37
1001
1001
1001
1001
,  // measure 38
2002
0000
0000
3003
,  // measure 39
1000
0001
0010
0000
,  // measure 40
0100
0010
0001
0000
,  // measure 41
0100
0010
1000
0000
,  // measure 42
0100
0001
0100
0000
,  // measure 43
2000
0000
3000
0000
,  // measure 44
0020
0000
0030
0000
,  // measure 45
2000
0000
3000
0000
,  // measure 46
0001
0000
0010
0100
,  // measure 47
2000
0000
3000
0010
,  // measure 48
1000
0001
0010
0100
,  // measure 49
2000
0000
3000
0010
,  // measure 50
0010
0100
0010
1000
,  // measure 51
0002
0000
0003
0000
,  // measure 52
0000
1000
0100
1000
,  // measure 53
0020
0000
0030
0010
,  // measure 54
1000
0001
0010
1000
,  // measure 55
0010
0001
1000
1010
,  // measure 56
0100
0001
0100
0110
,  // measure 57
0010
1000
0001
1001
,  // measure 58
0100
0001
1000
1100
,  // measure 59
0001
0100
0001
0011
,  // measure 60
1000
0010
0100
0100
,  // measure 61
0200
0000
0300
0010
,  // measure 62
0020
0000
0000
0030
,  // measure 63
1000
0100
1000
0100
,  // measure 64
0020
0000
0000
0030
,  // measure 65
0001
1000
0010
0100
,  // measure 66
0002
0000
0000
0003
,  // measure 67
1000
0010
0100
0001
,  // measure 68
0200
0000
0000
0300
,  // measure 69
1001
0000
0110
0000
,  // measure 70
2002
0000
0000
0000
,  // measure 71
0000
0000
0000
0000
,  // measure 72
3003
0000
0000
0000
;

//---------------dance-single - NORMAL----------------
#NOTES:
     dance-single:
     NORMAL:
     Medium:
     8:
     0.395,0.434,0.138,0.642,0.000:
0000
0000
0000
0000
,
0000
0000
0000
0000
,
0000
0000
0000
0000
,
0000
0000
0000
0000
,
0000
0000
0000
0000
,
0000
0000
0000
0000
,
0000
0000
0000
0000
,
0000
0000
0000
0000
,
0000
0000
0000
0000
,
0000
0000
0000
0000
,
0000
0000
0000
0000
,
0000
0000
0000
0000
,
1000
0001
2000
0000
3020
0000
0130
0000
,
0022
0000
0000
0033
,
0100
0001
0200
0000
0320
0000
1030
0000
,
2020
0000
0000
3030
,
0100
0001
0200
0000
0320
0000
1030
0000
,
2020
0000
0000
3030
,
0001
0100
0020
0000
0230
0000
0301
0000
,
2002
0000
0000
3003
,
2000
3001
0002
0103
,
0200
0001
0010
0301
,
2000
3100
0020
0130
,
0002
1000
0010
1003
,
2000
3010
0020
1030
,
0020
0100
1000
0130
,
0200
0310
0020
1030
,
2000
0001
0010
3001
,
1000
0001
1000
0001
0100
0010
0100
0000
,
2010
3010
0012
0013
,
1000
0010
1000
0000
0010
0100
0010
0000
,
0102
0103
2100
3100
,
0001
0100
0001
0000
0100
0010
0100
0000
,
1002
0103
2010
3100
,
1000
0010
0010
0000
0100
0001
0001
0000
,
2100
3001
0012
1003
,
1010
0101
0011
1100
,
1002
0000
0000
0000
0000
1000
1003
0000
,
0001
0000
1000
0000
0010
1000
0001
0000
,
0100
0000
0010
0000
0100
0001
1000
0000
,
0010
0000
1000
0000
0010
0100
0001
0000
,
1000
0000
0010
0000
0100
0001
1000
0000
,
0020
0000
1030
0000
0010
0100
0010
0000
,
0200
0000
0301
0000
1000
0010
1000
0000
,
0002
0000
0103
0000
0010
0100
0010
0000
,
0200
0000
0310
0000
0010
1000
0010
0100
,
0002
0000
1003
0000
0010
0100
0020
0000
,
2030
3002
0203
0302
,
2003
0000
3010
0000
0100
0001
0100
0000
,
0020
2030
3002
0203
,
0320
0000
1030
0000
0001
0100
0001
0000
,
2000
3002
0203
0320
,
2030
0000
3001
0000
0100
0010
1000
0000
,
0002
0000
0103
0000
0010
1000
0010
0100
,
0002
0000
1003
0000
0010
1000
0020
0000
,
0230
0320
2030
3002
,
0203
0000
0310
0000
1000
0001
0100
0000
,
0020
0230
0302
2003
,
3020
0000
0130
0000
0010
1000
0001
0000
,
0200
0302
2003
3002
,
0203
0000
0301
0000
1000
0001
0100
0010
,
1000
0100
0010
0001
1000
0010
1000
0000
,
0001
1000
0020
0000
0130
0001
1000
0010
,
0200
0001
0010
0301
,
1000
0010
0200
0000
0310
1000
0001
0100
,
0002
1000
0010
1003
,
0001
1000
0020
0000
1030
0001
0100
0001
,
0200
0000
0000
0300
,
1000
0010
1000
0000
0001
0100
0001
0000
,
0022
0000
0000
0000
,
0000
0000
0000
0000
,
0033
0000
0000
0000
;

//---------------dance-single - HYPER----------------
#NOTES:
     dance-single:
     HYPER:
     Hard:
     11:
     0.422,0.489,0.115,0.046,0.119:
0000
0000
0000
0000
,
0000
0000
0000
0000
,
0000
0000
0000
0000
,
0000
0000
0000
0000
,
0000
0000
0000
0000
,
0000
0000
0000
0000
,
0000
0000
0000
0000
,
0000
0000
0000
0000
,
0000
0000
0000
0000
,
0000
0000
0000
0000
,
0000
0000
0000
0000
,
0000
0000
0000
0000
,
1000
0000
0001
0010
0001
0000
1000
0000
0010
0000
0000
0000
1000
0000
0100
0000
,
0001
0100
1000
0001
,
1000
0000
0010
0100
0010
0000
1000
0000
0100
0000
0000
0000
0001
0000
0100
0000
,
1000
0010
0100
0001
,
1000
0000
0010
0100
0001
0000
0010
0000
0100
0000
0000
0000
1000
0000
0100
0000
,
0010
0100
1000
0001
,
0100
0000
0010
0100
0001
0000
0100
0000
0001
0000
0000
0000
0001
0000
0010
0000
,
0100
0001
1000
0010
,
1000
0000
0000
0010
0000
0000
0100
0000
0010
0000
0000
0010
0000
0000
0100
0000
,
0001
1000
0010
0000
0100
0010
0100
0000
,
0001
0000
0000
0010
0000
0000
0100
0000
1000
0000
0000
0001
0000
0000
0010
0000
,
1000
0010
0001
1000
0010
0100
0001
0000
,
1000
0000
0000
0001
0000
0000
0100
0000
0010
0000
0000
1000
0000
0000
0100
0000
,
0010
0100
1000
0000
0001
0100
0001
0000
,
1000
0000
0000
0010
0000
0000
0100
0000
0001
0000
0000
1000
0000
0000
0010
0000
,
0100
0000
0010
0000
1000
0010
0000
1000
0000
0000
0001
0000
1000
0000
0000
0000
,
2002
0000
0000
3003
,
1000
0000
0010
1000
0000
0000
1000
0000
0010
0000
0100
0001
0000
0000
0010
0000
,
0001
1000
0100
0000
0010
0100
1000
0000
,
0010
0000
1000
0100
0000
0000
0010
0000
0001
0000
1000
0010
0000
0000
0100
0000
,
0010
1000
1000
0000
0001
0010
0010
0000
,
0100
0000
1000
0010
0000
0000
0100
0000
0001
0000
1000
0100
0000
0000
1000
0000
,
1000
0100
0001
0000
0001
0100
1000
0000
,
1000
0000
0001
0100
0000
0000
0010
0000
0100
0000
0010
1000
0000
0000
0001
0000
,
1000
0001
1000
0001
1000
0001
1000
0001
1000
0001
1000
0001
1000
0000
0000
0000
,
2002
0000
0000
3003
,
1000
1100
0001
0011
,
1000
0100
0001
0000
0001
0100
1000
0000
,
0010
1100
0100
0011
,
0100
0010
1000
0000
1000
0010
0100
0000
,
0001
1100
0001
1100
,
0001
0100
1000
0000
0001
0100
1000
0000
,
0010
1100
0010
0101
,
1000
0100
0001
0000
1000
0010
0001
0000
,
0001
1000
0010
1000
0010
0100
0001
0000
,
1000
0010
0100
0001
1000
0100
0010
0000
,
0010
0001
0100
0010
1000
0001
0010
0000
,
0010
0001
1000
0010
0100
0010
1000
0000
,
0001
0100
0010
1000
0001
0100
0010
0000
,
1000
0100
0001
0100
1000
0001
0100
0000
,
1000
0100
0001
0100
1000
0001
0010
0000
,
0100
0010
0001
1000
0100
0001
0100
1000
,
0001
0100
1000
0100
0001
1000
0010
1000
,
0001
0010
0100
0010
0001
0100
1000
0100
,
0001
0100
0010
1000
0001
1000
0001
0010
,
0100
0010
0001
0100
1000
0100
0001
0010
,
1000
0010
0001
1000
0010
0100
0010
0100
,
0001
1000
0100
0010
0100
1000
0001
0010
,
0001
1000
0010
0100
0010
1000
0010
0000
,
1010
0101
1100
0011
,
1000
0000
0010
0100
0010
0000
1000
0000
0010
0000
0100
0000
0001
0000
1000
0000
,
0010
1000
0010
0100
,
0001
0000
1000
0010
1000
0000
0100
0000
0010
0000
0001
0000
1000
0000
0010
0000
,
1000
0100
0010
0001
,
1000
0000
0010
0100
0010
0000
1000
0000
0010
0000
0100
0000
0001
0000
0010
0000
,
0100
1000
0010
1000
,
1000
0100
0001
0000
0010
1000
0001
0000
,
2002
0000
0000
0000
,
0000
0000
0000
0000
,
3003
0000
0000
0000
;

//---------------dance-single - BEGINNER----------------
#NOTES:
     dance-single:
     BEGINNER:
     Beginner:
     1:
     0.104,0.136,0.031,0.038,0.000:
0000
0000
0000
0000
,
0000
0000
0000
0000
,
0000
0000
0000
0000
,
0000
0000
0000
0000
,
0000
0000
0000
0000
,
0000
0000
0000
0000
,
0000
0000
0000
0000
,
0000
0000
0000
0000
,
0000
0000
0000
0000
,
0000
0000
0000
0000
,
0000
0000
0000
0000
,
0000
0000
0000
0000
,
1000
0000
0001
0000
,
1000
0000
0000
0000
,
0010
0000
1000
0000
,
0001
0000
0000
0000
,
0100
0000
1000
0000
,
0100
0000
0000
0000
,
0001
0000
0010
0000
,
0001
0000
0000
0000
,
1000
0000
0001
0000
,
1000
0000
0000
0000
,
0100
0000
0010
0000
,
0100
0000
0000
0000
,
0100
0000
0001
0000
,
0100
0000
0000
0000
,
0100
0000
0001
0000
,
1000
0000
0000
0000
,
1001
0000
0000
0000
,
1000
0000
0001
0000
,
1000
0000
0000
0000
,
0001
0000
1000
0000
,
0001
0000
0000
0000
,
1000
0000
0001
0000
,
1000
0000
0000
0000
,
0010
0000
1000
0000
,
1001
0000
0000
0000
,
1001
0000
0000
0000
,
1000
1000
0000
0000
,
0001
0001
0000
0000
,
1000
1000
0000
0000
,
0001
0001
0000
0000
,
1000
1000
0000
0000
,
0001
0001
0000
0000
,
1000
1000
0000
0000
,
0001
0001
0000
0000
,
0100
0100
0000
0000
,
0010
0010
0000
0000
,
0100
0100
0000
0000
,
0010
0010
0000
0000
,
1000
0000
0000
0000
,
0001
0000
0000
0000
,
1000
0000
0000
0000
,
1000
0000
0000
0000
,
0001
0000
0000
0000
,
1000
0000
0000
0000
,
0001
0000
0000
0000
,
0001
0000
0000
0000
,
1000
0000
0000
0000
,
1000
0000
0000
0000
,
0001
0000
0000
0000
,
0010
0000
0000
0000
,
1000
0000
0010
0000
,
0200
0300
0000
0000
,
0001
0000
0100
0000
,
0002
0003
0000
0000
,
1000
0000
0001
0000
,
2000
3000
0000
0000
,
1000
0000
0001
0000
,
2002
0000
0000
0000
,
0000
0000
0000
0000
,
3003
0000
0000
0000
;

//---------------dance-double - EASY----------------
#NOTES:
     dance-double:
     EASY:
     Easy:
     6:
     0.237,0.353,0.099,0.199,0.000:
00000000
00000000
00000000
00000000
,
00000000
00000000
00000000
00000000
,
00000000
00000000
00000000
00000000
,
00000000
00000000
00000000
00000000
,
00000000
00000000
00000000
00000000
,
00000000
00000000
00000000
00000000
,
00000000
00000000
00000000
00000000
,
00000000
00000000
00000000
00000000
,
00000000
00000000
00000000
00000000
,
00000000
00000000
00000000
00000000
,
00000000
00000000
00000000
00000000
,
00000000
00000000
00000000
00000000
,
10000000
00000000
00010000
00000000
,
00001000
00000001
00001000
00000001
,
00001000
00000000
00000100
00000000
,
00010000
00001000
00010000
00001000
,
01000000
00000000
00100000
00000000
,
10000000
01000000
00100000
00010000
,
00100000
00000000
00001000
00000000
,
00020000
00000000
00000000
00030000
,
00002000
00003000
00020000
00030000
,
00000010
00001000
00000001
00000000
,
00000002
00000003
00000200
00000300
,
00001000
00010000
00001000
00000000
,
00200000
00300000
02000000
03000000
,
10000000
01000000
00010000
00001000
,
00000020
00000030
00000002
00000003
,
00001001
00001001
00001001
00000000
,
00000220
00000000
00000000
00000330
,
00000002
00001003
00002000
00013000
,
01000000
10000000
01000000
10000000
,
00020000
00130000
00200000
00301000
,
00010000
00000100
00010000
00000000
,
00000020
00001030
00002000
00003001
,
00000010
00000001
00001000
00000100
,
00020000
00031000
00002000
00103000
,
01010000
00110000
01010000
00110000
,
00022000
00000000
00000000
00033000
,
00001000
00010000
00000010
00000000
,
00000100
00000001
00000010
00000000
,
00001000
00000010
00000001
00000100
,
00000010
00010000
00001000
00000000
,
01000000
00100000
10000000
00000000
,
00010000
01000000
00100000
00000000
,
10000000
01000000
00010000
00001000
,
00000010
00000001
00000010
00000001
,
00001000
00000100
00000010
00000000
,
00000001
00000100
00001000
00000000
,
00010000
00001000
00000100
00000000
,
00001000
00010000
00001000
00000000
,
01000000
00100000
10000000
00000000
,
00100000
01000000
00010000
00000000
,
00100000
00001000
00010000
00000000
,
00001000
00010000
00001000
00010000
,
00000010
00000100
00000001
00000010
,
00001000
00000010
00000001
00001000
,
00000100
00000001
00000100
00001000
,
00010000
00100000
10000000
00100000
,
00010000
01000000
10000000
01000000
,
00010000
00100000
00001000
00010000
,
00000010
00000100
00000001
00000010
,
00000100
00001000
00000001
00001000
,
00000100
00010000
00001000
00100000
,
00020000
00000000
00000000
00030000
,
10000000
01000000
00010000
00001000
,
00000020
00000000
00000000
00000030
,
00000001
00000100
00001000
00010000
,
00200000
00000000
00000000
00300000
,
10010000
00000000
01100000
10010000
,
02200000
00000000
00000000
00000000
,
00000000
00000000
00000000
00000000
,
03300000
00000000
00000000
00000000
;

//---------------dance-double - NORMAL----------------
#NOTES:
     dance-double:
     NORMAL:
     Medium:
     9:
     0.341,0.407,0.115,0.176,0.000:
00000000
00000000
00000000
00000000
,
00000000
00000000
00000000
00000000
,
00000000
00000000
00000000
00000000
,
00000000
00000000
00000000
00000000
,
00000000
00000000
00000000
00000000
,
00000000
00000000
00000000
00000000
,
00000000
00000000
00000000
00000000
,
00000000
00000000
00000000
00000000
,
00000000
00000000
00000000
00000000
,
00000000
00000000
00000000
00000000
,
00000000
00000000
00000000
00000000
,
00000000
00000000
00000000
00000000
,
10000000
00000000
00010000
00000000
00100000
00001000
00010000
00000000
,
00002000
00100000
00010000
00103000
,
00001000
00000000
00100000
00000000
00001000
00010000
00000010
00000000
,
00000200
00000001
00000010
00000301
,
00001000
00000000
00000100
00000000
00010000
00001000
00100000
00000000
,
00020000
01000000
00001000
01030000
,
00010000
00000000
10000000
00000000
01000000
00010000
00001000
00000000
,
00000020
00000001
00001000
00000031
,
00001000
00010100
00001000
00010100
,
00010000
00001000
01000000
00000000
01000000
01000000
01000000
00000000
,
10000000
01010000
10000000
01010000
,
00010000
00100000
00001000
00000000
00001000
00010000
00000100
00000000
,
00010000
00101000
00010000
00101000
,
00000100
00001000
00000100
00000010
00000001
00000000
00001000
00000000
,
00000001
00001100
00000001
00001100
,
00000010
00000100
00000010
00001000
00000010
00000000
00011000
00000000
,
00022000
00000000
00000000
00033000
,
00100000
00010000
10000000
00000000
01000000
00100000
00010000
00000000
,
00100000
00001000
00100000
00010000
,
00100000
00001000
00010000
00000000
00000100
00010000
00000010
00000000
,
00001000
00000100
00000010
00000001
,
00001000
00000100
00010000
00000000
00010000
00001000
01000000
00000000
,
00100000
10000000
01000000
00100000
,
00010000
00100000
00001000
00000000
00100000
00010000
00001000
00000000
,
00010000
00001000
00000100
00000001
,
00002200
00000000
00000000
00003300
,
00000100
00010000
00000100
00000000
00010000
00001000
00010000
00000000
,
00002000
00000000
00203000
00000000
,
00310000
10000000
01000000
00100000
00010000
00000000
01000000
00000000
,
00010000
10000000
01000000
00010000
00001000
00000000
00000100
00000000
,
00000001
00000100
00001000
00000000
00000100
00000001
00001000
00000000
,
00000200
00000000
00020300
00000000
,
00031000
00100000
00001000
00100000
00010000
00000000
00100000
00000000
,
00001000
00010000
00001000
00010000
00001000
00000000
01000000
00000000
,
00100000
10000000
01000000
00000000
00010000
00001000
00000100
00000000
,
00000001
00000100
00001000
00000100
,
00000001
00000100
00001000
00000000
00000100
00000001
00001000
00000000
,
00000100
00010000
00001000
00010000
,
00001000
01000000
00100000
00000000
01000000
00100000
10000000
00000000
,
01000000
00010000
00001000
00000010
,
00000001
00000010
00001000
00000000
00000010
00000001
00001000
00000000
,
00000100
00000000
00010000
00000000
00001000
00100000
00010000
00001000
,
00000100
00000001
00000100
00000000
00001000
00000100
00010000
00000000
,
00001000
00100000
00010000
10000000
,
01000000
00100000
00010000
00000000
00100000
00001000
00010000
00000000
,
00001000
00010000
00000010
00000100
,
00000001
00000010
00001000
00000000
00000010
00000001
00001000
00000000
,
00000100
00010000
00001000
00010000
,
00001000
01000000
00100000
01000000
00100000
00000000
10000000
00000000
,
00010000
00100000
01000000
10000000
00010000
00100000
00001000
00100000
,
00001000
00010000
00000200
00000000
00001300
00000001
00000010
00000000
,
00002200
00000000
00000000
00003300
,
00001000
00000100
00020000
00000000
00031000
00100000
00010000
00000000
,
02200000
00000000
00000000
03300000
,
10000000
01000000
00020000
00000000
00031000
00000010
00000001
00000000
,
00000220
00000000
00000000
00000330
,
00000001
00000010
00000100
00001000
00000001
00000010
00000100
00001000
,
00000202
00000000
00000000
00000000
,
00000000
00000000
00000000
00000000
,
00000303
00000000
00000000
00000000
;

//---------------dance-double - HYPER----------------
#NOTES:
     dance-double:
     HYPER:
     Hard:
     12:
     0.437,0.597,0.099,0.084,0.103:
00000000
00000000
00000000
00000000
,
00000000
00000000
00000000
00000000
,
00000000
00000000
00000000
00000000
,
00000000
00000000
00000000
00000000
,
00000000
00000000
00000000
00000000
,
00000000
00000000
00000000
00000000
,
00000000
00000000
00000000
00000000
,
00000000
00000000
00000000
00000000
,
00000000
00000000
00000000
00000000
,
00000000
00000000
00000000
00000000
,
00000000
00000000
00000000
00000000
,
00000000
00000000
00000000
00000000
,
10000000
01000000
00010000
00000000
00001000
00000010
00000001
00000010
,
00002000
00000001
00000100
00003001
,
00001000
00000001
00000100
00000000
00001000
00010000
00100000
10000000
,
00200000
00010000
01000000
00310000
,
00010000
01000000
00001000
00000000
00010000
00001000
00010000
00000010
,
00000200
00000001
00001000
00000301
,
00001000
00000100
00010000
00000000
00001000
00010000
00001000
01000000
,
00200000
10000000
00010000
10300000
,
10000000
00000000
00000000
01000000
00000000
00000000
00010000
00000000
00001000
00000000
00000000
00010000
00000000
00000000
00001000
00000000
,
00000010
00000001
00000010
00000001
00001000
00000100
00000010
00000000
,
00000001
00000000
00000000
00000100
00000000
00000000
00001000
00000000
00000100
00000000
00000000
00001000
00000000
00000000
00010000
00000000
,
00100000
10000000
00100000
00010000
10000000
00000000
01000000
00000000
,
10000000
00000000
00000000
00010000
00000000
00000000
00100000
00000000
00001000
00000000
00000000
00100000
00000000
00000000
00010000
00000000
,
00100000
00001000
00010000
00000100
00000010
00000001
00001000
00000000
,
00000100
00000000
00000000
00010000
00000000
00000000
00001000
00000000
00010000
00000000
00000000
00000100
00000000
00000000
00100000
00000000
,
00010000
00000000
10000000
00000000
01000000
00000000
00100000
00000000
00010000
10000000
00000000
00000000
00010000
00000000
00000000
00000000
,
11000000
01010000
00011000
00010100
,
00000100
00000000
00001000
00000100
00000000
00000000
00001000
00000000
00000001
00000000
00000010
00000100
00000000
00000000
00001000
00000000
,
00000100
00010000
00000100
00000000
00000100
00010000
00001000
00000000
,
01000000
00000000
00100000
10000000
00000000
00000000
01000000
00000000
00100000
00000000
00010000
10000000
00000000
00000000
00010000
00000000
,
00100000
00010000
00001000
00010000
00100000
00010000
00000100
00000000
,
00000100
00000000
00000010
00000001
00000000
00000000
00001000
00000000
00000100
00000000
00010000
00001000
00000000
00000000
00100000
00000000
,
00010000
10000000
01000000
00010000
00001000
00010000
01000000
00000000
,
10000000
00000000
00010000
00100000
00000000
00000000
00010000
00000000
00100000
00000000
00001000
00010000
00000000
00000000
00000100
00000000
,
00001000
00000100
00001000
00000100
00001000
00000100
00001000
00000100
00001000
00000100
00001000
00000100
00001000
00000100
00001000
00000000
,
00002002
00000000
00003003
00000110
,
00001000
00010100
00000010
00000101
,
00000001
00001000
00000100
00000000
00000100
00010000
00001000
00000000
,
00100000
00010000
10000000
01000000
00100000
00010000
00100000
00000000
,
00001000
00010000
00000100
00000000
00001000
00010000
00000100
00000000
,
00001000
00010100
00010000
00101000
,
00001000
00010000
00000100
00000000
00000100
00010000
00001000
00000000
,
00000010
00000001
00001000
00000100
00000010
00000001
00001000
00000000
,
00000010
00000100
00000010
00000000
00010000
00001000
00100000
00010000
,
10000000
01000000
00010000
01000000
10000000
00010000
00100000
00000000
,
00001000
00010000
00100000
00010000
00001000
00000100
00000001
00000000
,
00000100
00001000
00000001
00000010
00001000
00000010
00000001
00000000
,
00001000
00000100
00010000
00001000
01000000
00100000
10000000
00000000
,
00010000
00100000
10000000
00100000
00010000
01000000
00010000
00000000
,
00100000
00001000
00010000
00000100
00000010
00000001
00000100
00000000
,
00000010
00001001
00000100
00001010
,
00001000
00000100
00010000
00001000
,
00100000
00010000
10000000
00100000
00010000
00100000
10000000
00010000
,
01000000
00001000
00010000
00000010
00000100
00000001
00000010
00001000
,
00000010
00000001
00001000
00000100
00000010
00000001
00001000
00000100
,
00010000
00001000
01000000
00100000
10000000
01000000
00010000
01000000
,
10000000
01000000
00010000
00000100
00000010
00000001
00001000
00000100
,
00000001
00000100
00001000
00000100
00010000
00001000
00100000
00010000
,
00100000
10000000
00100000
00010000
00100000
10000000
00100000
00010000
,
00100000
00001000
00100000
00001000
00010000
00000100
00010000
00000100
,
00001000
00000000
00000010
00000100
00000010
00000000
00001000
00000000
00000001
00000000
00000010
00000000
00000100
00000000
00001000
00000000
,
00000002
00001000
00000100
00001003
,
00001000
00000000
00000100
00010000
00000100
00000000
00010000
00000000
00001000
00000000
01000000
00000000
00100000
00000000
10000000
00000000
,
00020000
10000000
01000000
10030000
,
00010000
00000000
00100000
00001000
00100000
00000000
00001000
00000000
00010000
00000000
00000100
00000000
00000010
00000000
00000001
00000000
,
00002000
00000001
00000010
00003001
,
00001000
00000100
00010000
00000000
00010000
00001000
00100000
00001000
,
00202000
00000000
00000000
00000000
,
00000000
00000000
00000000
00000000
,
00303000
00000000
00000000
00000000
;
