#TITLE:PHERESSNEYA revuvitlion;
#SUBTITLE:[Keyboard] pointyEyewear VS DJ B455CHU;
#ARTIST:CLIB455 of DJ 360;
#TITLETRANSLIT:;
#SUBTITLETRANSLIT:;
#ARTISTTRANSLIT:;
#GENRE:;
#CREDIT:;
#MUSIC:pheressneya revuvitlion.ogg;
#BANNER:pheressneya revuvitlion-bn.png;
#BACKGROUND:pheressneya revuvitlion-bg.png;
#CDTITLE:;
#SAMPLESTART:0.000;
#SAMPLELENGTH:0.000;
#SELECTABLE:YES;
#OFFSET:0.000;
#BPMS:0.000=360.000
,264.000=180.000
,328.000=360.000
;
#STOPS:389.500=0.148;
#BGCHANGES:;
#FGCHANGES:;

//--------------- dance-single - pointyEyewear VS DJ B455CHU ----------------
#NOTES:
     dance-single:
     pointyEyewear VS DJ B455CHU:
     Challenge:
     17:
     0,0,0,0,0:
0000
0000
0000
0000
,
0000
0000
0000
1001
,
0000
0000
0000
1000
,
0000
0000
0000
1000
0000
0010
1000
0000
,
0010
1000
0000
0001
0000
0100
0001
0000
,
0100
0001
0000
0000
0000
1000
0000
0000
,
0001
0000
0000
0001
,
0000
0000
0000
0000
0000
0000
0000
1000
,
0000
0100
0001
0100
0010
1000
0001
1000
,
0010
1000
0010
1000
0010
1000
0001
0100
,
0001
0000
0101
0000
0000
1001
0000
0000
,
1010
0000
0000
0101
0000
0000
0110
0000
,
0000
0000
1010
0000
0000
0110
0000
0000
,
1010
0000
0000
0110
0000
0000
0101
0110
,
0000
0000
1001
0000
0000
0110
0000
0000
,
1001
0000
0000
1010
0000
0000
1001
0000
,
0100
0010
0100
0010
1000
0100
1000
0010
,
0100
0001
0010
0100
1000
0100
1000
0010
,
1001
0000
1000
0000
0010
0000
1000
0010
,
1000
0010
1000
0000
0010
0000
0001
0100
,
0001
0100
0001
0000
0100
0000
0010
0001
,
0010
0001
0010
0000
0001
0000
0100
1000
,
0100
1000
0100
0000
1000
0000
0001
0100
,
0001
0100
0001
0000
0100
0000
1000
0010
,
1000
0010
1000
0000
0010
0000
0100
1000
,
0100
1000
0100
0000
1000
0000
0010
0001
,
0010
0001
0010
0000
0001
0000
1000
0010
,
1000
0010
1000
0000
0010
0000
0001
0100
,
0001
0100
0001
0000
0100
0000
0010
0001
,
0000
0000
0010
0001
0000
0000
0100
1000
,
0000
0000
0100
1000
0000
0000
1000
0010
,
1000
0010
1000
0001
1000
0001
0010
0100
,
0001
1000
0100
0010
0001
0100
1000
0010
,
1000
0100
0010
0001
0001
0000
0001
0010
,
0100
1000
1000
0000
0100
0010
0001
1000
,
1000
0000
0010
0100
1000
0001
0001
0000
,
0010
0001
1000
0100
0100
0000
0100
1000
,
0001
0010
0010
0000
0001
0010
0100
1000
,
1000
0000
1000
0100
0010
0001
0001
0000
,
0010
0100
1000
0001
0001
0000
0100
0010
,
0001
1000
1000
0000
0100
1000
0001
0010
,
0010
0000
0010
0001
1000
0100
0100
0000
,
1000
0100
0010
0001
0001
0000
0001
0010
,
0100
1000
1000
0000
0100
0010
0001
1000
,
1000
0000
0010
0100
1000
0001
0001
0000
,
0010
0001
1000
0100
0100
0000
0100
1000
,
0001
0010
0010
0000
0001
0010
0100
1000
,
0001
0010
0100
1000
0001
0010
0100
1000
,
0000
0000
0000
1001
0000
1100
0000
0000
,
0000
0101
0000
0000
0000
1010
0000
0000
,
0000
0011
0000
0000
0000
0110
0000
0000
,
0000
1000
0000
0010
0000
0000
1000
0000
,
0001
0100
0001
0100
0010
0000
0000
1000
,
0000
0010
1000
0001
0100
0000
0010
0000
,
0001
0000
0001
0100
0010
0100
0010
0000
,
0000
0001
0000
0001
1000
0100
0010
0001
,
0000
0001
0000
0001
0010
0100
0100
1000
,
0000
0010
1000
0000
0001
1000
0100
0010
,
0101
1100
1010
0000
,
1001
0000
0000
0000
1001
0000
0000
1010
,
0110
0011
1001
0000
,
1001
0000
0000
0000
1001
0000
0000
1010
,
1001
0001
0100
0101
,
1000
0000
0000
0000
0010
0000
0000
0000
1010
0000
0000
1001
0000
0000
1010
0000
,
0000
0110
0000
1001
0000
0101
0000
0011
,
0000
1010
0000
0000
0000
0110
0000
0000
1001
0000
0100
0000
0001
0000
0100
0000
,
0001
0000
1000
0000
1000
0100
0000
0100
,
0010
0000
0010
0000
0000
0000
0000
1000
0100
0010
0001
0000
0000
0000
0000
0000
,
0010
0001
0001
0001
0010
0001
0001
0001
,
0010
0000
0001
0000
0001
0000
0001
0000
1000
0000
0010
0000
1000
0010
0000
0001
,
0100
0000
0001
0000
1000
0010
0000
1000
0010
0000
0001
0000
0100
0001
0000
1000
,
0010
0000
1001
0000
1001
0000
0000
0000
1000
0000
0010
1000
0010
1000
0010
1000
,
0001
0000
1000
0010
1000
0010
1000
0000
1000
0010
1000
0000
0001
0100
0001
0000
,
1000
0100
0010
0001
1000
0100
0010
0001
1000
0000
0100
0000
1000
0000
0010
0000
,
1000
0001
0100
0001
0100
0010
1000
0001
,
1000
0000
0010
0000
0100
0000
0001
0100
0001
0100
0001
0010
0001
0010
0001
1000
,
0001
1000
1000
0100
0001
0010
0100
0010
0001
1000
0100
0010
0001
0010
0100
1000
,
0100
0000
0010
0000
0001
0000
0000
0000
1000
0000
0000
1000
0000
0000
1000
0000
0000
0000
0000
0000
1001
0000
0000
0000
0001
0000
0000
0001
0000
0000
0001
0000
,
0000
0000
0000
0000
1001
0000
0000
0000
0100
0000
0000
0100
0000
0000
0100
0000
0000
0000
0000
0000
1001
0000
0000
0000
0010
0000
0000
0010
0000
0000
0010
0000
,
0000
0000
0000
0000
1001
0000
0000
0000
1000
0000
0000
1000
0000
0000
1000
0000
0000
0100
0000
0000
0100
0000
0000
0100
0000
0000
0010
0000
0000
0010
0000
0000
,
0010
1000
0100
0010
0001
0000
1000
0100
0010
0001
0000
1000
0100
0000
0010
0001
,
1000
0100
0010
0001
0100
1000
0100
0001
0001
0100
1000
0010
0001
0000
0000
0000
,
1000
0100
0010
0001
0001
0000
0001
0010
,
0100
1000
1000
0000
1001
0000
1100
0000
,
0101
0000
1000
0100
0010
0001
0010
0100
,
1000
0100
1000
0100
0010
0000
0001
0100
,
1000
0001
0100
0010
1001
0000
0110
0000
,
0101
0000
1010
0000
1000
0100
0100
0010
,
0001
0010
0100
0000
1000
0000
1000
0000
,
1000
0000
1000
0010
0100
0001
0001
0000
,
0001
0100
0010
1000
1000
0000
1001
0000
,
1010
0000
0011
0000
1000
0010
0100
0001
,
0100
0010
1000
0010
1000
0010
0100
0000
,
0001
0010
1000
0001
0010
0100
1001
0000
,
0110
0000
0011
0000
1100
0000
1000
0010
,
0010
0100
0001
0100
0010
0000
1000
0000
,
0000
0001
0010
0100
0000
0000
0000
0000
1000
0100
0010
0000
0000
0000
0000
0001
,
0010
0100
0000
0000
0000
0000
1001
0000
0000
0000
0000
0000
1000
0000
0000
0000
,
0001
0000
1000
0000
0100
0010
0001
0001
,
0010
0000
0100
0000
0001
1000
0100
0010
,
0001
0000
0001
0000
1000
0010
0100
0001
,
1000
0000
0010
0000
0010
0010
0100
0001
,
1000
0000
1000
0000
1000
1000
1000
0010
,
0100
0011
0001
1001
,
0001
0000
0101
0000
1001
0000
1001
1100
,
0101
0000
0101
0000
1000
0100
0010
0001
,
0010
0100
0000
0100
0010
0001
0100
0000
,
1000
0100
0001
0010
0010
0000
1000
0100
,
0010
0100
0001
0000
0000
0000
0000
2002
,
0000
3003
0000
2002
0000
0000
3003
0000
,
2002
0000
3003
1000
0010
0000
0000
0000
,
0001
0100
0000
0000
0000
1000
0010
1000
,
0010
0001
0100
0001
0100
1000
0001
0010
,
0100
1000
0001
0010
0100
1000
0000
1001
,
0000
1001
0000
1000
0010
0100
0000
0010
,
0001
0100
0001
0000
0001
0000
0100
0001
,
0000
0000
1000
0000
1000
0010
0000
0000
,
0100
0000
0100
0010
0000
1000
0000
0100
,
0000
0000
0010
0000
0000
0010
0000
0001
,
0000
1000
0001
1000
0001
1000
2002
3003
,
0000
1001
0000
1000
,
0000
0100
0000
0010
,
0010
0000
0000
0000
0010
0000
0000
0000
0010
0000
0000
0000
0001
0000
0000
0001
,
0000
0000
0001
0000
0000
0001
0000
0000
0000
0000
0010
0000
0000
0000
0010
0000
,
0000
0000
0010
0000
0000
0000
0010
0000
0000
0000
0100
0000
0000
0100
0000
0000
,
0100
0000
0000
0100
0000
0000
0000
0000
0000
0000
0000
0000
1000
0100
0010
0001
,
0000
0000
0000
0000
1000
0000
0001
0000
1000
0000
0001
0000
1000
0000
0000
0001
,
0010
0100
1000
0000
0000
0000
0000
0000
1000
0000
0100
0000
0001
0000
0010
0000
,
1000
0000
0100
0000
0010
0000
0001
0000
0010
0000
0100
0000
1000
0001
1000
0001
,
1000
0001
0000
0000
2002
0000
0000
0000
0000
0000
0000
0000
0000
0000
0000
0000
,
0000
0000
0000
0000
3003
2002
0000
0000
,
0000
0000
0000
0000
,
0000
0000
0000
0000
,
0000
0000
0000
0000
,
0000
0000
0000
0000
,
0000
0000
0000
0000
,
0000
0000
0000
0000
,
0000
0000
0000
0000
,
0000
0000
0000
0000
,
0000
0000
0000
0000
,
0000
0000
0000
0000
,
0000
0000
0000
0000
0000
0000
0000
0000
0000
0000
0000
0000
3003
0000
1000
0100
,
1000
0000
0001
0000
0000
0010
0000
0100
0000
1000
0100
0000
0001
0010
0000
0000
,
0100
0000
0000
0000
0000
0000
1000
0000
0000
0000
0000
0000
1000
0100
0000
0000
0000
0000
0000
0001
0010
0000
0000
1000
0100
0000
0000
0000
0000
0000
0000
0000
,
1000
0100
0000
0000
0000
0000
0000
0000
0000
0000
0000
0000
0000
0000
0000
0000
0000
0000
0000
0000
0000
0000
0000
0000
0000
0000
0000
0000
0000
0000
0000
0000
,
0000
0000
0000
0000
,
0000
0000
0000
0000
,
0000
0000
0000
0000
,
0000
0000
0000
0000
,
0000
0000
0000
0000
,
0000
0000
0000
0000
,
0000
0000
0000
MMMM
;

//--------------- dance-single - POINTY'S WRATH ----------------
#NOTES:
     dance-single:
     POINTY'S WRATH:
     Edit:
     100000:
     0,0,0,0,0:
0000
0000
0000
0000
,
0000
0000
0000
0000
0000
0000
0000
1000
,
0000
0100
0001
0000
0000
0000
0000
1000
,
0000
0000
0001
0000
1000
0001
1000
0000
,
0001
1000
0001
1000
0000
0010
0000
0000
,
1010
1010
1000
0000
,
0000
0001
0000
0000
1001
0000
0000
0000
,
0000
0000
0000
0000
0000
1000
0000
0000
,
1000
0000
0100
0000
0010
0000
0001
1000
,
0000
0100
0010
1000
0001
0000
1000
0000
,
0000
0000
0000
1000
0000
1000
0000
0000
,
1000
0000
0000
1000
0000
1000
0000
0000
,
0000
0001
0000
0000
0001
0000
0001
0000
,
0000
0001
0000
0000
0001
0000
0000
0000
,
1000
0000
0000
1000
0000
0000
1000
0000
,
0000
1000
0000
0000
0000
1000
0000
0001
,
1000
0000
0100
0010
0000
0001
0000
1000
,
0000
0100
0000
0010
0000
0001
0000
0000
,
1000
0001
0000
0000
0000
0000
0001
0000
,
1000
0010
1000
0010
,
1000
0001
1000
0010
,
0000
1000
0000
1000
,
0000
0010
1000
0000
0001
0000
1000
0000
,
0010
0000
1000
0001
0000
0000
1000
0010
,
0000
1000
0000
0000
0001
1000
0000
0010
,
0000
1000
0000
0001
1000
0000
0010
0000
,
1000
0001
1000
0000
0010
1000
0001
0000
,
1000
0001
1110
0000
1111
0010
0000
1111
,
0000
0000
0000
0000
0000
1000
0000
0000
,
0000
1000
0000
0000
0000
0000
1111
0000
,
0000
1111
0000
1111
,
0000
0000
1111
0000
0000
0000
0000
1111
,
0000
1111
0001
1110
0011
1100
0011
1100
,
0010
1101
0011
1100
0011
0000
0000
0000
,
0000
1000
0000
0001
1000
0001
0000
1000
,
0001
0000
0000
1000
0010
0000
1000
0010
,
0000
1000
0000
0000
0100
0000
0001
0100
,
0001
0000
0100
0000
0010
0000
1000
0010
,
0100
0001
0000
1000
,
0010
1000
0010
1000
,
0001
0100
0001
0100
,
0001
0000
0000
0000
,
1000
1000
0010
0000
,
1000
1000
0010
0000
,
0001
0010
0010
0010
,
0001
0010
0010
0000
,
1000
0000
0000
0100
0010
0000
0000
0000
,
0000
0001
1000
0000
0010
0000
0000
0000
,
0000
1000
0010
0000
0000
1000
0010
0000
,
0000
1000
0010
0000
0000
0000
1010
0000
,
0000
0000
1000
0010
0000
0000
1000
0010
,
0000
0000
0000
0001
,
0000
0000
0010
0000
0000
0011
0000
0000
,
0011
0000
0000
1000
,
0000
1100
0000
0000
0000
1100
0000
0000
,
1100
0000
0000
0000
0000
0000
0000
1000
,
0000
0000
0010
1000
0000
0010
0000
1000
,
0000
0010
0000
0000
0000
0000
1110
0000
,
1100
0011
1100
0011
0000
0000
0000
1111
,
0000
0000
0000
0010
1101
0000
0000
0000
,
1111
0000
0000
0000
0000
1111
0000
0000
,
0000
0000
0000
0000
,
0000
1000
0000
0100
0000
0010
0000
0001
,
0000
1000
0000
0100
0000
0010
0000
0001
,
1000
0000
0001
0000
0001
0000
0000
0001
,
0000
0001
0000
0000
0001
0000
0000
0001
,
0000
1000
0000
0000
0000
1000
0000
0000
,
0000
1000
0001
0000
0000
0000
0000
1000
,
0000
0100
0010
0001
,
1000
0010
0001
0000
,
0010
0010
0010
0010
0010
0010
0010
0010
,
0010
0010
0010
0010
0010
0010
0010
0000
,
0000
0000
1000
0100
0010
0001
0000
0001
,
0010
0100
1000
0000
0000
0000
0000
0000
,
1000
0010
0010
0010
1000
0010
0010
0000
,
0001
0010
0001
0010
0001
0010
0001
0000
,
1100
0010
0001
1000
0100
0010
0001
0000
,
0000
0000
0000
0000
,
0110
1001
0110
1001
,
1000
0100
1000
0100
1000
0100
0010
0001
,
0010
0001
0010
0000
1001
0100
0000
0000
,
0000
1001
0000
1001
0000
1001
0000
1001
,
0000
1000
1000
0010
,
0000
1000
0000
1000
0000
0000
0001
0000
,
0001
0000
0001
0000
0000
1000
0000
1000
,
0000
1000
0000
0000
1000
0000
1000
0000
,
0000
0001
0001
0001
,
1000
0000
0010
0000
1000
0000
0000
0001
,
0000
0001
0000
0001
0000
1000
0000
0010
,
0000
1000
0000
0010
0000
1000
0000
0000
,
0000
0001
0000
0100
0000
0010
1000
0000
,
0000
0000
0000
1000
0000
0001
0000
1000
,
0001
1001
0000
0000
,
1000
0000
0010
1000
0010
1000
0000
0000
,
0000
0101
0000
0000
0000
0000
0000
0000
,
1000
0000
0000
0000
0000
0000
1000
0110
,
0000
0001
0000
1000
0000
0100
0010
0001
,
0000
1000
0000
1111
0000
1000
0001
0000
,
0000
0000
0100
0000
0000
0000
1000
0010
,
0000
0000
0000
1000
,
0001
0000
1000
0000
,
1000
0000
0010
0000
,
1000
0001
1000
0001
,
1000
0010
1000
0001
,
1000
0000
0010
1000
0000
0000
0001
1000
,
0000
0010
0000
0000
0000
0000
1111
0000
,
0000
1111
0000
1111
,
0000
1111
0000
1110
,
0000
1110
0000
1110
,
0000
1110
0000
1101
,
0000
0000
1010
0000
0000
0001
0100
0000
,
0000
1010
0000
1000
,
0100
0000
0010
0000
0000
0001
1000
0000
,
0010
0000
1000
0010
1000
0010
1000
0000
,
0000
0000
0001
0000
0000
0100
0000
0001
,
0000
0000
1000
0000
0000
0010
0000
0000
,
0000
1000
0000
0001
,
0000
0000
0001
1000
0010
0000
1000
0000
,
0000
1000
0000
1000
,
0000
1000
1000
1000
,
0000
1000
0000
1000
,
0000
0000
1000
0000
0000
0000
0000
1000
,
1000
1000
1000
1000
,
1000
1000
1000
0000
0000
0001
0000
0001
,
0000
0001
0000
0001
0001
0000
0001
0000
,
0001
0000
0000
0000
0000
0000
0000
1100
,
0010
0000
0000
0001
0000
0001
0000
0000
,
0000
0111
0000
0000
0000
1000
0000
1000
,
0000
0000
0000
1000
0000
0001
1000
0000
,
0001
1000
0001
1000
0000
1001
0000
1001
,
0000
0000
0000
1001
,
0000
0000
0000
0000
,
0000
0000
0000
0000
0000
0000
0000
1000
,
0000
0000
0000
1000
0000
1000
0000
0000
,
0010
0000
0000
1000
0000
0000
0000
0010
,
0000
0010
0000
0000
0000
0101
0000
0000
,
0000
0000
1000
1000
,
0000
0010
0000
1000
0000
0000
0010
0000
,
0000
1000
0000
1000
0000
0000
0001
0000
,
0000
0000
0000
1111
,
0000
0000
0000
0000
,
0000
0000
0000
0001
,
1000
0100
0010
0001
1000
0000
0001
0100
,
0000
1010
0001
1100
1111
0011
1111
1100
,
1111
1011
0000
0000
0000
0000
0000
0000
;
