#TITLE:PARANOIA -anz mix- [typeB];
#SUBTITLE:[Keyboard Chart];
#ARTIST:kanishiko;
#TITLETRANSLIT:;
#SUBTITLETRANSLIT:;
#ARTISTTRANSLIT:;
#GENRE:;
#CREDIT:;
#MUSIC:PARANOiA anz-mix typeB.ogg;
#BANNER:paraanzb-bn.png;
#BACKGROUND:paraanzb-bg.png;
#CDTITLE:pointyeyeweardisc-cdtitle.png;
#SAMPLESTART:0.000;
#SAMPLELENGTH:0.000;
#SELECTABLE:YES;
#OFFSET:1.006;
#BPMS:0.000=55.000
,4.000=220.000
,7.000=440.000
,8.000=220.000
,12.000=440.000
,13.000=220.000
,16.000=440.000
,17.000=220.000
,21.000=440.000
,22.000=220.000
,25.000=440.000
,26.000=220.000
,30.000=440.000
,31.000=220.000
,34.000=440.000
,35.000=110.000
,37.000=440.000
,70.000=110.000
,72.000=440.000
,78.000=880.000
,82.000=440.000
,94.000=1760.000
,98.000=440.000
,126.000=880.000
,134.000=110.000
,136.000=440.000
,142.000=880.000
,146.000=440.000
,158.000=1760.000
,162.000=440.000
,164.000=880.000
,168.000=440.000
,170.000=880.000
,174.000=440.000
,176.000=880.000
,180.000=440.000
,182.000=880.000
,186.000=440.000
,188.000=880.000
,192.000=440.000
,194.000=880.000
,198.000=440.000
,200.000=880.000
,204.000=220.000
,206.000=880.000
,210.000=440.000
,212.000=880.000
,216.000=440.000
,218.000=880.000
,222.000=440.000
,224.000=880.000
,228.000=440.000
,230.000=880.000
,234.000=440.000
,236.000=880.000
,240.000=440.000
,242.000=880.000
,246.000=220.000
,249.000=440.000
,251.000=880.000
,255.000=440.000
,257.000=880.000
,261.000=440.000
,263.000=880.000
,267.000=440.000
,269.000=880.000
,273.000=440.000
,275.000=880.000
,279.000=440.000
,281.000=880.000
,285.000=440.000
,287.000=880.000
,291.000=220.000
,293.000=880.000
,297.000=1760.000
,305.000=880.000
,309.000=1760.000
,317.000=880.000
,321.000=1760.000
,329.000=880.000
,333.000=1760.000
,341.000=880.000
,345.000=1760.000
,353.000=880.000
,357.000=1760.000
,364.000=880.000
,368.000=1760.000
,377.000=3520.000
,378.000=440.000
,434.000=220.000
,436.000=1760.000
,437.000=440.000
,496.000=1760.000
,504.000=220.000
,507.000=440.000
,508.000=220.000
,512.000=440.000
,513.000=220.000
,516.000=440.000
,517.000=220.000
,521.000=440.000
,522.000=220.000
,525.000=440.000
,526.000=220.000
,530.000=440.000
,531.000=220.000
,534.000=440.000
,536.000=110.000
,538.000=440.000
,566.000=880.000
,574.000=220.000
,578.000=440.000
,584.000=880.000
,588.000=440.000
,599.000=1760.000
,604.000=440.000
,632.000=880.000
,640.000=110.000
,642.000=440.000
,648.000=880.000
,652.000=440.000
,660.000=880.000
,676.000=440.000
,704.000=880.000
,712.000=110.000
,714.000=440.000
,720.000=880.000
,724.000=440.000
,736.000=1760.000
,740.000=440.000
,768.000=880.000
,776.000=110.000
,778.000=440.000
,784.000=880.000
,788.000=440.000
,796.000=880.000
,804.000=27.500
;
#STOPS:94.000=0.105
,95.000=0.105
,96.000=0.105
,97.000=0.105
,158.000=0.094
,159.000=0.100
,160.000=0.105
,161.000=0.100
,377.000=0.530
,436.000=0.518
,500.000=0.096
,501.000=0.100
,502.000=0.105
,503.000=0.102
,599.000=0.105
,600.000=0.102
,601.000=0.102
,602.000=0.102
,603.000=0.102
,736.000=0.101
,737.000=0.102
,738.000=0.102
,739.000=0.103
;
#BGCHANGES:;
#FGCHANGES:;

//--------------- dance-single - pointyEyewear (i ran out of ideas) ----------------
#NOTES:
     dance-single:
     pointyEyewear (i ran out of ideas):
     Challenge:
     19:
     0,0,0,0,0:
0000
0000
0000
0000
,
1001
0101
1100
1010
,
0110
0011
1100
0110
,
1010
0011
1001
0101
,
1010
0110
0011
1010
,
1001
0110
1010
0101
,
0110
1010
0110
0101
,
0110
1100
1010
0101
,
1010
0000
0000
0000
1001
0000
0000
0000
0101
0000
0000
0000
1010
0001
0000
1000
,
0100
0000
0010
1000
0001
0000
0000
0000
0010
0000
0000
0000
0001
0000
0000
0000
,
0100
0010
1000
0100
,
1000
0010
1000
0100
,
0010
0001
0100
0010
,
1000
0100
0010
0001
,
1000
0100
1000
0010
,
1000
0100
0010
0100
,
1000
0000
0100
0000
0001
0100
0001
0100
,
1000
0000
0000
0010
0000
0000
1000
0000
0000
0010
0000
0000
1000
0000
0000
1000
0000
0000
0001
0000
0010
0001
0000
0010
,
1000
0100
0001
1000
,
0100
1000
0010
0000
,
0100
0000
0001
0010
,
1000
0010
0001
1000
,
0100
1000
0010
1000
,
0001
0010
1100
0011
,
0110
1001
1000
0001
,
0100
0010
0100
0001
,
0010
0100
1000
0010
,
0100
0001
1000
0010
,
1000
0100
0010
0100
,
1000
0001
1000
0010
,
0100
0001
0100
0010
,
0100
0010
0100
0010
,
1000
0100
1000
0001
,
0100
0000
0000
0000
0000
0000
0010
0000
0000
0000
0000
0000
1010
0000
0000
1010
0000
0000
0001
0000
0100
0001
0000
0100
,
1000
0010
0100
0001
,
0010
1000
0100
0000
,
1000
0000
0010
1000
,
0001
0100
1000
0001
,
0010
1000
0100
1000
,
0001
0010
1010
0011
,
1100
0101
0010
0100
,
0010
0001
0100
0010
,
1000
0100
0010
0001
,
0100
0001
0010
0001
,
0100
0010
0100
0001
,
0010
0100
0010
0100
,
1000
0010
1000
0100
,
0010
0001
1000
0100
,
1000
0100
1000
0010
,
0100
0001
1000
0100
,
1000
0001
0010
0001
,
1001
0110
0010
0100
,
1000
0010
0100
0001
,
0010
0100
1000
0001
,
1000
0100
0010
0001
,
0100
0001
0010
0001
,
0100
0010
1000
0001
,
0100
0010
1000
0010
,
0100
0001
0010
0001
,
1000
0100
0010
0001
,
1000
0010
1000
0001
,
0010
0100
0010
0101
,
1100
0001
0010
0100
,
1000
0010
0100
0010
,
1000
0001
1000
0100
,
1000
0100
1000
0010
,
0100
0010
1000
0001
,
0100
0010
0100
0001
,
1000
0010
1000
0100
,
0010
0001
1000
0010
,
0100
0010
1000
0010
,
0100
0001
0010
0100
,
0010
0001
0010
0100
,
1000
1000
0000
0010
,
0000
1000
0000
0010
,
0000
0001
0000
0100
,
0000
1000
0000
0010
,
0000
0010
0000
1000
,
0000
0001
0000
0100
,
0000
1000
0000
0100
,
0000
0010
0000
0001
,
0000
0100
0000
0010
,
0000
1000
0000
0100
,
0000
1000
0000
0010
,
0000
1000
0000
0001
,
0000
0010
0000
1000
,
0000
0100
0000
1000
,
0000
0010
0000
1000
,
0000
0001
0000
0010
,
0000
1000
0000
0010
,
0000
0001
0000
1000
,
0000
0010
0000
0000
0000
0100
0000
0000
,
0000
0000
0000
1000
0000
0000
0000
0001
,
0000
0000
0000
0100
0000
0000
0000
0000
,
0000
0110
1000
1000
,
0001
0000
0100
0001
0100
0010
1000
0000
,
0100
0010
0000
0100
0000
0000
0001
0000
,
1000
0000
0100
0010
0100
0010
0100
0000
,
0010
1000
0100
0001
0100
0000
0010
0000
,
1000
0000
0100
0001
0000
0001
0010
0000
,
0100
1000
0000
0100
0000
0000
0010
0000
,
0001
0000
0000
0001
,
0001
0000
0001
0010
1000
0000
1000
0000
,
0001
0000
0100
0001
0100
0010
1000
0000
,
0100
0010
0000
0100
0000
0000
0001
0000
,
1000
0000
0100
0010
0100
0010
0100
0000
,
0010
1000
0100
0001
0100
0000
0010
0000
,
1000
0000
0100
0001
0000
0001
0010
0000
,
0100
1000
0000
0100
1100
0101
1010
0110
,
1001
0010
0100
1000
,
0001
0100
0010
1000
,
0010
0100
0001
0010
,
0100
1000
0010
0100
,
0010
1000
0100
1000
,
0010
0100
0010
1000
,
0001
0100
0001
0010
,
0100
0000
0100
0010
0100
0010
1000
0100
,
1000
0100
0010
0000
0100
0000
0010
0000
,
0001
1000
0100
1000
,
0010
0100
0010
1000
,
0001
0100
0001
0010
,
0100
0010
0100
0010
,
0100
1000
0010
1000
,
0100
1000
0001
0010
,
1000
0000
0100
0000
,
1100
0011
0110
1001
,
0010
0001
0100
0001
0010
0100
0010
0001
,
0100
0010
0100
0001
0010
0100
0010
0001
,
0100
0010
1000
0100
1000
0010
1000
0100
,
1000
0010
0100
0001
0100
0010
0100
0001
,
1000
0001
1000
0100
1000
0010
1000
0100
,
0010
0001
0010
0001
1000
0100
1000
0001
,
0010
0001
1000
0001
0100
0001
0010
0100
,
1000
0100
1000
0100
0010
0100
1000
0000
,
1000
0000
0010
1000
0000
0001
0100
0010
0100
0000
0010
0000
1000
0000
0010
0000
,
0100
0001
0010
0100
0010
0001
0100
0001
,
0010
0001
0100
0010
1000
0100
1000
0001
,
1000
0010
1000
0100
1000
0010
0100
0001
,
0010
0001
1000
0001
0100
0001
0010
0001
,
0100
0010
0100
0010
1000
0100
0010
0001
,
0100
0001
0010
0100
0010
1000
0010
0001
,
0010
0100
1000
0001
0010
0000
0100
0000
,
1000
0010
0100
0010
,
0100
0001
1010
0101
,
0010
0000
0000
0000
0001
0000
0100
0000
0000
0000
0010
0000
1000
0000
0000
0010
0000
0000
0100
0000
0000
0001
0000
0000
,
0010
0001
1000
0010
0100
0001
0010
0100
,
0010
0100
1000
0010
,
0010
0100
1000
0010
0100
0001
1000
0010
,
0100
0001
0010
0100
1000
0010
0100
0001
,
0010
0100
1000
0010
1000
0010
1000
0000
,
0101
1010
0110
1001
,
0100
0001
0010
0001
0010
0001
0100
0010
,
0100
0001
0010
0100
1000
0001
0010
0001
,
0010
0100
1000
0001
0100
0010
1000
0010
,
0100
0001
1000
0010
1000
0010
1000
0001
,
0100
0010
1000
0100
0010
0100
1000
0001
,
0010
0100
1000
0001
0010
0001
1000
0010
,
0100
0010
1000
0010
0100
0001
0100
0010
,
0010
0100
1000
0100
,
0010
0001
1000
0010
,
1100
0000
0000
0110
0000
0000
0001
0000
0100
0010
0000
1000
0100
0000
0000
0001
0000
0000
0010
0000
0000
0100
0000
0000
,
1000
0001
0100
0010
0100
0001
1000
0010
,
0100
0010
1000
0100
,
0001
1000
0100
1000
0001
0100
0010
0100
,
0001
1000
0001
0100
0001
0010
0100
1000
,
0010
0100
0010
0100
,
0010
0100
0010
0100
,
0010
0100
0010
0100
,
0010
0100
0010
0100
,
0010
1000
0010
0100
,
0010
0001
1000
0010
,
0001
0100
0010
1000
,
0000
1000
1000
0100
,
0010
0001
0100
0010
,
0100
0001
1000
0100
,
0010
0001
1000
0001
,
0010
0100
1000
0100
,
0010
0001
0100
0001
,
0100
0010
0001
0100
0010
1000
0100
0010
0001
0100
0010
1000
0010
0000
0000
0000
0000
0000
0100
0000
0000
0000
0000
0000
,
0001
0010
0100
1000
,
0100
1000
0100
0010
,
0001
0100
0001
0010
0001
0100
0010
1000
,
0010
0100
0010
1000
0100
0010
0001
1000
,
0010
0100
0001
0010
0001
0100
0010
1000
,
0101
1010
1100
0101
,
0100
1000
0010
0100
0001
1000
0001
1000
,
0010
1000
0010
1000
0100
0010
0001
0100
,
0010
1000
0100
1000
0100
0010
0001
0010
,
0100
1000
0001
0010
0100
1000
0001
0100
,
0010
1000
0001
1000
0010
0100
0001
0100
,
0010
0100
0001
0100
0001
1000
0100
1000
,
0010
0100
0001
0010
0100
1000
0001
0010
,
1000
0100
0001
0010
,
0001
1000
0001
0010
,
0100
0010
0001
0100
0010
0100
0010
1000
0010
0000
0000
0000
0100
0000
0000
0000
,
0010
0100
0010
0100
,
0001
0100
0001
1000
,
0100
1000
0010
0100
0001
1000
0010
0100
,
0001
0010
0100
1000
0010
1000
0010
1000
,
0010
0100
0001
0100
,
0001
0010
0100
1000
,
0220
0000
0000
0000
0000
0000
0000
0000
0000
0000
0000
0000
0000
0000
0000
0000
0000
0000
0000
0000
0000
0000
0000
0000
0000
0000
0000
0000
0000
0000
0000
0000
0000
0000
0000
0000
0000
0000
0000
0000
0000
0330
0000
0000
0000
0000
0000
0000
0000
0000
0000
0000
0000
0000
0000
0000
0000
0000
0000
0000
0000
0000
0000
0000
0000
0000
0000
0000
0000
0000
0000
0000
0000
0000
0000
0000
0000
0000
0000
0000
0000
0000
0000
0000
0000
0000
0000
0000
0000
0000
0000
0000
0000
0000
0000
0000
0000
0000
0000
0000
0000
0000
0000
0000
0000
0000
0000
0000
0000
0000
0000
0000
0000
0000
0000
0000
0000
0000
0000
0000
0000
0000
0000
0000
0000
0000
0000
0000
0000
0000
0000
0000
0000
0000
0000
0000
0000
0000
0000
0000
0000
0000
0000
0000
0000
0000
0000
0000
0000
0000
0000
0000
0000
0000
0000
0000
0000
0000
0000
0000
0000
0000
0000
0000
0000
0000
0000
0000
0000
0000
0000
0000
0000
0000
0000
0000
0000
0000
0000
0000
0000
0000
0000
0000
0000
0000
0000
0000
0000
0000
0000
0000
;
