#TITLE:PARANOiA -Sigma-;
#SUBTITLE:[Keyboard] pointyEyewear;
#ARTIST:ONI-91;
#TITLETRANSLIT:;
#SUBTITLETRANSLIT:;
#ARTISTTRANSLIT:;
#GENRE:;
#CREDIT:;
#MUSIC:parasigma.ogg;
#BANNER:parasigma-bn.png;
#BACKGROUND:parasigma-bg.png;
#CDTITLE:ppointyeyeweardisc-cdtitle.png;
#SAMPLESTART:72.063;
#SAMPLELENGTH:13.125;
#SELECTABLE:YES;
#OFFSET:0.312;
#BPMS:0.000=160.000;
#STOPS:;
#BGCHANGES:;
#FGCHANGES:;

//--------------- dance-single - pointyEyewear ----------------
#NOTES:
     dance-single:
     pointyEyewear:
     Challenge:
     12:
     0,0,0,0,0:
0000
0000
1000
0100
0000
0001
0100
0000
,
1000
0010
0000
0001
0010
0000
1000
0001
,
0001
0000
0001
1000
0000
0010
0100
0000
,
1000
0010
0000
0001
0010
0000
1000
1000
,
0010
0000
0001
0100
0000
1000
0100
0000
,
0001
0010
0000
1000
0010
0000
0001
1000
,
1000
0000
1000
0001
0000
0010
0100
0000
,
0001
0010
0000
1000
0010
0000
0001
0001
,
0010
0000
0001
0100
0000
1000
0100
0000
,
0001
0010
0000
1000
0010
0000
0001
1000
,
1000
0000
1000
0001
0000
0010
0100
0000
,
0001
0010
0000
1000
0010
0000
0001
0001
,
0010
0000
1000
0010
0000
0001
0010
0000
,
1000
0100
0000
0001
0100
0000
1000
0001
,
0001
0000
0001
1000
0000
0100
0010
0000
,
1000
0000
0100
0000
1000
0001
1000
0001
1000
0010
1000
0010
1000
0001
0100
0010
,
1000
0100
0010
0100
1001
0000
1000
0000
0011
0000
0100
0000
1010
0000
0010
0000
,
0011
0010
0110
0010
1010
1000
1001
0010
,
0101
1000
1001
0001
1010
0100
0011
0010
,
1010
0010
0110
0010
0011
0001
1001
0010
,
1100
0001
1001
1000
0101
0010
1100
0100
,
0101
0100
0110
0100
1100
1000
1001
0100
,
0011
1000
1001
0001
1010
0100
0011
0010
,
1010
0010
0110
0010
0011
0001
1001
0010
,
1100
0001
2002
0000
0000
0000
0000
0000
,
0000
0000
0000
0000
0000
0100
0000
0000
,
0100
0010
0000
0000
,
0000
0000
0110
0000
0000
0010
0000
0000
,
0010
0100
0000
0000
,
0000
0000
0000
0000
0000
0010
0000
0000
,
0010
0100
0000
0000
,
0000
0000
0000
0000
0000
3003
1000
0000
0000
0100
0000
0000
1000
0000
0000
0001
0000
0000
1000
0000
0000
0100
0000
0000
,
1000
0000
0022
0000
0000
0033
2200
0000
,
0000
3300
0202
0000
0000
0303
2020
0000
,
0000
3030
1000
0100
1000
0100
0001
0010
,
0001
0000
0010
0000
1000
0100
1000
0100
0000
0000
0000
0000
0001
0010
0001
0010
,
0000
0000
0000
0000
1000
0100
0000
0000
0001
0010
0000
0000
1000
0100
0000
0000
,
0001
0010
0000
0000
1000
0100
0000
0000
0001
0010
0000
0000
1000
0100
1000
0100
,
0000
0000
0000
0000
0001
0010
0001
0010
0000
0000
0000
0000
1000
0100
0000
0000
,
0001
0010
0000
0000
0220
0000
0000
0000
0000
0000
0000
0000
0000
0000
0000
0000
,
0000
0330
1000
0002
0000
0100
0000
0000
,
0003
0000
0000
0000
0000
1000
0000
0000
,
1000
0000
0100
0000
0000
1010
0000
0000
,
0000
0000
0022
0000
0000
1000
0000
0000
,
1033
0100
0000
0000
,
0000
0001
1000
0001
,
1000
0110
1000
0011
,
0100
0000
1000
0100
0001
0100
1000
0010
,
0001
0010
1000
0010
1000
0010
0001
0100
,
0001
0100
1000
0001
1000
1001
0000
0000
,
1001
0000
1001
0001
1000
0010
1000
0001
,
1000
0000
0010
0000
0100
0000
0001
0000
0010
0000
1000
0000
0010
0000
0000
0010
,
0001
0010
1000
0001
1000
0010
1000
0001
,
1000
0010
1000
0001
1000
0010
1000
0001
,
1000
0010
0001
1000
0001
0100
0001
1000
,
0001
0100
0001
1000
0001
0100
0001
1000
,
0001
0100
0001
1000
0001
0010
0001
1000
,
0001
0010
0001
1000
0001
0010
0001
1000
,
0001
0010
1000
0001
1000
0100
1000
0001
,
1000
0100
1000
0001
1000
0100
1000
0001
,
1000
0100
0001
1000
0001
0010
0001
1000
,
0001
0010
0001
1000
0001
0010
0001
1000
,
0001
0010
1000
0100
0010
0001
1000
0100
,
0010
0001
0100
0010
1000
0001
0100
0010
,
1000
0001
1001
0000
0000
0000
0000
0000
;

//--------------- dance-single - POINTY'S WRATH ----------------
#NOTES:
     dance-single:
     POINTY'S WRATH:
     Edit:
     100000:
     0,0,0,0,0:
0000
0000
1000
1100
0000
0001
0101
0000
,
0100
0101
0000
0010
0110
0000
1000
1001
,
1001
0000
0100
0011
0000
0100
0011
0000
,
0010
1100
0000
0010
1100
0000
1001
0110
,
1001
0000
0011
1100
0000
1100
0011
0000
,
0110
1001
0000
1001
0110
0000
1010
0011
,
1100
0000
1010
0011
0000
0101
1100
0000
,
1100
0110
0000
0011
0110
0000
0110
1001
,
0110
0000
0000
0000
1000
0000
1000
0000
0010
1000
0001
0100
0001
0000
0001
0000
,
0100
0001
1000
0010
0100
0000
0100
0000
1000
0010
0100
0001
0010
0000
0010
0000
,
0001
0010
0100
1000
0001
0000
0001
0000
0010
0001
1000
0100
1000
0000
1000
0000
,
0100
1000
0001
0010
0100
0000
0100
0000
0001
0010
0100
1000
0010
0000
0010
0000
,
1000
0010
0100
0001
1000
0000
1000
0000
0100
1000
0001
0010
0001
0000
0001
0000
,
0010
0001
1000
0100
0010
0000
0010
0000
1000
0100
0010
0001
0100
0000
0100
0000
,
0001
0100
0010
1000
0001
0000
0001
0000
0100
0001
1000
0010
1000
0000
1000
0000
,
0100
0001
0010
0000
0100
0010
0001
1000
0100
0010
0001
1000
0100
0010
1000
0100
,
1000
0001
0100
0010
1000
0000
1000
0000
0100
0000
0000
0010
0000
0010
0000
0001
,
0000
0001
1000
0000
0010
0000
0010
0000
0100
0000
0000
0100
0000
0100
0000
0010
,
0000
0100
1000
0000
0010
0000
0010
0000
0001
0000
0000
1000
0000
0010
0000
1000
,
0000
0001
1000
0000
0100
0000
0010
0000
1000
0000
0000
0010
0000
0100
0000
0001
,
0000
0100
0010
0000
1000
0000
0001
0000
1000
0000
0000
0010
0000
1000
0000
0001
,
0000
1000
0010
0000
0100
0000
0001
0000
0100
0000
0000
0010
0000
0001
0000
0100
,
0000
0010
0100
0000
0001
0000
1000
0000
0010
0000
0000
1000
0000
0001
0000
1000
,
0000
0010
1000
0000
0001
0000
0010
0000
0100
0000
0000
0010
0000
0100
0000
0001
,
0000
1000
0010
0000
1000
0010
1000
0010
0001
0100
0001
0100
1000
0100
0010
0001
,
1000
0100
0010
0001
0001
0100
0001
0100
1000
0010
1000
0010
0001
0010
0100
1000
,
0001
0010
0100
1000
0100
1000
0001
0100
0001
1000
0100
0001
0010
1000
0010
0100
,
0001
0100
0001
0100
1000
0010
0100
0010
0001
1000
0010
1000
0001
1000
0100
0010
,
1000
0001
0010
0100
1000
0010
0100
0001
0010
0100
1000
0010
0100
0001
0010
0100
,
1000
0010
0100
0010
1000
0100
0010
0001
0100
0001
0010
0100
1000
0001
0010
0100
,
0010
0001
0100
0010
1000
0010
1000
0001
0010
0100
1000
0010
0100
0010
0100
0001
,
0010
0001
1000
0010
0100
0001
0010
0100
0010
0100
0010
0001
1000
0010
0100
0010
,
1000
0010
0100
0010
1000
0010
1000
0000
1000
0010
1000
0000
0001
0100
0001
0000
,
0010
0100
0010
0000
1000
0100
0010
0000
0001
1000
0100
0010
0001
0000
0010
0100
,
0001
0100
0010
0000
0001
0010
0001
0000
0001
0010
0001
0000
1000
0100
1000
0000
,
0010
0100
0010
0000
0001
0100
0010
0000
1000
0001
0100
0000
1000
0001
0010
0000
,
1000
0100
0001
0000
0001
0010
1000
0000
0100
0001
0010
0000
1000
0010
0001
0000
,
0010
1000
0100
0000
0001
1000
0010
0000
1000
0001
1000
0100
0010
0000
0100
0010
,
0100
0010
0001
0000
1000
0001
1000
0000
0010
1000
0001
0000
1000
0001
0100
0000
,
1000
0001
0010
0000
1000
0001
1000
0000
0010
1000
0001
0000
1000
0010
1000
0000
,
0001
0100
0001
0000
1000
0010
1000
0000
0001
1000
0100
0000
0010
1000
0100
0000
,
0100
0010
1000
0000
0001
1000
0010
0000
0100
0001
1000
0010
1000
0000
0010
0100
,
0010
0001
0100
0000
0001
1000
0010
0000
1000
0001
0100
0000
0010
1000
0001
0000
,
0100
0010
1000
0000
0001
1000
0010
0000
1000
0001
1000
0000
0010
0100
0001
0000
,
1000
0010
1000
0000
0001
0100
0010
0000
1000
0010
1000
0000
0001
0010
1000
0000
,
1000
0010
0100
0000
0001
1000
0001
0000
0100
0010
1000
0100
0001
0000
0010
0100
,
1000
0001
0010
0000
1000
0100
0001
0000
0001
1000
0010
0000
1000
0010
0100
0000
,
0100
0010
1000
0000
0010
1000
0100
0010
0001
0100
0010
1000
0100
0010
0100
0010
,
0100
0010
0100
0010
1100
0000
0011
0000
0101
0000
1010
0000
1100
0000
1010
0000
,
0110
1001
1010
0101
0011
0101
0011
1100
,
1010
1100
0101
0101
0011
1001
0011
1010
,
0110
0000
1010
0000
0110
0000
0000
0000
0011
0000
0000
0000
1010
0000
0000
1000
,
0001
1001
1010
1001
0101
0110
0101
1100
,
0101
1010
0110
1010
0110
0101
1001
1010
,
1001
0110
0011
1001
0110
1010
0110
1100
,
0101
1010
0110
0000
0110
0000
0110
0110
,
0100
0010
1000
0001
0010
0000
0101
0000
1100
0000
0101
0000
1001
0000
1010
0000
,
1100
0011
1100
1010
0101
0110
0101
1010
,
1100
0110
1010
0101
1010
0110
1010
0101
,
1010
0000
1001
0000
0011
0000
0000
0000
1100
0000
0000
0000
1100
0000
0000
0010
,
0100
0000
0100
0010
0100
0010
1000
0100
0010
0001
1000
0001
0010
0100
1000
0010
,
0100
0000
0001
0000
0010
0000
0001
0000
0010
0000
0001
0000
0010
0000
0100
0000
0010
0000
0001
0000
0100
0000
0010
0000
1000
0010
1000
0000
0100
0000
0010
0000
,
0001
0100
0001
0000
0100
0000
0010
0000
0010
0000
0001
0000
0100
0000
0001
0000
0010
0000
1000
0000
0100
0001
0100
0001
0100
0000
1000
0000
0010
0000
0001
0000
,
0100
0001
0100
0001
4004
0000
0000
0000
0000
0000
0000
0000
0000
0000
0000
0000
,
0000
3003
0000
0000
;
