#TITLE:Miracle Matter -PARANOiA MiX-;
#SUBTITLE:[Keyboard Chart];
#ARTIST:DesoloZantas;
#TITLETRANSLIT:;
#SUBTITLETRANSLIT:;
#ARTISTTRANSLIT:;
#GENRE:;
#CREDIT:;
#MUSIC:Miracle Matter -PARANOiA MiX-.ogg;
#BANNER:miracle-bn.png;
#BACKGROUND:miracle-bg.png;
#CDTITLE:;
#SAMPLESTART:0.000;
#SAMPLELENGTH:0.000;
#SELECTABLE:YES;
#OFFSET:1.327;
#BPMS:0.000=180.000
,148.000=90.000
,164.000=180.000
;
#STOPS:;
#BGCHANGES:;
#FGCHANGES:;

//--------------- dance-single - POINTY'S SOUND ----------------
#NOTES:
     dance-single:
     POINTY'S SOUND:
     Edit:
     100000:
     0,0,0,0,0:
0000
0000
0000
0000
,
0022
0000
0033
00MM
0000
0000
2200
0000
3300
MM00
0000
0000
0220
0000
0330
0MM0
,
0000
0000
2200
0000
3300
MM00
0000
0000
0202
0000
0303
0M0M
0000
0000
0220
0000
,
0330
0MM0
0000
0000
2200
0000
3300
MM00
0000
0000
2200
0000
3300
MM00
0000
0000
,
1000
0010
0100
0001
0010
0001
1000
0100
0001
0100
1000
0100
1000
0010
1000
0010
,
1001
0000
1100
0000
1000
0010
0001
0100
1010
0000
0110
0000
1000
0100
1000
0100
,
1010
0000
0101
0000
1000
0100
0001
0010
0101
0000
1100
0000
0100
0010
0001
0100
,
1000
0010
0100
0010
1000
0100
0001
0010
1000
0010
0001
0010
1000
0100
0001
0010
,
1100
0000
0110
0000
1001
0000
0110
0000
2000
0001
0010
0001
3010
0000
1010
0000
,
0010
1000
1000
1000
0010
1000
1000
0000
,
0001
0100
0001
0100
0001
0001
0001
0000
,
1000
0100
0010
0001
0100
0100
0010
0001
0100
0010
1000
0010
0010
0000
0001
0000
,
0100
1000
0100
0000
0010
0001
0010
0000
1000
0001
0010
1000
0001
0100
0010
1000
,
2002
0000
0000
0000
0000
0000
3003
0000
0001
1000
0100
0010
0001
0000
0000
0000
,
1000
0010
0001
1000
0100
0010
1000
0100
1000
0001
0010
0001
,
0100
0001
0010
0100
1000
0010
0100
0001
0010
0001
0100
0010
1000
0100
1000
0001
,
1000
0010
1000
0100
0010
0001
1000
0100
1000
0010
1000
0010
0100
0010
0100
0010
,
2002
0000
0000
0000
0000
0000
0000
0000
0000
0000
0000
0000
3003
0000
0000
M00M
0000
0000
0000
0000
0000
0000
0000
0000
1000
0000
0000
0000
0001
0000
0000
0000
0010
0000
0000
0000
0001
0000
0000
0000
0100
0000
0000
0000
0010
0000
0000
0000
,
1000
0000
0100
0000
1000
0000
0010
0000
1000
0000
0001
0000
0010
0000
0100
0000
1000
0000
0100
0000
0000
1001
0000
0000
,
1001
0000
0000
0000
0101
0000
0000
0000
1000
0100
1000
0010
1000
0001
0010
0000
,
0010
0000
1000
0010
1000
0001
0010
0100
1000
0010
0100
0010
0100
0010
0100
0010
,
1001
0000
1010
0000
0000
0101
0000
0001
1000
0100
1000
0010
0100
0001
1100
0000
,
0000
0001
1100
0000
0000
1001
0000
1000
0001
0010
1000
0010
1000
0100
1000
0000
,
0000
0011
1100
0000
0000
0100
0001
0010
1000
0100
0100
0010
0001
0100
1010
0000
,
0000
0011
0010
0000
1000
0100
1000
0010
0100
0010
1000
0001
0100
0001
0010
0001
,
0100
0001
1000
0001
0010
0001
0100
0010
1000
0100
0010
0100
0010
0001
0100
0001
,
1000
0001
1000
0100
0010
0001
0100
0010
1000
0010
0100
0001
0100
0001
0010
0100
,
1000
0001
0010
0001
0100
0001
0100
0010
0100
0001
0100
0001
0010
0100
1000
0010
,
0100
0010
1000
0001
0100
0001
1000
0001
1000
0010
1000
0100
1000
0100
1000
0000
,
1001
0000
0100
0010
1000
0100
1000
0010
1000
0100
0010
0100
1000
0001
0010
0100
,
0010
0001
0100
0010
0100
0010
1000
0001
1000
0100
0010
0001
0010
0000
0101
0000
,
1010
0001
0100
0001
0010
0100
1000
0001
1000
0001
0100
0001
,
1000
0010
0100
0001
0100
0010
1000
0010
1000
0010
0100
1000
,
0101
0000
0010
0100
0001
0010
0100
0010
0001
0010
0001
0010
0100
1000
0010
0100
,
0001
1000
0010
0100
0010
1000
0100
0010
0001
1000
0100
0010
0100
1000
1001
0000
,
0110
0100
0010
0001
0100
0010
1000
0010
0100
0001
0010
0001
,
0100
0010
0100
0001
0010
0100
1000
0100
1000
0010
0100
0010
,
1000
0100
0001
0000
0100
1000
0010
0000
0010
0001
0001
0001
0010
0001
0001
0000
,
0010
1000
1000
1000
0010
1000
1000
0000
0100
1000
0100
1000
1000
1000
1000
0000
,
0100
0001
0100
0001
0001
0001
0001
0000
0010
0000
1000
0000
0100
0000
0001
0010
,
1000
0000
0100
0000
0001
0000
0010
1000
0100
0000
0001
0000
0010
0000
1000
0100
,
0100
0010
0001
1000
0010
1000
0010
0100
0010
0100
0001
1000
,
0010
0000
1000
0000
0100
0000
0010
0000
0001
0000
0010
0000
0001
0000
0010
0000
0100
0000
0010
0000
0000
1001
0000
0000
,
0101
0000
0100
0010
0001
0100
0001
0010
0100
0010
0100
0010
0001
1000
0010
1000
,
0100
1000
0010
0100
0010
0100
0001
0100
0010
1000
0100
0010
0100
1000
0010
0000
,
1001
0100
0010
0001
0100
0010
1000
0100
0010
0100
1000
0001
,
1000
0000
0001
0000
0100
0000
0010
0000
1000
0000
0100
0000
0010
0000
0100
0000
0010
0000
0100
0000
0000
0110
0000
0000
,
1001
0000
0100
0010
0100
1000
0001
0100
0001
1000
0001
0100
0010
1000
0001
0100
,
0010
1000
0010
1000
0100
0010
0001
0010
0001
0100
0010
1000
0100
1000
0010
0100
,
0200
0000
1000
0010
0000
1000
0010
0300
,
1020
0100
0000
1000
0132
0100
0100
0000
,
1023
0000
0100
1000
0000
0001
1000
0000
,
0231
0000
1000
0010
0010
0001
0010
0001
,
0321
0000
0000
0000
1000
0000
0100
0000
0000
0000
1000
0000
0001
0000
0000
0030
,
1020
0100
0000
1000
0232
0000
0300
0000
,
1023
0000
0001
1000
0000
0100
1000
0000
,
2031
0010
0000
0001
3210
0010
0020
0030
,
0302
0000
0000
0010
0100
1000
0203
0010
0001
0010
1000
1000
,
0320
0000
0000
0000
0001
0000
0000
0000
0100
0000
0000
0000
1000
0000
0000
0000
0100
0000
0000
0000
0001
0000
0000
0000
0230
0000
0000
0000
0000
0000
0001
0000
0000
0000
0000
0000
0010
0000
0000
0000
0000
0000
0010
0000
0000
0300
0000
0000
,
0200
0010
0001
0010
1000
0010
0001
0010
,
2300
0100
0001
0010
3202
0000
0000
0000
,
0323
0000
0000
0000
0000
0000
0230
0010
0001
0010
1000
0001
,
0320
0000
0000
0000
0100
0000
0000
0000
1000
0000
0000
0000
0100
0000
0000
0000
0001
0000
0000
0000
0001
0030
0000
0000
0020
0000
0000
0000
0100
0000
0000
0000
1000
0000
0000
0000
0100
0000
0000
0000
0000
0000
0000
0000
0000
0000
0000
0000
,
0132
0000
0000
0000
1000
0000
0000
0000
0100
0000
0000
0000
1000
0000
0000
0000
0000
0000
0000
0000
0000
0000
0000
0000
0123
0000
0000
0000
1000
0000
0000
0000
0100
0000
0000
0000
1000
0000
0000
0000
0000
0000
0000
0000
0000
0030
0000
0000
,
0020
0000
0000
0000
2032
0000
0000
3003
,
2002
0000
0000
0000
0000
0000
0000
0000
0000
3003
0000
0000
0010
0000
0100
0000
1000
0000
0010
0000
1000
0000
0100
0000
,
0010
0000
0001
0000
0100
0000
0001
0000
1000
0000
0100
0000
1000
0000
0001
0000
0010
0000
0100
0000
0000
1001
0000
0000
,
0110
0000
1000
0010
0100
0001
0010
0100
1000
0010
0100
0001
0010
0100
0010
0001
,
0100
0001
0100
0001
0010
0100
1000
0001
0100
0001
1000
0100
1000
0010
1000
0000
,
1001
1000
0001
0010
0001
0100
0010
0100
0001
0010
0100
1000
,
0010
0000
0100
0000
0001
0000
0010
0000
0001
0000
0010
0000
0001
0000
1000
0000
0100
0000
1000
0000
0000
1001
0000
0000
,
0110
0000
0100
0010
1000
0100
0010
0001
0100
0001
1000
0010
1000
0100
0010
0100
,
0010
0100
1000
0010
0100
0010
1000
0010
0100
0001
0100
0010
2002
0000
0000
0000
,
0000
0000
0000
0000
,
3003
0000
0000
0000
;
